VERSION	0.00.00	1.04.00
FES_MODE	0
BPM_DEF	185.000	185.000	185.000	185.000
MET_DEF	4	4
RESOLUTION	384
CLK_DEF	384
COMPATIBLE_CODE	MA2

BPM	0	0	185.000
MET	0	0	4	4

NMHLD	1	0	6	192
NMTTP	1	192	5	E	0	M1
NMHLD	2	0	5	192
NMTTP	2	192	4	E	0	M1
NMHLD	3	0	4	192
NMTTP	3	192	3	E	0	M1
NMHLD	4	0	3	192
NMTTP	4	192	2	E	0	M1
NMHLD	5	0	1	192
NMTTP	5	192	3	E	0	M1
NMHLD	6	0	2	192
NMTTP	6	192	4	E	0	M1
NMHLD	7	0	3	192
NMTTP	7	192	5	E	0	M1
NMTAP	8	0	4
NMSTR	8	0	5
NMSUL	8	0	5	96	432	3
NMTAP	9	240	2
NMTAP	9	288	2
NMTAP	9	288	3
NMSTR	10	0	1
NMSI_	10	0	1	96	48	4
NMTAP	10	96	5
NMTAP	10	192	6
NMTAP	10	240	6
NMTAP	10	288	3
NMTAP	10	288	5
NMTAP	11	0	2
NMTAP	11	48	2
NMTAP	11	96	4
NMTAP	11	144	3
NMTAP	11	192	5
NMTAP	11	240	5
NMTAP	11	288	4
NMTAP	11	288	6
NMHLD	12	0	1	96
NMTAP	12	96	3
NMTAP	12	192	5
NMTAP	12	240	4
NMTAP	12	288	3
NMTAP	12	288	6
NMTAP	13	0	7
NMTAP	13	48	0
NMTAP	13	96	1
NMTAP	13	96	6
NMTAP	13	192	2
NMTAP	13	240	3
NMTAP	13	288	1
NMTAP	13	288	4
NMSTR	14	0	6
NMSI_	14	0	6	96	48	3
NMTAP	14	96	2
NMTAP	14	192	1
NMTAP	14	240	1
NMTAP	14	288	2
NMTAP	14	288	4
NMTAP	15	0	5
NMTAP	15	48	5
NMTAP	15	96	3
NMTAP	15	144	4
NMTAP	15	192	2
NMTAP	15	240	2
NMTAP	15	288	1
NMTAP	15	288	3
NMHLD	16	0	6	96
NMTAP	16	96	4
NMTAP	16	192	2
NMTAP	16	240	3
NMTAP	16	288	1
NMHLD	16	288	4	144
NMTAP	17	48	5
NMTAP	17	96	6
NMTAP	17	144	7
NMTAP	17	192	0
NMTAP	17	240	1
NMTAP	17	288	2
NMTAP	17	336	3
NMHLD	18	0	4	576
NMTAP	18	0	5
NMTAP	18	96	6
NMTAP	18	192	5
NMTAP	18	240	5
NMTAP	18	336	3
NMTAP	19	48	5
NMTAP	19	96	5
NMTAP	19	192	6
NMTAP	19	240	6
NMTAP	19	288	3
NMTAP	19	288	5
NMTAP	20	0	2
NMHLD	20	0	3	576
NMTAP	20	96	1
NMTAP	20	192	2
NMTAP	20	240	2
NMTAP	20	336	4
NMTAP	21	48	2
NMTAP	21	96	2
NMSTR	21	192	1
NMSCL	21	192	1	96	48	6
NMTAP	21	288	4
NMHLD	22	0	5	96
NMTAP	22	96	4
NMTAP	22	192	2
NMTAP	22	240	2
NMTAP	22	240	3
NMTAP	22	336	1
NMTAP	22	336	4
NMTAP	23	48	5
NMTAP	23	96	4
NMTAP	23	96	5
NMTAP	23	192	6
NMTAP	23	240	4
NMSTR	23	288	3
NMSXR	23	288	3	96	240	4
NMTAP	23	288	5
NMTAP	24	0	6
NMTAP	24	192	5
NMTAP	24	240	5
NMTAP	24	336	3
NMTAP	25	0	3
NMTAP	25	48	4
NMTAP	25	144	2
NMSTR	25	144	3
NMSI_	25	144	3	96	48	7
NMTAP	25	240	0
NMTAP	25	288	0
NMTAP	26	0	1
NMHLD	26	48	1	96
NMHLD	26	144	3	96
NMHLD	26	240	4	96
NMTAP	26	336	6
NMSTR	27	0	6
NMSCR	27	0	6	96	48	1
NMTAP	27	96	3
NMTAP	27	192	2
NMTAP	27	240	2
NMTAP	27	288	3
NMTAP	27	336	1
NMSTR	28	0	7
NMSCL	28	0	7	96	48	4
NMTAP	28	96	3
NMSTR	28	192	2
NMSCL	28	192	2	96	48	7
NMTAP	28	288	6
NMSTR	29	0	5
NMSCL	29	0	5	96	48	2
NMTAP	29	96	1
NMSTR	29	192	0
NMSI_	29	192	0	96	48	4
NMTAP	29	288	7
EXTAP	30	0	3
EXTAP	30	0	5
EXTAP	30	48	3
EXSTR	30	48	5
NMSI_	30	48	5	96	48	0
NMSTR	30	144	1
NMSI_	30	144	1	96	48	4
NMSTR	30	240	7
NMSI_	30	240	7	96	48	3
NMTAP	30	336	0
NMTAP	31	48	0
NMTAP	31	48	1
BRTAP	31	96	2
BRTAP	31	96	7
NMTAP	31	240	3
NMTAP	31	288	3
NMTAP	32	0	5
NMTAP	32	48	5
NMHLD	32	96	3	96
NMHLD	32	96	5	96
NMTAP	32	240	3
NMSTR	32	240	5
NMSCR	32	240	5	96	192	3
NMTAP	32	336	4
NMHLD	33	192	1	96
NMTAP	33	288	3
NMTAP	34	0	2
NMTAP	34	48	2
NMTAP	34	96	2
NMTAP	34	96	4
NMTAP	34	192	3
NMTAP	34	192	5
NMTAP	34	288	6
NMHLD	34	336	6	96
NMTAP	35	48	4
NMTAP	35	144	5
NMTAP	35	144	6
NMTAP	35	240	3
NMTAP	35	240	4
NMSTR	35	336	1
NMSI_	35	336	1	96	48	4
NMTAP	35	336	2
NMTAP	36	48	6
NMTAP	36	96	6
NMTAP	36	192	7
NMSTR	36	240	7
NMSCL	36	240	7	96	96	4
NMSTR	36	336	4
NMSCL	36	336	4	96	96	1
NMSTR	37	48	1
NMSCL	37	48	1	96	96	6
NMTAP	37	144	6
NMTAP	37	240	3
NMTAP	37	288	3
NMTAP	38	0	1
NMTAP	38	48	1
NMTAP	38	96	4
NMTAP	38	144	2
NMTAP	38	168	3
NMTAP	38	192	2
NMTAP	38	240	4
NMTAP	38	288	3
NMTAP	38	288	5
NMTAP	39	0	6
NMTAP	39	48	6
NMTAP	39	96	3
NMTAP	39	144	5
NMTAP	39	168	4
NMTAP	39	192	5
NMTAP	39	240	3
NMTAP	39	288	2
NMTAP	39	288	4
NMTAP	40	0	2
NMTAP	40	48	2
NMTAP	40	96	7
NMTAP	40	144	1
NMTAP	40	168	0
NMTAP	40	192	1
NMTAP	40	240	7
NMTAP	40	288	0
NMTAP	40	288	6
NMTAP	41	0	5
NMTAP	41	48	5
NMTAP	41	96	0
NMTAP	41	144	6
NMTAP	41	168	7
NMTAP	41	192	6
NMTAP	41	240	0
NMTAP	41	288	1
NMTAP	41	288	7
NMHLD	42	0	5	96
NMTAP	42	96	4
NMTAP	42	144	3
NMSTR	42	144	6
NMSI_	42	144	6	96	48	0
NMSTR	42	240	2
NMSI_	42	240	2	96	48	4
NMSTR	42	336	6
NMSI_	42	336	6	96	48	2
NMTAP	43	48	1
NMTAP	43	96	1
NMSTR	43	144	0
NMSCR	43	144	0	96	48	3
NMSTR	43	240	7
NMSCL	43	240	7	96	48	4
EXHLD	43	336	3	336
NMTAP	44	48	2
NMTAP	44	96	1
NMTAP	44	144	0
NMTAP	44	192	7
NMTAP	44	240	6
NMTAP	44	288	5
EXHLD	44	336	2	144
EXHLD	44	336	4	144
EXSTR	45	144	2
NMSI_	45	144	2	96	48	7
EXTAP	45	144	4
EXSTR	45	240	5
NMSI_	45	240	5	96	48	0
BRTAP	45	336	1
NMTAP	46	48	1
NMTAP	46	96	2
NMTAP	46	96	4
NMTAP	46	144	5
NMTAP	46	192	6
NMTAP	46	192	7
NMTAP	46	240	0
NMTAP	46	288	1
NMTAP	46	288	7
NMTAP	46	336	2
NMSTR	47	0	3
NMSCL	47	0	3	96	48	0
NMHLD	47	0	5	96
NMHLD	47	192	1	96
NMSTR	47	192	7
NMSCL	47	192	7	96	48	4
NMSTR	48	0	2
NMSI_	48	0	2	96	48	7
NMTAP	48	48	4
NMSTR	48	96	6
NMSI_	48	96	6	96	48	3
NMTAP	48	192	0
NMTAP	48	192	6
NMSTR	48	288	2
NMSI_	48	288	2	96	48	7
NMTAP	48	336	4
NMSTR	49	0	6
NMSI_	49	0	6	96	48	3
NMTAP	49	96	0
NMTAP	49	96	6
EXTAP	49	192	1
EXTAP	49	192	5
EXSTR	49	240	1
NMSXR	49	240	1	96	144	4
EXTAP	49	240	5
BRTAP	49	336	4
NMTAP	50	96	7
NMTAP	50	192	0
NMTAP	50	192	6
NMTAP	50	240	1
NMTAP	50	240	5
NMSTR	50	288	2
NMSI_	50	288	2	96	48	4
NMTAP	50	288	4
NMTAP	51	0	6
NMSTR	51	48	6
NMSI_	51	48	6	96	48	2
NMTAP	51	144	0
NMTAP	51	240	0
NMTAP	51	240	1
NMTAP	51	288	2
NMTAP	51	288	7
NMSTR	52	0	5
NMSI_	52	0	5	96	48	0
NMTAP	52	48	3
NMSTR	52	96	1
NMSI_	52	96	1	96	48	4
NMTAP	52	192	1
NMTAP	52	192	7
NMSTR	52	288	5
NMSI_	52	288	5	96	48	0
NMTAP	52	336	3
NMTAP	53	0	1
NMTAP	53	48	1
NMTAP	53	96	2
NMTAP	53	144	4
EXTAP	53	192	1
EXTAP	53	192	5
EXSTR	53	240	1
NMSXR	53	240	1	96	192	2
EXSTR	53	240	5
NMSXR	53	240	5	96	192	6
NMTAP	54	192	3
NMTAP	54	192	7
NMTAP	54	240	4
NMTAP	54	288	6
NMTAP	54	336	0
NMTAP	55	0	2
NMSTR	55	48	3
NMSCL	55	48	3	96	48	0
NMSTR	55	48	7
NMSCL	55	48	7	96	48	4
EXTAP	55	240	2
EXTAP	55	240	6
EXTAP	55	288	2
EXTAP	55	288	6
NMHLD	56	0	0	72
NMHLD	56	72	1	72
NMTAP	56	144	2
NMHLD	56	192	6	72
NMHLD	56	264	5	72
NMTAP	56	336	4
NMHLD	57	0	2	72
NMHLD	57	72	3	72
NMTAP	57	144	4
NMTAP	57	192	4
NMTAP	57	240	3
NMTAP	57	240	5
NMTAP	57	288	2
NMTAP	57	288	6
BRTAP	57	336	1
BRTAP	57	336	7
NMTAP	58	144	2
NMTAP	58	144	6
NMTAP	58	192	5
NMTAP	58	240	3
NMTAP	58	288	1
NMSTR	58	336	0
NMSUR	58	336	0	96	48	4
NMSTR	58	336	4
NMSUR	58	336	4	96	48	0
EXTAP	59	48	0
EXTAP	59	48	4
NMSTR	59	144	3
NMSCL	59	144	3	96	48	0
NMSTR	59	144	7
NMSCL	59	144	7	96	48	4
EXTAP	59	240	3
EXTAP	59	240	7
NMHLD	60	0	1	96
NMTAP	60	0	5
NMTAP	60	96	3
NMTAP	60	144	2
NMTAP	60	192	5
NMTAP	60	240	4
NMTAP	60	288	3
NMTAP	60	288	7
NMTAP	61	0	2
NMHLD	61	0	6	96
NMTAP	61	96	4
NMTAP	61	144	5
NMTAP	61	192	2
NMTAP	61	240	3
NMSTR	61	288	0
NMSI_	61	288	0	96	48	4
NMTAP	61	288	4
NMSTR	62	0	6
NMSCR	62	0	6	96	48	1
NMTAP	62	48	6
NMSTR	62	96	2
NMSCR	62	96	2	96	48	5
NMTAP	62	144	2
NMTAP	62	192	7
NMTAP	62	240	7
EXTAP	62	288	0
EXTAP	62	288	6
BRTAP	62	336	1
BRTAP	62	336	5
BRTAP	63	0	1
BRTAP	63	0	5
BRTAP	63	48	1
BRTAP	63	48	5
NMSTR	63	144	4
BRSI_	63	144	4	96	48	0
NMTTP	63	240	0	C	1	M1
NMTAP	64	0	7
NMTAP	64	48	7
NMTAP	64	96	0
NMTAP	64	144	1
NMTAP	64	144	7
NMTAP	64	240	2
NMTAP	64	240	6
NMHLD	64	336	3	96
NMHLD	64	336	5	96
NMTAP	65	96	3
NMTAP	65	96	5
NMTAP	65	192	2
NMTAP	65	240	4
NMTAP	65	288	1
NMTAP	65	288	5
NMHLD	66	0	6	96
NMTAP	66	96	4
NMTAP	66	192	0
NMHLD	66	240	0	96
NMHLD	66	336	2	96
NMHLD	67	48	4	96
NMHLD	67	144	6	96
NMTAP	67	240	7
NMTAP	67	288	6
NMTAP	67	336	5
NMTAP	68	0	2
NMTAP	68	0	4
NMTAP	68	48	3
NMTAP	68	96	5
NMTAP	68	144	7
NMTAP	68	192	1
NMTAP	68	240	3
NMSTR	68	240	5
NMSCR	68	240	5	96	96	0
NMSTR	68	336	0
NMSCR	68	336	0	96	96	3
NMSTR	69	48	3
NMSCR	69	48	3	96	96	6
NMSTR	69	144	6
NMSCR	69	144	6	96	96	1
NMSTR	69	240	1
NMSCR	69	240	1	96	96	4
NMHLD	70	0	7	144
NMTAP	70	192	0
NMTAP	70	192	6
NMTAP	70	240	0
NMSTR	70	240	6
NMSI_	70	240	6	96	48	4
NMSTR	70	336	0
NMSI_	70	336	0	96	48	2
NMSTR	71	48	7
NMSI_	71	48	7	96	48	3
NMTAP	71	144	2
NMTAP	71	240	2
NMTAP	71	240	4
NMTAP	71	288	1
NMTAP	71	288	5
NMTAP	72	0	0
NMTAP	72	0	7
NMTAP	72	48	6
NMTAP	72	96	5
NMTAP	72	144	4
NMTAP	72	192	3
NMSTR	72	240	2
NMSUR	72	240	2	96	384	4
NMTAP	72	288	1
NMTAP	72	336	0
NMTAP	74	48	5
NMTAP	74	96	4
NMTAP	74	96	5
NMTAP	74	192	2
NMTAP	74	216	3
NMTAP	74	240	1
NMTAP	74	288	5
NMTAP	74	312	4
NMTAP	74	336	6
EXHLD	75	0	0	528
EXHLD	75	0	7	528
NMTAP	76	192	0
NMTAP	76	192	7
NMTAP	76	240	1
NMTAP	76	240	6
NMTAP	76	288	2
NMTAP	76	288	5
EXTAP	76	336	3
EXTAP	76	360	3
EXSTR	77	0	4
NMSI_	77	0	4	96	48	1
BXSTR	77	96	4
NMSI_	77	96	4	96	48	7
BXSTR	77	192	4
NMSCL	77	192	4	96	48	1
BXSTR	77	288	4
NMSCR	77	288	4	96	48	7
BXTAP	78	0	4
NMTAP	78	96	0
NMTAP	78	96	1
NMSTR	78	144	0
NMSI_	78	144	0	96	48	5
NMSTR	78	144	1
NMSI_	78	144	1	96	48	4
BRTAP	78	240	0
BRTAP	78	240	1
NMSTR	79	0	6
NMSI_	79	0	6	96	48	3
NMTAP	79	48	0
NMSTR	79	96	2
NMSI_	79	96	2	96	48	7
NMTAP	79	192	2
NMTAP	79	192	4
NMSTR	79	288	6
NMSI_	79	288	6	96	48	3
NMTAP	79	336	0
NMTAP	80	0	1
NMTAP	80	48	2
NMTAP	80	96	4
NMTAP	80	144	5
NMTAP	80	192	6
NMSTR	80	240	3
NMSXR	80	240	3	96	192	0
NMSTR	80	240	7
NMSXR	80	240	7	96	192	4
NMTAP	81	192	2
NMTAP	81	192	6
NMTAP	81	240	5
NMTAP	81	288	4
NMTAP	81	336	3
NMTAP	82	0	1
NMTAP	82	0	5
NMSTR	82	48	1
NMSI_	82	48	1	96	48	4
NMSTR	82	48	5
NMSI_	82	48	5	96	48	0
NMTAP	82	144	1
NMTAP	82	144	5
EXTAP	82	240	2
EXTAP	82	240	6
EXTAP	82	288	2
EXTAP	82	288	6
NMHLD	83	0	7	72
NMHLD	83	72	6	72
NMTAP	83	144	5
NMHLD	83	192	1	72
NMHLD	83	264	2	72
NMTAP	83	336	3
NMHLD	84	0	5	72
NMHLD	84	72	4	72
NMSTR	84	144	3
NMSI_	84	144	3	96	48	7
NMTAP	84	240	0
NMTAP	84	288	0
NMHLD	85	0	3	72
NMHLD	85	72	1	72
NMTAP	85	144	0
NMHLD	85	192	4	72
NMHLD	85	264	6	72
NMTAP	85	336	7
BRTAP	86	0	1
BRTAP	86	0	5
NMSTR	86	144	0
NMSI_	86	144	0	96	48	4
NMTAP	86	192	0
NMTAP	86	240	7
NMSTR	87	0	6
NMSUL	87	0	6	96	48	2
NMTAP	87	48	6
EXTAP	87	96	7
NMTAP	87	192	1
NMTAP	87	240	0
NMTAP	87	288	2
EXTAP	87	288	7
NMSTR	88	0	1
NMSUR	88	0	1	96	48	5
NMTAP	88	48	1
EXTAP	88	96	0
NMTAP	88	192	6
NMTAP	88	240	7
EXTAP	88	288	0
NMSTR	88	288	5
NMSCL	88	288	5	96	48	2
NMTAP	89	0	1
EXTAP	89	96	3
EXTAP	89	96	4
NMTAP	89	144	5
NMTAP	89	192	2
EXTAP	89	192	3
NMTAP	89	240	1
EXTAP	89	288	4
NMTAP	89	288	5
NMTAP	89	336	6
NMTAP	90	0	1
EXTAP	90	0	3
NMTAP	90	48	0
EXTAP	90	96	4
NMTAP	90	96	6
NMTAP	90	144	7
NMTAP	90	192	2
EXTAP	90	192	3
BXTAP	90	240	0
BXTAP	90	288	0
NMTAP	91	0	2
NMTAP	91	24	4
NMTAP	91	48	2
NMTAP	91	72	4
NMTAP	91	96	2
NMTAP	91	120	4
NMTAP	91	144	2
NMTAP	91	168	4
NMTAP	91	192	2
NMTAP	91	216	4
NMTAP	91	240	2
NMTAP	91	264	4
NMTAP	91	288	2
NMTAP	91	312	4
NMTAP	91	336	2
NMTAP	91	360	4
NMTAP	92	0	2
NMTAP	92	24	4
NMTAP	92	48	2
NMTAP	92	72	4
NMTAP	92	96	2
NMTAP	92	120	4
NMTAP	92	144	2
NMTAP	92	168	4
EXTAP	92	192	1
EXTAP	92	192	5
EXSTR	92	240	1
NMSCL	92	240	1	96	48	6
EXSTR	92	240	5
NMSCL	92	240	5	96	48	2
NMTAP	93	96	3
NMTAP	93	96	4
NMSTR	93	192	0
NMSI_	93	192	0	96	48	2
NMSTR	93	192	7
NMSI_	93	192	7	96	48	5
EXTAP	94	0	3
EXTAP	94	0	4
EXTAP	94	64	1
EXTAP	94	64	2
EXTAP	94	128	0
EXTAP	94	128	7
EXTAP	94	192	5
EXTAP	94	192	6
EXTAP	94	256	3
EXTAP	94	256	4
EXTAP	94	320	1
EXTAP	94	320	2
BRTAP	95	0	0
BRSTR	95	0	7
NMSI_	95	0	7	96	48	3
NMSTR	95	96	1
NMSI_	95	96	1	96	48	4
NMSTR	95	192	5
NMSI_	95	192	5	96	48	0
NMSTR	95	288	2
NMSI_	95	288	2	96	48	7
NMSTR	96	0	6
NMSI_	96	0	6	96	48	3
NMSTR	96	96	0
NMSI_	96	96	0	96	48	4
NMTAP	96	192	4
NMTAP	96	288	2
NMTAP	96	288	6
NMTAP	97	0	0
NMTAP	97	0	1
NMTAP	97	48	0
NMTAP	97	48	1
NMTAP	97	96	2
NMTAP	97	96	7
NMTAP	97	192	6
NMTAP	97	192	7
NMTAP	97	240	6
NMTAP	97	240	7
NMTAP	97	288	0
NMTAP	97	288	5
NMTAP	98	0	3
NMTAP	98	0	4
NMTAP	98	48	2
NMTAP	98	48	5
NMTAP	98	96	1
NMTAP	98	96	6
NMSTR	98	144	0
NMSCR	98	144	0	96	48	3
NMSTR	98	144	7
NMSCL	98	144	7	96	48	4
BRTAP	98	240	0
BRTAP	98	240	7
NMHLD	99	0	3	72
NMHLD	99	72	2	72
NMTAP	99	144	1
NMHLD	99	192	5	72
NMHLD	99	264	6	72
NMTAP	99	336	7
NMHLD	100	0	1	72
NMHLD	100	72	0	72
NMSTR	100	144	7
NMSCR	100	144	7	96	120	5
NMTAP	100	240	5
NMTAP	100	288	6
BRTAP	100	336	7
NMTAP	101	144	0
NMTAP	101	144	1
NMTAP	101	192	2
NMTAP	101	240	4
NMTAP	101	288	6
NMSTR	101	336	0
NMSI_	101	336	0	96	48	4
NMSTR	101	336	7
NMSI_	101	336	7	96	48	5
EXTAP	102	48	0
EXTAP	102	48	7
NMSTR	102	144	2
NMSI_	102	144	2	96	48	0
NMSTR	102	144	3
NMSI_	102	144	3	96	48	7
EXTAP	102	240	2
EXTAP	102	240	3
NMTAP	103	0	1
NMHLD	103	0	5	96
NMTAP	103	96	4
NMTAP	103	192	6
NMTAP	103	240	7
NMTAP	103	288	0
NMTAP	103	288	5
NMHLD	104	0	2	96
NMTAP	104	0	6
NMTAP	104	96	3
NMTAP	104	192	1
NMTAP	104	240	0
NMTAP	104	288	2
NMSTR	104	288	7
NMSSR	104	288	7	96	144	3
EXTAP	105	0	0
NMTAP	105	192	1
NMTAP	105	192	5
NMTAP	105	288	2
NMTAP	105	288	3
NMTAP	106	0	4
NMTAP	106	0	5
NMTAP	106	48	3
NMHLD	106	48	6	96
NMTAP	106	144	7
NMTAP	106	240	0
NMTAP	106	240	1
NMTAP	106	288	0
NMSTR	106	288	1
NMSI_	106	288	1	96	48	5
NMTAP	107	0	7
NMTAP	107	96	4
NMTAP	107	96	6
NMTAP	107	144	6
NMTAP	107	192	3
NMTAP	107	192	5
NMTAP	107	240	5
NMSTR	107	288	2
NMSCL	107	288	2	96	48	7
NMTAP	107	288	4
NMTAP	107	336	4
NMTAP	108	0	3
NMTAP	108	96	1
NMTAP	108	96	3
NMTAP	108	144	1
NMTAP	108	192	2
NMTAP	108	192	4
NMTAP	108	240	2
NMTAP	108	288	3
NMSTR	108	288	5
NMSCR	108	288	5	96	48	0
NMTAP	108	336	3
NMTAP	109	0	4
NMTAP	109	96	4
NMTAP	109	96	6
NMTAP	109	144	6
NMTAP	109	192	3
NMTAP	109	192	5
NMTAP	109	240	5
NMTAP	109	288	2
NMTAP	109	288	4
NMTAP	109	336	4
NMTAP	110	0	1
NMTAP	110	0	3
NMHLD	110	48	0	96
NMTAP	110	144	7
NMTAP	110	240	4
NMTAP	110	240	5
NMTAP	110	288	3
NMSTR	110	288	7
BRSI_	110	288	7	96	48	3
NMTAP	111	0	0
NMTAP	111	0	7
NMTAP	111	96	2
NMTAP	111	96	4
NMTAP	111	144	4
NMTAP	111	192	3
NMTAP	111	192	5
NMTAP	111	240	5
NMSTR	111	288	4
BRSI_	111	288	4	96	48	0
NMTAP	111	288	6
NMTAP	111	336	6
NMTAP	112	0	7
NMTAP	112	96	3
NMTAP	112	96	5
NMTAP	112	144	3
NMTAP	112	192	2
NMTAP	112	192	4
NMTAP	112	240	2
NMTAP	112	288	1
NMSTR	112	288	3
BRSI_	112	288	3	96	48	7
NMTAP	112	336	1
NMTAP	113	0	0
NMTAP	113	96	0
NMTAP	113	96	4
NMTAP	113	144	1
NMTAP	113	144	5
NMTAP	113	192	2
NMTAP	113	192	6
NMTAP	113	240	3
NMTAP	113	240	7
EXSTR	113	288	0
BRSF_	113	288	0	96	48	4
EXTAP	113	288	4
NMTTP	114	0	0	C	1	M1
NMSTR	114	144	6
NMSI_	114	144	6	96	48	2

T_REC_TAP	494
T_REC_BRK	20
T_REC_XTP	56
T_REC_BXX	3
T_REC_HLD	59
T_REC_XHO	5
T_REC_BHO	0
T_REC_BXH	0
T_REC_STR	89
T_REC_BST	1
T_REC_XST	10
T_REC_XBS	3
T_REC_TTP	9
T_REC_THO	0
T_REC_SLD	98
T_REC_BSL	5
T_REC_ALL	852
T_NUM_TAP	658
T_NUM_BRK	32
T_NUM_HLD	64
T_NUM_SLD	98
T_NUM_ALL	852
T_JUDGE_TAP	685
T_JUDGE_HLD	189
T_JUDGE_SLD	103
T_JUDGE_ALL	977
TTM_EACHPAIRS	172
TTM_SCR_TAP	329000
TTM_SCR_BRK	83200
TTM_SCR_HLD	64000
TTM_SCR_SLD	147000
TTM_SCR_ALL	623200
TTM_SCR_S	601400
TTM_SCR_SS	620000
TTM_RAT_ACV	10051

