VERSION	0.00.00	1.04.00
FES_MODE	0
BPM_DEF	185.000	185.000	185.000	185.000
MET_DEF	4	4
RESOLUTION	384
CLK_DEF	384
COMPATIBLE_CODE	MA2

BPM	0	0	185.000
MET	0	0	4	4

NMSTR	1	0	2
NMSCR	1	0	2	96	480	5
NMSTR	3	0	6
NMSCR	3	0	6	96	480	1
NMHLD	5	0	2	384
NMTAP	5	192	3
NMHLD	6	0	3	384
NMTAP	6	192	4
NMHLD	7	0	4	384
NMTAP	7	192	5
NMSTR	8	0	5
BRSCR	8	0	5	96	480	2
EXTAP	10	0	0
EXTAP	10	0	7
NMTAP	10	96	0
NMTAP	10	96	7
NMTAP	10	192	1
NMHLD	10	240	1	96
NMTAP	10	336	3
NMHLD	11	48	4	96
NMTAP	11	144	2
NMTAP	11	240	1
NMTAP	11	288	1
NMTAP	12	0	7
NMTAP	12	48	7
NMHLD	12	144	6	96
NMTAP	12	240	4
NMHLD	12	336	3	96
NMTAP	13	48	5
NMTAP	13	96	5
NMTAP	13	192	2
NMTAP	13	192	6
NMTAP	13	288	2
NMTAP	13	288	6
NMHLD	14	0	1	96
NMTAP	14	96	3
NMHLD	14	192	5	96
NMTAP	14	288	3
EXSTR	15	0	2
NMSI_	15	0	2	96	48	4
EXSTR	15	192	6
NMSI_	15	192	6	96	48	0
EXSTR	16	0	1
NMSUR	16	0	1	96	240	3
EXTAP	17	48	4
EXTAP	17	96	4
EXTAP	17	192	3
EXTAP	17	192	5
EXTAP	17	288	3
EXTAP	17	288	5
NMSTR	18	0	6
NMSLL	18	0	6	96	240	2
NMTTP	19	192	1	B	0	M1
NMTTP	19	192	1	E	0	M1
NMSTR	20	0	7
NMSI_	20	0	7	96	96	4
NMSTR	21	0	3
NMSI_	21	0	3	96	96	0
NMSTR	22	0	5
NMSLR	22	0	5	96	240	1
NMTTP	23	192	3	B	0	M1
NMTTP	23	192	3	E	0	M1
NMSTR	24	0	5
NMSCL	24	0	5	96	192	2
NMHLD	25	0	0	96
EXTAP	25	192	1
EXTAP	25	192	7
NMTAP	26	0	2
NMTAP	26	96	3
NMTAP	26	192	4
NMTAP	26	240	4
NMTAP	26	336	5
NMTAP	27	48	3
NMTAP	27	96	3
NMTAP	27	192	2
NMTAP	27	192	4
NMTAP	27	288	2
NMTAP	27	288	4
NMSTR	28	0	1
NMSCL	28	0	1	96	96	6
NMSTR	29	0	5
NMSCL	29	0	5	96	96	2
NMTAP	30	0	1
NMTAP	30	48	1
NMTAP	30	144	2
NMTAP	30	144	3
NMTAP	30	240	3
NMTAP	30	240	4
BRSTR	30	336	4
NMSF_	30	336	4	96	144	0
BRTAP	30	336	5
EXTAP	32	0	1
EXTAP	32	0	7
EXHLD	32	96	1	96
EXHLD	32	96	7	96
EXTAP	32	240	0
EXTAP	32	240	6
EXSTR	32	336	0
NMSI_	32	336	0	96	96	2
NMHLD	32	336	6	336
CNSI_	33	144	2	0	144	5
NMHLD	34	0	7	96
NMTAP	34	96	5
NMTAP	34	144	5
NMTAP	34	240	4
NMHLD	34	336	3	96
NMSTR	35	48	5
NMSUL	35	48	5	96	192	3
BXTAP	36	96	0
BXTAP	36	96	6
NMTAP	36	192	1
NMHLD	36	240	1	96
NMTAP	36	336	3
NMTAP	37	48	2
NMTAP	37	48	4
BXSTR	37	96	2
NMSXR	37	96	2	96	96	0
BXSTR	37	96	4
NMSXL	37	96	4	96	96	6
NMHLD	38	0	5	96
NMTAP	38	96	4
NMTAP	38	192	5
NMTAP	38	240	5
NMTAP	38	288	4
NMHLD	39	0	2	96
NMTAP	39	96	3
NMTAP	39	192	2
NMTAP	39	240	2
NMTAP	39	288	3
NMHLD	40	0	6	96
NMTAP	40	96	4
NMTAP	40	192	6
NMTAP	40	240	6
NMTAP	40	288	4
NMHLD	41	0	1	96
NMTAP	41	96	3
NMTAP	41	192	1
NMTAP	41	240	1
NMTAP	41	288	3
NMHLD	42	0	0	96
NMHLD	42	0	1	96
NMTAP	42	144	2
NMTAP	42	144	3
NMTAP	42	240	3
NMTAP	42	240	4
NMTAP	42	336	4
NMTAP	42	336	5
BXSTR	43	96	0
NMSV_	43	96	0	96	72	3
BXSTR	43	96	7
NMSV_	43	96	7	96	72	4
EXTAP	44	48	2
EXTAP	44	96	2
EXTAP	44	144	3
EXTAP	44	192	3
EXTAP	44	240	4
EXTAP	44	288	4
EXTAP	44	336	5
EXTAP	45	144	4
EXTAP	45	144	5
EXTAP	45	240	3
EXTAP	45	240	6
BXTAP	45	336	2
BXTAP	45	336	7
NMTAP	46	96	4
NMTAP	46	96	6
NMTAP	46	192	3
NMTAP	46	192	5
NMTAP	46	288	2
NMTAP	46	288	4
NMHLD	47	0	1	96
NMHLD	47	0	3	96
BXTAP	47	192	0
BXTAP	47	192	7
NMTAP	48	0	1
NMTAP	48	48	1
NMTAP	48	96	4
NMTAP	48	144	4
NMTAP	48	192	3
NMTAP	48	240	3
NMTAP	48	288	6
NMTAP	48	336	6
NMTAP	49	0	4
NMTAP	49	48	4
NMTAP	49	96	5
NMTAP	49	192	6
NMTAP	49	192	7
NMTAP	49	240	6
NMTAP	49	240	7
BRTAP	49	336	0
BRSTR	49	336	5
NMSCL	49	336	5	96	96	2
NMTAP	50	192	1
NMTAP	50	240	1
NMTAP	50	288	0
NMTAP	51	0	2
NMTAP	51	0	7
NMHLD	51	48	2	192
NMSTR	51	48	7
NMSUR	51	48	7	96	96	4
NMTAP	52	0	5
NMTAP	52	48	5
NMTAP	52	96	3
NMTAP	52	144	3
NMTAP	52	192	4
NMTAP	52	240	4
NMTAP	52	288	1
NMTAP	52	336	1
NMTAP	53	0	3
NMTAP	53	48	3
NMTAP	53	96	2
NMTAP	53	192	0
NMTAP	53	192	1
NMTAP	53	240	0
NMTAP	53	240	1
BRSTR	53	336	2
NMSCR	53	336	2	96	96	5
BRTAP	53	336	7
NMTAP	54	192	6
NMTAP	54	240	6
NMTAP	54	288	7
NMTAP	55	0	0
NMTAP	55	0	5
NMTAP	55	48	0
NMSTR	55	48	5
NMSXL	55	48	5	96	192	2
EXTAP	56	0	1
EXTAP	56	96	2
EXTAP	56	96	3
EXTAP	56	192	4
EXTAP	56	192	5
EXTAP	56	288	6
EXTAP	56	288	7
EXTAP	57	0	0
EXTAP	57	0	1
EXTAP	57	96	2
EXTAP	57	96	3
EXTAP	57	192	4
EXTAP	57	192	5
NMTAP	57	288	3
NMTAP	57	288	6
BXSTR	57	336	3
NMSI_	57	336	3	96	72	0
BXTAP	57	336	6
EXHLD	58	192	7	96
NMTAP	58	288	1
NMTAP	58	336	1
NMSTR	59	48	2
NMSUL	59	48	2	96	144	4
NMSTR	59	48	6
NMSCR	59	48	6	96	144	1
NMHLD	60	0	6	96
NMTAP	60	96	7
NMTAP	60	192	1
NMTAP	60	240	1
NMTAP	60	288	0
NMHLD	61	0	5	96
NMTAP	61	96	7
NMTAP	61	192	2
NMTAP	61	240	2
NMTAP	61	288	0
NMTAP	62	0	2
NMTAP	62	0	3
NMTAP	62	96	4
NMTAP	62	96	6
NMTAP	62	192	0
NMTAP	62	192	1
NMTAP	62	288	5
NMTAP	62	288	7
NMTAP	63	0	2
BXSTR	63	0	3
BRSI_	63	0	3	96	192	7
EXTAP	64	0	1
EXTAP	64	0	6
NMTAP	64	96	2
NMHLD	64	144	2	96
NMTAP	64	240	3
NMTAP	64	336	2
NMTAP	64	336	4
EXHLD	65	96	0	96
EXHLD	65	96	6	96
NMTAP	65	288	1
NMTAP	65	288	7
NMTAP	66	0	3
NMTAP	66	96	2
NMTAP	66	96	4
NMTAP	66	192	1
NMTAP	66	240	1
NMTAP	66	336	0
NMHLD	66	336	7	96
NMHLD	67	48	6	96
NMTAP	67	144	5
NMTAP	67	240	4
NMTAP	67	240	5
NMTAP	67	288	4
NMTAP	67	288	5
NMTAP	68	0	5
NMTAP	68	48	5
NMTAP	68	96	4
NMTAP	68	144	4
NMTAP	68	192	6
NMTAP	68	240	6
NMTAP	68	336	5
NMTAP	68	336	7
NMTAP	69	48	4
NMTAP	69	48	6
NMTAP	69	144	3
NMSTR	69	144	5
NMSI_	69	144	5	96	72	2
EXTAP	70	0	1
NMTAP	70	96	2
NMTAP	70	96	3
NMTAP	70	192	4
NMTAP	70	192	5
NMTAP	70	240	4
NMTAP	70	240	5
EXTAP	70	336	1
EXTAP	70	336	7
NMTAP	71	48	0
NMTAP	71	48	6
NMTAP	71	144	4
NMTAP	71	144	5
NMTAP	71	240	2
NMTAP	71	240	3
NMTAP	71	288	2
NMTAP	71	288	3
BRHLD	72	0	1	96
BRHLD	72	96	3	96
BRHLD	72	192	5	96
NMTAP	72	288	7
BXSTR	72	336	7
NMSF_	72	336	7	96	336	3
EXHLD	75	0	3	480
EXHLD	75	0	5	480
NMTAP	76	192	2
NMHLD	76	240	2	96
NMTAP	76	336	4
BRTAP	77	96	1
BRTAP	77	96	5
BRTAP	77	192	1
BRTAP	77	192	5
BRTAP	77	288	2
BRTAP	77	288	6
BXSTR	78	0	3
NMSXR	78	0	3	96	144	1
BXSTR	78	0	7
NMSXR	78	0	7	96	144	5
NMTAP	79	0	3
NMTAP	79	48	3
NMHLD	79	96	5	96
NMTAP	79	192	4
NMTAP	79	288	2
NMTAP	79	336	2
NMTAP	80	0	3
NMTAP	80	48	3
NMTAP	80	96	1
NMTAP	80	192	0
NMTAP	80	192	7
NMTAP	80	240	0
NMTAP	80	240	7
BRSTR	80	336	1
NMSCL	80	336	1	96	96	6
BRTAP	80	336	6
NMTAP	81	192	5
NMTAP	81	240	5
NMTAP	81	288	4
NMTAP	82	0	2
NMTAP	82	0	6
NMTAP	82	48	2
NMSTR	82	48	6
NMSXL	82	48	6	96	192	3
NMTAP	83	0	1
NMTAP	83	96	2
NMTAP	83	96	3
NMTAP	83	192	5
NMTAP	83	240	5
NMTAP	83	288	4
NMSTR	84	0	3
NMSLL	84	0	3	96	192	5
NMHLD	84	0	6	288
NMTAP	85	0	7
NMTAP	85	96	4
NMTAP	85	96	6
NMTAP	85	192	2
NMTAP	85	240	2
NMTAP	85	288	4
NMHLD	86	0	1	288
NMSTR	86	0	5
NMSLR	86	0	5	96	192	3
NMTAP	87	0	2
NMTAP	87	96	2
NMTAP	87	96	3
NMTAP	87	192	4
NMTAP	87	240	4
NMSTR	87	336	3
NMSCL	87	336	3	96	96	0
NMTAP	87	336	5
NMTAP	88	192	7
NMTAP	88	288	0
NMTAP	88	288	6
NMTAP	89	0	1
NMTAP	89	0	5
NMTAP	89	96	2
NMTAP	89	96	3
NMTAP	89	192	4
NMTAP	89	192	5
NMTAP	89	240	4
NMTAP	89	240	5
NMSTR	89	336	2
NMSUL	89	336	2	96	144	5
NMSTR	89	336	6
NMSCR	89	336	6	96	144	1
NMTAP	91	0	0
NMTAP	91	48	0
NMTAP	91	96	6
NMTAP	91	144	6
NMTAP	91	192	4
NMTAP	91	240	4
NMTAP	91	288	7
NMTAP	91	336	7
NMTAP	92	0	2
NMTAP	92	48	2
NMTAP	92	96	3
NMTAP	92	192	0
NMTAP	92	192	1
NMTAP	92	240	0
NMTAP	92	240	1
BRSTR	92	336	2
NMSCR	92	336	2	96	96	5
BRTAP	92	336	7
NMTAP	93	192	6
NMTAP	93	240	6
NMTAP	93	288	7
EXTAP	94	0	0
EXTAP	94	0	5
EXTAP	94	64	0
EXTAP	94	64	5
EXTAP	94	128	0
EXTAP	94	128	5
EXTAP	94	192	1
EXTAP	94	192	6
EXTAP	94	256	1
EXTAP	94	256	6
EXTAP	94	320	1
EXTAP	94	320	6
BXSTR	95	0	2
NMSXR	95	0	2	96	96	0
BXSTR	95	0	7
NMSXR	95	0	7	96	96	5
EXTAP	95	288	1
EXTAP	95	288	6
BXHLD	95	336	1	144
BXHLD	95	336	6	144
NMTAP	96	192	2
NMTAP	96	192	5
NMTAP	96	288	1
NMTAP	96	288	4
NMHLD	97	0	0	96
NMTAP	97	0	3
NMTAP	97	96	7
NMTAP	97	192	4
NMHLD	97	192	6	96
NMTAP	97	288	1
NMTAP	98	0	0
NMTAP	98	0	4
NMTAP	98	96	2
NMTAP	98	96	5
NMSTR	98	144	2
NMSI_	98	144	2	96	72	5
NMTAP	98	144	5
EXTAP	99	0	6
EXTAP	99	96	4
EXTAP	99	96	5
EXTAP	99	192	2
EXTAP	99	192	3
EXTAP	99	288	0
EXTAP	99	288	1
EXTAP	100	0	6
EXTAP	100	0	7
EXTAP	100	96	4
EXTAP	100	96	5
EXTAP	100	192	2
EXTAP	100	192	3
NMTAP	100	288	1
NMTAP	100	288	4
BXTAP	100	336	1
BXSTR	100	336	4
NMSI_	100	336	4	96	72	7
EXHLD	101	192	0	96
NMTAP	101	288	6
NMTAP	101	336	6
NMSTR	102	48	1
NMSCL	102	48	1	96	144	6
NMSTR	102	48	5
NMSUR	102	48	5	96	144	3
NMHLD	103	0	1	96
NMTAP	103	96	0
NMTAP	103	192	6
NMTAP	103	240	6
NMTAP	103	288	7
NMHLD	104	0	2	96
NMTAP	104	96	0
NMTAP	104	192	5
NMTAP	104	240	5
NMTAP	104	288	7
NMTAP	105	0	4
NMTAP	105	0	5
NMTAP	105	96	1
NMTAP	105	96	3
NMTAP	105	192	6
NMTAP	105	192	7
NMTAP	105	288	0
NMTAP	105	288	2
NMTAP	106	0	1
NMTAP	106	0	7
NMSTR	106	48	1
NMSI_	106	48	1	96	96	4
NMSTR	106	48	7
NMSI_	106	48	7	96	96	4
EXTAP	107	0	4
EXTAP	107	0	5
NMTAP	107	96	6
NMTAP	107	96	7
NMTAP	107	192	0
NMTAP	107	192	2
NMTAP	107	288	3
NMTAP	107	288	4
NMTAP	108	0	5
NMTAP	108	0	7
NMTAP	108	96	2
NMTAP	108	96	3
NMTAP	108	192	0
NMTAP	108	192	1
NMTAP	108	288	6
NMTAP	108	288	7
NMTAP	109	0	2
NMTAP	109	0	3
NMTAP	109	96	4
NMTAP	109	96	6
NMTAP	109	192	0
NMTAP	109	192	1
NMTAP	109	288	5
NMTAP	109	288	7
NMTAP	110	0	0
NMTAP	110	0	6
NMSTR	110	48	0
NMSI_	110	48	0	96	96	3
NMSTR	110	48	6
NMSI_	110	48	6	96	96	3
EXTAP	111	0	2
EXTAP	111	0	3
NMTAP	111	96	0
NMTAP	111	96	1
NMTAP	111	192	5
NMTAP	111	192	7
NMTAP	111	288	3
NMTAP	111	288	4
NMTAP	112	0	0
NMTAP	112	0	2
NMTAP	112	96	4
NMTAP	112	96	5
NMTAP	112	192	6
NMTAP	112	192	7
NMTAP	112	288	0
NMTAP	112	288	1
NMTAP	113	0	4
NMTAP	113	0	5
NMTAP	113	96	6
NMTAP	113	144	6
NMTAP	113	192	3
NMTAP	113	240	3
NMTAP	113	288	7
NMTAP	113	336	7
BRSTR	114	0	1
BRSI_	114	0	1	96	192	5

T_REC_TAP	326
T_REC_BRK	11
T_REC_XTP	74
T_REC_BXX	8
T_REC_HLD	36
T_REC_XHO	8
T_REC_BHO	3
T_REC_BXH	2
T_REC_STR	29
T_REC_BST	6
T_REC_XST	4
T_REC_XBS	12
T_REC_TTP	4
T_REC_THO	0
T_REC_SLD	48
T_REC_BSL	3
T_REC_ALL	574
T_NUM_TAP	437
T_NUM_BRK	45
T_NUM_HLD	44
T_NUM_SLD	48
T_NUM_ALL	574
T_JUDGE_TAP	474
T_JUDGE_HLD	149
T_JUDGE_SLD	51
T_JUDGE_ALL	674
TTM_EACHPAIRS	154
TTM_SCR_TAP	218500
TTM_SCR_BRK	117000
TTM_SCR_HLD	44000
TTM_SCR_SLD	72000
TTM_SCR_ALL	451500
TTM_SCR_S	433600
TTM_SCR_SS	447000
TTM_RAT_ACV	10100

