VERSION	0.00.00	1.04.00
FES_MODE	0
BPM_DEF	135.000	150.000	300.000	100.000
MET_DEF	4	4
RESOLUTION	384
CLK_DEF	576
COMPATIBLE_CODE	MA2

BPM	0	0	135.000
BPM	9	288	150.000
BPM	49	288	300.000
BPM	65	288	150.000
BPM	77	288	300.000
BPM	89	288	135.000
BPM	95	288	130.000
BPM	96	0	125.000
BPM	96	96	120.000
BPM	96	192	115.000
BPM	96	288	110.000
BPM	97	0	105.000
BPM	97	96	100.000
MET	0	0	4	3
MET	9	288	4	4
MET	89	288	4	3

NMHLD	1	192	5	576
NMTTP	2	96	0	C	0	M1
NMHLD	3	0	2	576
NMTTP	3	288	0	C	0	M1
NMHLD	4	192	6	576
NMTTP	5	96	0	C	0	M1
NMHLD	6	0	1	576
NMTTP	6	288	0	C	0	M1
NMHLD	7	192	2	96
NMHLD	7	288	3	96
NMHLD	8	0	4	96
NMSTR	8	96	5
NMSF_	8	96	5	96	384	1
BRTAP	9	288	2
BRTAP	9	288	6
NMTAP	10	0	3
NMTAP	10	0	5
NMTAP	10	96	3
NMTAP	10	96	5
NMTAP	10	192	3
NMTAP	10	192	5
NMTAP	10	288	2
NMTAP	10	288	4
NMTAP	11	0	2
NMTAP	11	0	4
NMTAP	11	96	2
NMTAP	11	96	4
NMTAP	11	192	2
NMTAP	11	192	4
NMTAP	11	288	3
NMTAP	11	288	6
NMTAP	12	0	3
NMTAP	12	0	6
NMTAP	12	96	3
NMTAP	12	96	6
NMTAP	12	192	3
NMTAP	12	192	6
NMTAP	12	288	4
NMTAP	12	288	5
NMTAP	12	336	3
NMTAP	12	336	4
NMTAP	13	0	2
NMTAP	13	24	3
NMTAP	13	48	2
NMHLD	13	72	5	72
NMTAP	13	144	3
NMTAP	13	168	4
NMTAP	13	192	3
NMTAP	13	216	4
NMTAP	13	240	1
EXSTR	13	288	0
NMSI_	13	288	0	96	48	6
EXTAP	13	288	2
NMTAP	14	0	0
NMSTR	14	48	4
NMSI_	14	48	4	96	48	2
NMTAP	14	144	4
NMSTR	14	192	7
NMSI_	14	192	7	96	48	5
NMTAP	14	288	7
NMSTR	14	336	3
NMSI_	14	336	3	96	48	1
NMTAP	15	48	3
NMSTR	15	96	6
NMSI_	15	96	6	96	48	4
NMTAP	15	192	6
NMTAP	15	240	2
NMTAP	15	288	2
NMTAP	15	312	1
NMTAP	15	336	0
NMTAP	15	360	7
NMTAP	16	0	6
NMTAP	16	24	5
NMTAP	16	48	4
NMTAP	16	72	3
NMTAP	16	96	2
NMTAP	16	96	6
NMTAP	16	120	7
NMTAP	16	144	0
NMTAP	16	168	1
NMTAP	16	192	2
NMTAP	16	216	3
NMTAP	16	240	4
NMTAP	16	264	5
NMSTR	16	288	2
NMSI_	16	288	2	96	48	5
NMSTR	16	288	6
NMSI_	16	288	6	96	48	1
NMSTR	17	96	0
NMSI_	17	96	0	96	48	4
NMSTR	17	96	7
NMSI_	17	96	7	96	48	3
NMTAP	17	288	2
NMTAP	17	288	5
NMTAP	17	336	3
NMTAP	17	360	4
NMTAP	18	0	3
NMTAP	18	48	5
NMTAP	18	72	4
NMTAP	18	96	5
NMTAP	18	144	3
NMTAP	18	168	4
NMTAP	18	192	3
NMTAP	18	240	5
NMTAP	18	264	4
NMTAP	18	288	5
NMTAP	18	336	2
NMTAP	18	360	3
NMTAP	19	0	2
NMTAP	19	48	4
NMTAP	19	72	3
NMTAP	19	96	4
NMTAP	19	144	2
NMTAP	19	168	3
BRTAP	19	192	1
NMTAP	19	288	1
NMTAP	19	288	4
NMTAP	19	336	2
NMTAP	19	360	3
NMTAP	20	0	2
NMTAP	20	48	4
NMTAP	20	72	3
NMTAP	20	96	4
NMTAP	20	144	2
NMTAP	20	168	3
NMTAP	20	192	2
NMTAP	20	240	5
NMTAP	20	264	4
NMSTR	20	288	5
NMSCR	20	288	5	96	72	1
NMTAP	21	0	4
NMTAP	21	24	4
NMSTR	21	72	3
NMSSR	21	72	3	96	72	7
NMTAP	21	144	0
NMTAP	21	192	7
NMTAP	21	240	6
EXTAP	21	288	5
NMTAP	21	336	1
NMTAP	21	360	0
NMTAP	22	0	1
NMTAP	22	48	7
NMTAP	22	72	0
NMTAP	22	96	7
NMTAP	22	144	1
NMTAP	22	168	0
NMTAP	22	192	1
NMTAP	22	240	6
NMTAP	22	264	7
NMTAP	22	288	6
NMTAP	22	336	0
NMTAP	22	360	7
NMTAP	23	0	0
NMTAP	23	48	6
NMTAP	23	72	7
NMTAP	23	96	6
NMTAP	23	144	1
NMTAP	23	168	0
BRTAP	23	192	2
NMTAP	23	288	1
NMTAP	23	288	6
NMTAP	23	336	6
NMTAP	23	360	7
NMTAP	24	0	6
NMTAP	24	48	0
NMTAP	24	72	7
NMTAP	24	96	0
NMTAP	24	144	6
NMTAP	24	168	7
NMTAP	24	192	6
NMTAP	24	240	1
NMTAP	24	264	0
NMSTR	24	288	1
NMSCR	24	288	1	96	72	5
NMTAP	24	360	0
NMTAP	25	24	7
EXHLD	25	72	6	168
NMTAP	25	144	4
NMTAP	25	168	3
NMTAP	25	192	2
NMTAP	25	216	1
NMTAP	25	240	0
EXTAP	25	288	0
EXSTR	25	288	6
NMSLL	25	288	6	96	96	2
NMTAP	26	0	3
NMTAP	26	24	3
NMTAP	26	72	1
NMTAP	26	144	0
NMTAP	26	168	7
NMTAP	26	192	0
NMTAP	26	216	7
NMTAP	26	240	0
EXSTR	26	288	1
NMSLR	26	288	1	96	96	5
EXTAP	26	288	6
NMTAP	27	0	4
NMTAP	27	24	4
NMSTR	27	72	6
NMSI_	27	72	6	96	48	2
NMTAP	27	144	7
BRTAP	27	192	0
EXSTR	27	288	1
NMSLR	27	288	1	96	96	5
NMTAP	28	0	4
NMTAP	28	24	4
NMTAP	28	72	6
NMTAP	28	144	7
NMTAP	28	168	0
NMTAP	28	192	7
NMTAP	28	216	0
NMTAP	28	240	7
EXTAP	28	288	1
EXSTR	28	288	6
NMSLL	28	288	6	96	96	2
NMTAP	29	0	3
NMTAP	29	24	3
NMSTR	29	72	1
NMSI_	29	72	1	96	48	4
NMSTR	29	120	7
NMSI_	29	120	7	96	48	4
NMTAP	29	168	1
NMTAP	29	216	7
EXSTR	29	288	2
NMSLL	29	288	2	96	96	6
NMTAP	30	0	7
NMTAP	30	24	7
NMSTR	30	72	5
NMSI_	30	72	5	96	48	2
NMTAP	30	144	3
BRTAP	30	192	0
EXSTR	30	288	1
NMSLR	30	288	1	96	96	5
NMTAP	31	0	4
NMTAP	31	24	4
NMTAP	31	72	6
NMTAP	31	144	4
NMTAP	31	144	7
EXTAP	31	192	2
EXTAP	31	192	5
EXTAP	31	240	0
EXTAP	31	240	3
NMTAP	31	288	4
NMTAP	31	312	4
NMTAP	31	336	1
NMTAP	31	360	1
NMTAP	32	0	5
NMTAP	32	24	5
NMTAP	32	48	2
NMTAP	32	72	2
NMTAP	32	96	6
NMTAP	32	120	6
NMTAP	32	144	3
NMTAP	32	168	3
NMTAP	32	192	7
NMTAP	32	216	7
NMTAP	32	240	4
NMTAP	32	264	4
EXTAP	32	288	6
NMTAP	32	300	5
NMTAP	32	312	4
NMTAP	32	324	3
NMTAP	32	336	2
NMTAP	32	348	1
NMTAP	32	360	0
NMTAP	32	372	7
NMTAP	33	0	6
NMTAP	33	12	5
NMTAP	33	24	4
NMTAP	33	36	3
NMTAP	33	48	2
NMTAP	33	60	1
NMTAP	33	72	0
NMTAP	33	84	7
NMSTR	33	96	6
NMSCR	33	96	6	96	96	1
NMTAP	33	168	0
NMTAP	33	192	0
NMTAP	33	240	2
BRTAP	33	288	4
NMTTP	35	144	5	E	0	M1
NMTTP	35	192	4	E	0	M1
NMTTP	35	240	3	E	0	M1
NMTTP	35	288	1	E	0	M1
NMTTP	35	288	2	E	0	M1
NMTTP	36	96	6	E	0	M1
NMTTP	36	96	7	E	0	M1
NMTTP	36	288	3	B	0	M1
NMTTP	36	288	4	B	0	M1
NMTTP	37	96	0	E	0	M1
NMTTP	37	96	1	E	0	M1
NMTTP	37	96	7	E	0	M1
NMHLD	37	288	4	192
NMTAP	38	0	1
NMTAP	38	24	2
NMTAP	38	48	3
NMSTR	38	96	3
NMSCL	38	96	3	96	96	0
NMHLD	38	288	5	192
NMTAP	39	0	1
NMTAP	39	24	2
NMTAP	39	48	3
NMSTR	39	96	3
NMSCL	39	96	3	96	96	0
NMSTR	39	288	6
NMSCL	39	288	6	96	96	3
NMSTR	40	96	7
NMSCR	40	96	7	96	96	2
NMSTR	40	288	4
NMSCR	40	288	4	96	96	7
BRSTR	41	96	0
BRSF_	41	96	0	96	48	4
EXTAP	41	288	3
EXHLD	41	288	6	0
NMHLD	42	0	1	0
NMTAP	42	0	4
NMTAP	42	96	3
NMHLD	42	96	6	0
NMHLD	42	192	1	0
NMTAP	42	192	4
NMTAP	42	288	4
NMHLD	42	288	6	0
NMHLD	43	0	1	0
NMTAP	43	0	3
NMTAP	43	96	4
NMHLD	43	96	6	0
NMHLD	43	192	1	0
NMTAP	43	192	3
NMTAP	43	288	5
NMHLD	43	288	6	0
NMHLD	44	0	1	0
NMTAP	44	0	2
NMTAP	44	96	5
NMHLD	44	96	6	0
NMHLD	44	192	1	0
NMTAP	44	192	2
NMHLD	44	288	3	96
NMHLD	44	288	4	96
BRTAP	45	72	2
BRTAP	45	72	3
BRTAP	45	144	4
BRTAP	45	144	5
BRTAP	45	216	0
BRTAP	45	216	7
NMTAP	45	288	1
NMTAP	45	312	1
NMTAP	45	336	2
NMTAP	45	360	2
NMTAP	46	0	3
NMTAP	46	24	3
NMTAP	46	48	4
NMTAP	46	72	4
NMSTR	46	96	5
NMSI_	46	96	5	96	48	1
NMTAP	46	120	5
NMTAP	46	144	6
NMTAP	46	168	6
NMTAP	46	288	6
NMTAP	46	312	6
NMTAP	46	336	5
NMTAP	46	360	5
NMTAP	47	0	4
NMTAP	47	24	4
NMTAP	47	48	3
NMTAP	47	72	3
NMSTR	47	96	2
NMSI_	47	96	2	96	48	6
NMTAP	47	120	2
NMTAP	47	144	1
NMTAP	47	168	1
EXTAP	47	288	0
NMTAP	47	300	1
NMTAP	47	312	2
NMTAP	47	324	3
NMTAP	47	336	4
NMTAP	47	348	5
NMTAP	47	360	6
NMTAP	47	372	7
NMTAP	48	0	0
NMTAP	48	12	1
NMTAP	48	24	2
NMTAP	48	36	3
NMTAP	48	48	4
NMTAP	48	60	5
NMTAP	48	72	6
NMTAP	48	84	7
NMSTR	48	96	0
NMSI_	48	96	0	96	48	4
NMHLD	48	144	5	24
NMHLD	48	216	6	24
BRTAP	48	288	7
NMTAP	49	72	2
NMTAP	49	72	3
NMTAP	49	120	3
NMTAP	49	120	4
NMTAP	49	168	4
NMTAP	49	168	5
BRTAP	49	216	0
BRTAP	49	216	7
EXSTR	49	288	1
NMSI_	49	288	1	96	48	4
NMSTR	50	0	7
NMSI_	50	0	7	96	48	4
NMSTR	50	96	0
NMSI_	50	96	0	96	48	3
NMSTR	50	192	6
NMSI_	50	192	6	96	48	3
NMTAP	50	288	1
NMTAP	50	336	1
NMTAP	51	48	0
NMTAP	51	144	5
NMTAP	51	144	7
NMTAP	51	192	5
NMTAP	51	192	7
EXSTR	51	288	6
NMSI_	51	288	6	96	48	3
NMSTR	52	0	0
NMSI_	52	0	0	96	48	3
NMSTR	52	96	7
NMSI_	52	96	7	96	48	4
NMSTR	52	192	1
NMSI_	52	192	1	96	48	4
NMTAP	52	288	6
NMTAP	52	336	6
NMTAP	53	48	7
NMTAP	53	144	0
NMTAP	53	144	2
NMTAP	53	192	0
NMTAP	53	192	2
EXSTR	53	288	1
NMSI_	53	288	1	96	48	4
NMSTR	54	0	7
NMSI_	54	0	7	96	48	4
NMSTR	54	96	0
NMSI_	54	96	0	96	48	3
NMSTR	54	192	6
NMSI_	54	192	6	96	48	3
NMTAP	54	288	1
NMTAP	54	336	1
NMTAP	55	48	0
NMTAP	55	144	5
NMTAP	55	144	7
NMTAP	55	192	5
NMTAP	55	192	7
NMTAP	55	288	1
NMTAP	55	288	6
NMTAP	56	0	3
NMSTR	56	0	4
NMSCR	56	0	4	96	96	7
NMTAP	56	96	0
NMTAP	56	144	1
NMTAP	56	192	2
NMTAP	56	240	3
NMTAP	56	336	4
NMTAP	56	336	6
NMTAP	57	48	1
NMTAP	57	48	3
NMTAP	57	144	0
NMTAP	57	144	7
NMTAP	57	192	0
NMTAP	57	192	7
EXSTR	57	288	6
NMSCL	57	288	6	96	48	4
NMSTR	58	0	0
NMSI_	58	0	0	96	48	4
NMSTR	58	96	7
NMSI_	58	96	7	96	48	3
NMSTR	58	192	1
NMSCR	58	192	1	96	48	3
NMTAP	58	288	6
NMTAP	58	336	6
NMTAP	59	48	7
NMTAP	59	144	0
NMTAP	59	144	2
NMTAP	59	192	0
NMTAP	59	192	2
EXSTR	59	288	1
NMSCR	59	288	1	96	48	3
NMSTR	60	0	7
NMSI_	60	0	7	96	48	3
NMSTR	60	96	0
NMSI_	60	96	0	96	48	4
NMSTR	60	192	6
NMSCL	60	192	6	96	48	4
NMTAP	60	288	1
NMTAP	60	336	1
NMTAP	61	48	0
NMTAP	61	144	5
NMTAP	61	144	7
NMTAP	61	192	5
NMTAP	61	192	7
EXSTR	61	288	6
NMSCL	61	288	6	96	48	4
NMSTR	62	0	0
NMSI_	62	0	0	96	48	4
NMSTR	62	96	7
NMSI_	62	96	7	96	48	3
NMSTR	62	192	1
NMSCR	62	192	1	96	48	3
NMTAP	62	288	6
NMTAP	62	336	6
NMTAP	63	48	7
NMTAP	63	144	0
NMTAP	63	144	2
NMTAP	63	192	0
NMTAP	63	192	2
NMTAP	63	288	5
NMTAP	63	336	4
NMTAP	64	0	5
NMTAP	64	48	2
NMTAP	64	96	3
NMTAP	64	144	2
BRSTR	64	192	1
NMSLR	64	192	1	96	240	7
BRSTR	64	192	6
NMSLL	64	192	6	96	240	0
EXTAP	65	288	2
EXHLD	65	288	6	48
NMTAP	65	336	4
NMTAP	65	360	5
NMTAP	66	0	6
NMTAP	66	24	7
NMTAP	66	48	0
EXTAP	66	96	2
EXHLD	66	96	6	48
NMTAP	66	144	4
NMTAP	66	168	5
NMTAP	66	192	6
NMTAP	66	216	7
NMTAP	66	240	0
EXHLD	66	288	1	48
EXTAP	66	288	5
NMTAP	66	336	3
NMTAP	66	360	2
NMTAP	67	0	1
NMTAP	67	24	0
NMTAP	67	48	7
EXHLD	67	96	1	48
EXTAP	67	96	5
NMTAP	67	144	3
NMTAP	67	168	2
NMTAP	67	192	1
NMTAP	67	216	0
NMTAP	67	240	7
EXTAP	67	288	2
EXHLD	67	288	6	48
NMTAP	67	336	4
NMTAP	67	360	5
NMTAP	68	0	6
NMTAP	68	24	7
NMTAP	68	48	0
EXTAP	68	96	2
EXHLD	68	96	6	48
NMTAP	68	144	4
NMTAP	68	168	5
NMTAP	68	192	6
NMTAP	68	216	7
NMTAP	68	240	0
EXHLD	68	288	1	48
EXTAP	68	288	5
NMTAP	68	336	3
NMTAP	68	360	2
NMTAP	69	0	1
NMTAP	69	24	0
NMTAP	69	48	7
EXTAP	69	72	2
EXTAP	69	72	6
EXTAP	69	144	3
EXTAP	69	144	4
EXTAP	69	216	1
EXTAP	69	216	5
EXTAP	69	288	4
EXHLD	69	288	6	96
NMTAP	69	336	2
NMTAP	69	360	1
NMTAP	70	0	0
NMTAP	70	24	7
NMTAP	70	48	6
NMTAP	70	72	5
EXHLD	70	96	4	96
NMTAP	70	144	7
NMTAP	70	168	0
NMTAP	70	192	1
NMTAP	70	216	2
NMTAP	70	240	3
NMTAP	70	264	4
EXHLD	70	288	5	96
NMTAP	70	336	1
NMTAP	70	360	0
NMTAP	71	0	7
NMTAP	71	24	6
NMTAP	71	48	5
NMTAP	71	72	4
EXHLD	71	96	3	96
NMTAP	71	144	6
NMTAP	71	168	7
NMTAP	71	192	0
NMTAP	71	216	1
NMTAP	71	240	2
NMTAP	71	264	3
EXHLD	71	288	4	96
NMTAP	71	336	0
NMTAP	71	360	7
NMTAP	72	0	6
NMTAP	72	24	5
NMTAP	72	48	4
NMTAP	72	72	3
EXSTR	72	96	2
NMSI_	72	96	2	96	48	5
EXSTR	72	96	6
NMSI_	72	96	6	96	48	1
BRTAP	72	288	3
BRTAP	72	288	7
BRTAP	72	360	1
BRTAP	72	360	6
BRTAP	73	48	0
BRTAP	73	48	4
NMTAP	73	120	7
NMTAP	73	144	7
NMTAP	73	168	7
BRTAP	73	192	0
BRTAP	73	192	6
EXHLD	73	288	1	864
EXHLD	73	288	5	96
NMHLD	74	96	7	96
NMHLD	74	288	0	96
NMTAP	75	96	2
NMTAP	75	144	3
NMTAP	75	192	4
NMTAP	75	240	5
EXHLD	75	288	6	576
NMHLD	76	96	3	96
NMHLD	76	288	5	96
EXTAP	77	96	3
NMTAP	77	112	2
NMTAP	77	128	1
NMTAP	77	144	0
NMTAP	77	192	1
NMTAP	77	192	6
EXSTR	77	288	7
NMSI_	77	288	7	96	48	3
NMTAP	77	336	7
NMSTR	78	0	1
NMSI_	78	0	1	96	48	5
NMTAP	78	48	1
NMSTR	78	96	6
NMSI_	78	96	6	96	48	2
NMTAP	78	144	6
NMSTR	78	192	0
NMSI_	78	192	0	96	48	4
NMTAP	78	240	0
EXTAP	78	288	7
EXTAP	78	336	6
EXTAP	79	0	5
NMTAP	79	96	2
NMTAP	79	144	2
NMTAP	79	192	3
EXSTR	79	288	0
NMSI_	79	288	0	96	48	4
NMTAP	79	336	0
NMSTR	80	0	6
NMSI_	80	0	6	96	48	2
NMTAP	80	48	6
NMSTR	80	96	1
NMSI_	80	96	1	96	48	5
NMTAP	80	144	1
NMTAP	80	192	7
NMTAP	80	240	7
EXSTR	80	336	4
NMSCL	80	336	4	96	96	1
NMSCR	80	336	4	96	96	7
EXTAP	81	48	4
EXSTR	81	288	7
NMSI_	81	288	7	96	48	3
NMTAP	81	336	7
NMSTR	82	0	1
NMSI_	82	0	1	96	48	5
NMTAP	82	48	1
NMSTR	82	96	6
NMSI_	82	96	6	96	48	2
NMTAP	82	144	6
NMTAP	82	192	0
NMTAP	82	240	0
NMTAP	82	336	1
NMTAP	82	336	3
NMTAP	83	48	0
NMTAP	83	48	7
NMTAP	83	144	4
NMTAP	83	144	6
NMTAP	83	192	4
NMTAP	83	192	6
EXTAP	83	288	2
NMTAP	83	336	5
NMTAP	84	0	2
NMTAP	84	48	5
NMTAP	84	96	2
NMTAP	84	144	4
NMTAP	84	192	2
NMTAP	84	240	4
NMTAP	84	288	2
NMTAP	84	336	3
NMTAP	85	0	2
NMTAP	85	48	1
NMTAP	85	96	2
NMTAP	85	144	0
NMTAP	85	192	2
EXTAP	85	288	6
NMTAP	85	336	3
NMTAP	86	0	6
NMTAP	86	48	3
NMTAP	86	96	6
NMTAP	86	144	4
NMTAP	86	192	6
NMTAP	86	240	4
NMTAP	86	288	6
NMTAP	86	336	5
NMTAP	87	0	6
NMTAP	87	48	7
NMTAP	87	96	6
NMTAP	87	144	0
NMTAP	87	192	6
EXTAP	87	288	2
NMTAP	87	336	2
NMTAP	88	0	3
NMTAP	88	48	3
NMTAP	88	96	4
NMTAP	88	144	4
NMTAP	88	192	5
NMTAP	88	240	5
NMTAP	88	288	6
NMTAP	88	336	6
NMTAP	89	0	7
NMTAP	89	48	7
EXTAP	89	96	0
NMTAP	89	120	1
NMTAP	89	144	2
NMTAP	89	168	3
NMTAP	89	192	4
NMTAP	89	216	5
NMTAP	89	240	6
NMTAP	89	264	7
BRSTR	89	288	0
NMSF_	89	288	0	96	864	4
NMHLD	92	288	5	576
NMTTP	93	192	0	C	0	M1
NMHLD	94	96	2	576
NMTTP	95	0	0	C	0	M1
NMHLD	95	288	3	96
NMHLD	96	0	4	96
NMHLD	96	96	5	96
NMTAP	96	192	6
NMTAP	96	336	1
NMTAP	96	336	7
NMSTR	97	0	1
NMSI_	97	0	1	96	24	5
NMSTR	97	0	7
BRSI_	97	0	7	96	24	3
NMTTP	97	96	0	C	1	M1

T_REC_TAP	476
T_REC_BRK	24
T_REC_XTP	35
T_REC_BXX	0
T_REC_HLD	34
T_REC_XHO	17
T_REC_BHO	0
T_REC_BXH	0
T_REC_STR	53
T_REC_BST	4
T_REC_XST	19
T_REC_XBS	0
T_REC_TTP	19
T_REC_THO	0
T_REC_SLD	75
T_REC_BSL	2
T_REC_ALL	758
T_NUM_TAP	602
T_NUM_BRK	30
T_NUM_HLD	51
T_NUM_SLD	75
T_NUM_ALL	758
T_JUDGE_TAP	630
T_JUDGE_HLD	173
T_JUDGE_SLD	77
T_JUDGE_ALL	880
TTM_EACHPAIRS	90
TTM_SCR_TAP	301000
TTM_SCR_BRK	78000
TTM_SCR_HLD	51000
TTM_SCR_SLD	112500
TTM_SCR_ALL	542500
TTM_SCR_S	523350
TTM_SCR_SS	539500
TTM_RAT_ACV	10055

