VERSION	0.00.00	1.04.00
FES_MODE	0
BPM_DEF	135.000	150.000	300.000	100.000
MET_DEF	4	4
RESOLUTION	384
CLK_DEF	576
COMPATIBLE_CODE	MA2

BPM	0	0	135.000
BPM	9	288	150.000
BPM	49	288	300.000
BPM	65	288	150.000
BPM	77	288	300.000
BPM	89	288	135.000
BPM	95	288	130.000
BPM	96	0	125.000
BPM	96	96	120.000
BPM	96	192	115.000
BPM	96	288	110.000
BPM	97	0	105.000
BPM	97	96	100.000
MET	0	0	4	3
MET	9	288	4	4
MET	89	288	4	3

NMSTR	1	192	0
NMSI_	1	192	0	96	192	4
NMSTR	2	96	7
NMSI_	2	96	7	96	192	3
NMSTR	3	0	0
NMSCR	3	0	0	96	192	3
NMSTR	3	288	7
NMSCL	3	288	7	96	192	4
NMSTR	4	192	1
NMSI_	4	192	1	96	192	4
NMSTR	5	96	6
NMSI_	5	96	6	96	192	3
NMSTR	6	0	0
NMSCR	6	0	0	96	192	3
NMSTR	6	288	7
NMSCL	6	288	7	96	192	4
NMSTR	7	192	0
NMSCR	7	192	0	96	96	1
CNSI_	8	0	1	0	96	3
NMTHO	8	96	0	576	C	1	M1
NMTTP	9	288	2	B	0	M1
NMTTP	9	288	5	B	0	M1
NMHLD	10	288	6	96
NMHLD	10	288	7	96
NMHLD	11	96	0	96
NMHLD	11	96	5	96
NMTAP	11	288	1
NMTAP	12	0	1
NMTAP	12	96	2
NMTAP	12	192	2
EXHLD	12	288	3	240
EXHLD	12	288	4	288
EXTAP	13	192	3
NMTAP	13	288	5
NMTAP	13	336	5
NMTAP	14	0	4
NMTAP	14	0	5
NMTAP	14	96	3
NMTAP	14	96	6
NMTAP	14	192	4
NMTAP	14	192	5
NMTAP	14	288	2
NMTAP	14	336	2
NMTAP	15	0	2
NMTAP	15	0	3
NMTAP	15	96	1
NMTAP	15	96	4
NMTAP	15	192	2
NMTAP	15	192	3
NMTAP	15	288	4
NMTAP	15	336	4
NMTAP	16	0	3
NMTAP	16	48	3
NMTAP	16	96	4
NMTAP	16	144	4
NMSTR	16	192	3
NMSLL	16	192	3	96	192	4
NMSTR	16	192	5
NMSLR	16	192	5	96	192	4
BXTAP	17	192	3
BXTAP	17	192	5
NMTAP	17	288	2
NMTAP	17	336	2
NMTAP	18	0	3
NMTAP	18	48	3
NMTAP	18	96	1
NMTAP	18	144	1
NMTAP	18	192	0
NMTAP	18	192	1
EXTAP	18	240	0
EXTAP	18	240	1
NMTAP	18	288	7
NMTAP	18	336	7
NMTAP	19	0	2
NMTAP	19	48	2
NMTAP	19	96	6
NMTAP	19	144	6
NMTAP	19	192	6
NMTAP	19	192	7
NMTAP	19	240	6
NMTAP	19	240	7
NMTAP	19	288	0
NMTAP	19	336	0
NMTAP	20	0	1
NMTAP	20	0	4
NMTAP	20	48	1
NMTAP	20	48	4
NMTAP	20	96	2
NMTAP	20	96	3
NMTAP	20	144	2
NMTAP	20	144	3
NMSTR	20	192	1
NMSUR	20	192	1	96	192	4
EXTAP	21	192	3
EXTAP	21	192	5
NMTAP	21	288	1
NMTAP	21	288	4
NMTAP	21	336	2
NMTAP	21	360	3
NMTAP	22	0	2
NMTAP	22	48	2
NMTAP	22	96	2
NMTAP	22	96	3
NMTAP	22	144	1
NMTAP	22	144	4
NMTAP	22	192	0
NMTAP	22	192	5
NMTAP	22	288	3
NMTAP	22	288	6
NMTAP	22	336	5
NMTAP	22	360	4
NMTAP	23	0	5
NMTAP	23	48	5
NMTAP	23	96	4
NMTAP	23	96	5
NMTAP	23	144	3
NMTAP	23	144	6
NMTAP	23	192	2
NMTAP	23	192	7
NMTAP	23	288	0
NMTAP	23	336	0
NMTAP	24	0	1
NMTAP	24	0	7
NMTAP	24	48	1
NMTAP	24	48	7
NMTAP	24	96	0
NMTAP	24	96	6
NMTAP	24	144	5
NMSTR	24	192	1
NMSV_	24	192	1	96	144	4
NMSTR	24	192	4
NMSCR	24	192	4	96	144	7
EXTAP	25	144	3
EXTAP	25	144	6
BXTAP	25	192	3
BXTAP	25	192	6
NMSTR	25	288	1
NMSI_	25	288	1	96	48	7
NMSTR	25	288	5
NMSI_	25	288	5	96	48	3
NMTAP	26	96	0
NMTAP	26	96	4
NMTAP	26	144	0
NMTAP	26	144	4
NMTAP	26	192	1
NMTAP	26	192	5
NMSTR	26	288	2
NMSI_	26	288	2	96	48	4
NMSTR	26	288	6
NMSI_	26	288	6	96	48	0
NMTAP	27	96	3
NMTAP	27	96	7
NMTAP	27	144	3
NMTAP	27	144	7
BRTAP	27	192	2
BRTAP	27	192	6
NMSTR	27	288	1
NMSI_	27	288	1	96	48	6
NMSTR	27	288	5
NMSI_	27	288	5	96	48	2
NMTAP	28	96	0
NMTAP	28	96	4
NMTAP	28	144	0
NMTAP	28	144	4
NMTAP	28	192	1
NMTAP	28	192	5
NMTAP	28	288	7
NMTAP	28	336	6
NMHLD	29	0	5	72
EXTAP	29	72	4
EXTAP	29	120	4
EXTAP	29	168	3
EXTAP	29	168	5
EXTAP	29	240	1
EXTAP	29	240	7
BXSTR	29	288	1
NMSI_	29	288	1	96	48	4
BXSTR	29	288	7
NMSI_	29	288	7	96	48	1
NMTAP	30	96	2
NMTAP	30	96	7
NMTAP	30	144	2
NMTAP	30	144	7
BRTAP	30	192	3
BRTAP	30	192	6
NMSTR	30	288	0
NMSI_	30	288	0	96	48	5
NMSTR	30	288	5
NMSI_	30	288	5	96	48	3
NMTAP	31	96	1
NMTAP	31	96	7
NMTAP	31	144	1
NMTAP	31	144	7
BRTAP	31	192	2
BRTAP	31	192	6
NMTAP	31	288	2
NMTAP	31	336	2
NMTAP	32	0	5
NMTAP	32	48	5
NMTAP	32	96	1
NMTAP	32	144	1
NMTAP	32	192	6
NMTAP	32	240	6
NMTAP	32	288	0
NMTAP	32	312	7
NMTAP	32	336	0
NMTAP	32	360	7
NMSTR	33	0	0
NMSCR	33	0	0	96	96	4
NMTAP	33	24	7
NMTAP	33	48	0
NMTAP	33	72	7
BXHLD	33	288	6	768
NMHLD	35	288	4	384
NMSTR	36	96	5
NMSCL	36	96	5	96	384	2
NMTAP	37	288	1
NMHLD	38	0	1	192
NMHLD	38	192	2	192
NMHLD	39	0	3	192
NMHLD	39	192	4	192
NMHLD	40	0	5	192
NMSTR	40	192	6
NMSI_	40	192	6	96	96	2
EXTAP	41	96	1
NMHLD	41	96	7	768
NMTTP	41	288	3	E	0	M1
NMTTP	42	0	4	E	0	M1
NMTTP	42	96	5	E	0	M1
NMTTP	42	192	6	E	0	M1
NMTTP	42	288	7	E	0	M1
NMTTP	43	0	0	E	0	M1
NMTTP	43	96	1	E	0	M1
NMTTP	43	192	2	E	0	M1
NMSTR	43	288	2
NMSI_	43	288	2	96	96	4
CNSI_	44	96	4	0	96	1
CNSI_	44	192	1	0	96	5
EXHLD	45	0	7	72
EXTAP	45	72	0
EXTAP	45	144	1
EXTAP	45	144	6
EXTAP	45	216	2
EXTAP	45	216	5
BXTAP	45	288	3
BXTAP	45	288	4
NMTAP	45	336	3
NMTAP	46	0	3
NMTAP	46	48	3
NMTAP	46	96	3
NMTAP	46	96	5
NMTAP	46	144	5
NMTAP	46	192	5
NMTAP	46	240	5
NMTAP	46	288	1
NMTAP	46	288	5
NMTAP	46	336	1
NMTAP	47	0	1
NMTAP	47	48	1
NMTAP	47	96	1
NMTAP	47	96	4
NMTAP	47	144	4
NMTAP	47	192	4
NMTAP	47	240	4
NMTAP	47	288	3
NMTAP	47	312	5
NMTAP	47	336	3
NMTAP	47	360	5
NMTAP	48	0	3
NMTAP	48	24	5
NMTAP	48	48	3
NMTAP	48	72	5
NMTAP	48	96	2
NMTAP	48	120	6
NMTAP	48	144	2
NMTAP	48	168	6
NMTAP	48	192	2
NMTAP	48	216	6
NMTAP	48	240	2
EXSTR	48	288	1
BRSCR	48	288	1	96	96	4
EXSTR	48	288	7
BRSCL	48	288	7	96	96	4
EXTAP	49	192	3
EXTAP	49	192	5
BRTAP	49	288	6
BRTAP	49	288	7
NMTAP	50	0	6
NMTAP	50	0	7
NMTAP	50	96	6
NMTAP	50	96	7
NMTAP	50	192	6
NMTAP	50	192	7
NMTAP	50	288	4
NMTAP	50	288	5
NMTAP	51	0	4
NMTAP	51	0	5
NMTAP	51	96	2
NMTAP	51	96	3
NMTAP	51	192	2
NMTAP	51	192	3
NMTAP	51	288	0
NMTAP	51	288	1
NMTAP	52	0	0
NMTAP	52	0	1
NMTAP	52	96	0
NMTAP	52	96	1
NMTAP	52	192	0
NMTAP	52	192	1
NMTAP	52	288	2
NMTAP	52	288	7
NMTAP	53	0	2
NMTAP	53	0	7
BRTAP	53	96	3
BRTAP	53	96	6
NMTAP	53	288	4
NMTAP	53	288	5
NMTAP	54	0	4
NMTAP	54	0	5
NMTAP	54	96	3
NMTAP	54	96	4
NMTAP	54	192	3
NMTAP	54	192	4
NMTAP	54	288	2
NMTAP	54	288	3
NMTAP	55	0	2
NMTAP	55	0	3
NMTAP	55	96	1
NMTAP	55	96	4
NMTAP	55	192	1
NMTAP	55	192	4
NMTAP	55	288	2
NMTAP	55	288	5
NMTAP	56	0	2
NMTAP	56	0	5
NMTAP	56	96	3
NMSTR	56	96	6
NMSI_	56	96	6	96	96	2
CNSI_	56	288	2	0	96	5
CNSI_	57	0	5	0	144	7
BRTAP	57	288	0
BRTAP	57	288	1
NMTAP	58	0	0
NMTAP	58	0	1
NMTAP	58	96	2
NMTAP	58	96	3
NMTAP	58	192	2
NMTAP	58	192	3
NMTAP	58	288	4
NMTAP	58	288	5
NMTAP	59	0	4
NMTAP	59	0	5
NMTAP	59	96	6
NMTAP	59	96	7
NMTAP	59	192	6
NMTAP	59	192	7
NMTAP	59	288	0
NMTAP	59	288	5
NMTAP	60	0	0
NMTAP	60	0	5
NMTAP	60	96	1
NMTAP	60	96	6
NMTAP	60	192	1
NMTAP	60	192	6
NMTAP	60	288	2
NMTAP	60	288	7
NMTAP	61	0	2
NMTAP	61	0	7
BRTAP	61	96	3
BRTAP	61	96	6
NMTAP	61	288	4
NMTAP	61	288	5
NMTAP	62	0	4
NMTAP	62	0	5
NMTAP	62	96	2
NMTAP	62	96	3
NMTAP	62	192	2
NMTAP	62	192	3
NMTAP	62	288	0
NMTAP	62	288	1
NMTAP	63	0	0
NMTAP	63	0	1
NMTAP	63	96	6
NMTAP	63	96	7
NMTAP	63	192	6
NMSTR	63	192	7
NMSSR	63	192	7	96	384	3
BRTAP	65	288	0
BRTAP	65	288	7
NMSTR	66	0	0
NMSUR	66	0	0	96	96	7
NMSTR	66	0	1
NMSCR	66	0	1	96	96	6
NMTAP	66	48	0
NMTAP	66	48	1
BRTAP	66	288	0
BRTAP	66	288	7
NMSTR	67	0	6
NMSCL	67	0	6	96	96	1
NMSTR	67	0	7
NMSUL	67	0	7	96	96	0
NMTAP	67	48	6
NMTAP	67	48	7
NMHLD	67	288	0	48
NMHLD	67	288	1	48
NMHLD	68	0	3	48
NMHLD	68	0	4	48
NMHLD	68	96	6	48
NMHLD	68	96	7	48
NMHLD	68	192	3	48
NMHLD	68	192	4	48
NMTAP	68	288	2
NMTAP	68	336	2
NMTAP	69	0	1
NMTAP	69	0	3
EXTAP	69	72	0
EXTAP	69	72	1
EXTAP	69	144	0
EXTAP	69	144	1
EXTAP	69	216	0
EXTAP	69	216	1
BRTAP	69	288	2
BRTAP	69	288	7
NMSTR	70	0	4
NMSUR	70	0	4	96	96	3
NMSTR	70	0	5
NMSCR	70	0	5	96	96	2
NMTAP	70	48	4
NMTAP	70	48	5
BRTAP	70	288	1
BRTAP	70	288	4
NMSTR	71	0	2
NMSCL	71	0	2	96	96	5
NMSTR	71	0	3
NMSUL	71	0	3	96	96	4
NMTAP	71	48	2
NMTAP	71	48	3
NMHLD	71	288	4	48
NMHLD	71	288	5	48
NMHLD	72	0	0	48
NMHLD	72	0	7	48
NMHLD	72	96	2	48
NMHLD	72	96	3	48
NMHLD	72	192	0	48
NMHLD	72	192	7	48
BXTAP	72	288	0
BXTAP	72	288	7
BXTAP	72	360	1
BXTAP	72	360	6
BXTAP	73	48	2
BXTAP	73	48	5
BXTAP	73	120	3
BXTAP	73	120	4
BXSTR	73	192	1
NMSCR	73	192	1	96	384	6
BXTAP	73	192	6
NMTTP	73	288	0	C	1	M1
CNSCL	74	288	6	0	384	1
NMHLD	75	288	7	384
NMTAP	76	288	0
NMTAP	77	0	0
NMSTR	77	96	0
BRSI_	77	96	0	96	48	4
BRTAP	77	288	3
BRTAP	77	288	5
NMTAP	78	0	3
NMTAP	78	0	5
NMTAP	78	96	2
NMTAP	78	96	6
NMTAP	78	192	2
NMTAP	78	192	6
NMTAP	78	288	1
NMTAP	78	288	7
NMTAP	79	0	1
NMTAP	79	0	7
NMTAP	79	96	0
NMTAP	79	96	6
NMTAP	79	192	0
NMTAP	79	192	6
NMTAP	79	288	1
NMTAP	79	288	5
NMTAP	80	0	1
NMTAP	80	0	5
NMTAP	80	96	2
NMTAP	80	96	4
NMTAP	80	192	2
NMTAP	80	192	4
NMTAP	80	288	3
NMTAP	80	288	5
NMTAP	81	0	3
NMTAP	81	0	5
BRTAP	81	96	2
BRTAP	81	96	6
NMTAP	81	288	0
NMTAP	81	288	7
NMTAP	82	0	0
NMTAP	82	0	7
NMTAP	82	96	5
NMTAP	82	96	6
NMTAP	82	192	5
NMTAP	82	192	6
NMTAP	82	288	3
NMTAP	82	288	4
NMTAP	83	0	3
NMTAP	83	0	4
NMTAP	83	96	2
NMTAP	83	96	3
NMTAP	83	192	2
NMTAP	83	192	3
BRTAP	83	288	1
BRTAP	83	288	4
NMTAP	84	0	0
NMTAP	84	0	5
NMTAP	84	96	6
NMTAP	84	96	7
NMTAP	84	192	6
NMTAP	84	192	7
NMTAP	84	288	0
NMTAP	84	288	7
NMTAP	85	0	0
NMTAP	85	0	7
NMTAP	85	96	0
NMTAP	85	96	1
NMTAP	85	192	0
NMTAP	85	192	1
BRTAP	85	288	2
BRTAP	85	288	7
NMTAP	86	0	3
NMTAP	86	0	6
NMTAP	86	96	4
NMTAP	86	96	5
NMTAP	86	192	4
NMTAP	86	192	5
NMTAP	86	288	3
NMTAP	86	288	4
NMTAP	87	0	3
NMTAP	87	0	4
NMTAP	87	96	2
NMTAP	87	96	3
NMTAP	87	192	2
NMTAP	87	192	3
BRTAP	87	288	2
BRTAP	87	288	3
NMTAP	88	0	1
NMTAP	88	0	4
NMTAP	88	96	0
NMTAP	88	96	5
NMTAP	88	192	6
NMTAP	88	192	7
NMTAP	88	288	0
NMTAP	88	288	1
NMTAP	89	0	2
NMTAP	89	0	7
NMTAP	89	96	3
NMTAP	89	96	6
NMTAP	89	192	4
NMTAP	89	192	5
NMTTP	89	288	0	C	1	M1
NMTTP	89	288	3	B	0	M1
NMTTP	89	288	4	B	0	M1
NMTTP	89	288	5	B	0	M1
NMTTP	89	288	6	B	0	M1
NMSTR	92	0	0
NMSI_	92	0	0	96	192	4
NMTAP	92	192	7
NMSTR	92	288	7
NMSI_	92	288	7	96	192	3
NMTAP	93	96	0
NMSTR	93	192	0
NMSCR	93	192	0	96	192	3
NMTAP	94	0	7
NMSTR	94	96	7
NMSCL	94	96	7	96	192	4
NMTAP	94	288	0
NMSTR	95	0	0
NMSI_	95	0	0	96	192	4
NMTAP	95	192	6
NMHLD	95	288	6	96
NMHLD	96	0	5	96
NMHLD	96	96	4	96
NMHLD	96	192	3	96
NMHLD	96	288	2	96
NMHLD	97	0	1	672
BRSTR	97	96	0
BRSSL	97	96	0	96	480	4

T_REC_TAP	353
T_REC_BRK	32
T_REC_XTP	27
T_REC_BXX	15
T_REC_HLD	35
T_REC_XHO	3
T_REC_BHO	0
T_REC_BXH	1
T_REC_STR	42
T_REC_BST	1
T_REC_XST	2
T_REC_XBS	3
T_REC_TTP	16
T_REC_THO	1
T_REC_SLD	44
T_REC_BSL	4
T_REC_ALL	579
T_NUM_TAP	440
T_NUM_BRK	56
T_NUM_HLD	39
T_NUM_SLD	44
T_NUM_ALL	579
T_JUDGE_TAP	491
T_JUDGE_HLD	161
T_JUDGE_SLD	48
T_JUDGE_ALL	700
TTM_EACHPAIRS	190
TTM_SCR_TAP	220000
TTM_SCR_BRK	145600
TTM_SCR_HLD	39000
TTM_SCR_SLD	66000
TTM_SCR_ALL	470600
TTM_SCR_S	451050
TTM_SCR_SS	465000
TTM_RAT_ACV	10120

