VERSION	0.00.00	1.04.00
FES_MODE	0
BPM_DEF	154.000	154.000	154.000	154.000
MET_DEF	4	4
RESOLUTION	384
CLK_DEF	384
COMPATIBLE_CODE	MA2

BPM	0	0	154.000
MET	0	0	4	4

NMTAP	1	192	2
NMHLD	1	192	5	864
NMTAP	2	0	3
NMSTR	2	96	4
NMSXL	2	96	4	96	144	3
NMTAP	3	48	4
NMSTR	3	96	4
NMSXR	3	96	4	96	96	2
NMHLD	4	0	2	432
NMTAP	4	0	4
NMSTR	4	96	3
NMSXR	4	96	3	96	144	4
NMTAP	5	48	3
NMTAP	5	96	3
NMSTR	5	192	1
NMSI_	5	192	1	96	48	5
NMTAP	5	192	4
BRTAP	5	288	1
BRTAP	5	288	5
NMTAP	6	0	7
NMTAP	6	96	3
NMTAP	6	96	5
NMHLD	6	192	2	528
NMSTR	6	192	6
NMSI_	6	192	6	96	48	3
EXTAP	6	288	6
EXTAP	7	0	3
EXTAP	7	48	3
NMSTR	7	96	4
NMSCL	7	96	4	96	144	5
NMTAP	8	48	5
NMTAP	8	96	6
NMTAP	8	144	7
NMTAP	8	192	0
NMTAP	8	240	1
NMTAP	8	288	2
NMTAP	8	336	3
NMTAP	9	0	6
NMTAP	9	32	4
NMTAP	9	64	5
NMSTR	9	96	1
NMSUR	9	96	1	96	96	5
NMTAP	9	128	3
NMTAP	9	160	3
NMTAP	10	0	6
NMHLD	10	48	6	240
NMTAP	10	96	4
NMTAP	10	192	4
NMTAP	10	288	4
NMTAP	11	0	3
NMHLD	11	48	2	144
NMTAP	11	96	4
NMTAP	11	192	4
NMTAP	11	288	1
NMTAP	11	288	5
BRTAP	12	0	6
NMTAP	12	96	0
NMTAP	12	96	7
NMSTR	12	192	1
NMSCR	12	192	1	96	96	4
NMTAP	12	288	4
NMTAP	12	336	5
NMHLD	13	0	5	192
NMTAP	13	96	3
NMTAP	13	144	2
NMTAP	13	192	2
NMTAP	13	288	2
NMTAP	13	288	4
NMTAP	14	0	1
NMHLD	14	48	1	240
NMTAP	14	96	3
NMTAP	14	192	3
NMTAP	14	288	3
NMTAP	15	0	4
NMHLD	15	48	5	240
NMTAP	15	96	3
NMTAP	15	192	3
NMTAP	15	288	3
NMTAP	16	0	2
NMTAP	16	0	4
NMTAP	16	96	1
NMTAP	16	192	3
NMTAP	16	192	5
NMTAP	16	288	6
NMTAP	16	336	7
NMHLD	17	0	7	192
NMTAP	17	96	4
NMSTR	17	192	0
NMSI_	17	192	0	96	48	4
BRTAP	17	288	0
BRSTR	17	288	6
NMSCL	17	288	6	96	192	2
NMTAP	18	0	3
NMTAP	18	96	1
NMTAP	18	192	0
NMTAP	18	240	0
NMSTR	18	288	6
NMSCL	18	288	6	96	192	2
NMTAP	19	0	3
NMTAP	19	96	1
NMTAP	19	192	0
NMTAP	19	240	0
NMTAP	19	288	6
NMTAP	20	0	5
NMTAP	20	0	7
NMTAP	20	48	5
NMTAP	20	48	7
NMTAP	20	96	4
NMTAP	20	192	1
NMTAP	20	192	3
NMTAP	20	240	1
NMTAP	20	240	3
NMHLD	20	288	2	384
NMTTP	21	0	3	A	1	M1
NMTTP	21	96	5	E	0	M1
NMTTP	21	192	1	B	1	M1
NMTTP	21	288	7	A	0	M1
EXSTR	22	0	6
NMSCL	22	0	6	96	48	4
NMTAP	22	48	3
NMTAP	22	96	3
NMSTR	22	192	1
NMSCR	22	192	1	96	48	3
NMTAP	22	240	4
NMTAP	22	288	4
NMTAP	23	0	2
NMTAP	23	0	6
NMTAP	23	48	7
NMSTR	23	96	0
NMSLL	23	96	0	96	96	4
NMTAP	23	96	1
BRHLD	23	192	2	48
BRHLD	23	288	2	48
NMHLD	24	0	1	192
NMSTR	24	0	7
NMSI_	24	0	7	96	48	2
NMTAP	24	96	7
NMSTR	24	192	6
NMSI_	24	192	6	96	48	2
NMTAP	24	288	0
NMTAP	24	288	6
CNSI_	24	336	2	0	48	4
NMTAP	25	0	1
NMTAP	25	96	2
NMTAP	25	96	3
NMTAP	25	144	2
NMTAP	25	144	3
NMTAP	25	192	5
NMTAP	25	216	4
NMTAP	25	264	6
NMSTR	25	288	7
BRSF_	25	288	7	96	48	3
NMSTR	26	96	1
NMSCR	26	96	1	96	48	4
NMTAP	26	192	4
NMSTR	26	288	5
NMSCR	26	288	5	96	48	0
NMHLD	27	0	3	960
NMTAP	27	192	0
NMTAP	27	240	7
NMTAP	27	288	7
NMTAP	28	0	0
NMTTP	28	96	1	D	0	M1
NMTTP	28	192	1	B	1	M1
NMTTP	28	288	4	B	0	M1
NMTTP	29	0	5	D	1	M1
NMTAP	29	192	5
NMTAP	29	288	4
NMSTR	29	288	6
NMSCL	29	288	6	96	48	3
NMHLD	30	0	2	48
NMTAP	30	0	6
NMTAP	30	96	4
NMSTR	30	96	6
NMSCL	30	96	6	96	48	3
NMHLD	30	192	2	48
NMTAP	30	192	6
NMHLD	30	288	4	48
NMHLD	30	288	6	48
NMHLD	31	0	2	48
NMHLD	31	0	4	48
NMHLD	31	96	4	48
NMHLD	31	96	6	48
NMHLD	31	192	2	48
NMSTR	31	192	4
NMSI_	31	192	4	96	48	7
NMTAP	31	288	3
EXSTR	32	0	7
NMSLL	32	0	7	96	96	3
EXTAP	32	48	7
EXSTR	32	96	3
NMSLL	32	96	3	96	96	7
NMTAP	32	192	7
NMTAP	32	288	3
NMHLD	32	336	3	144
BRTAP	33	96	7
EXSTR	33	192	2
BRSI_	33	192	2	96	48	5
EXTAP	33	216	4
EXTAP	33	240	0
EXTAP	33	264	6
BXTAP	33	288	2
NMSTR	34	0	7
NMSCR	34	0	7	96	48	3
NMTAP	34	48	1
NMHLD	34	96	1	168
NMTTP	34	192	3	B	1	M1
NMTTP	34	192	4	E	0	M1
NMTTP	34	264	5	B	0	M1
NMTTP	34	264	5	E	1	M1
NMTAP	34	336	2
EXSTR	34	336	6
NMSI_	34	336	6	96	48	2
NMTAP	35	48	0
NMTAP	35	96	0
NMTAP	35	144	1
NMTAP	35	144	3
NMSTR	35	192	1
NMSI_	35	192	1	96	48	4
NMSTR	35	192	3
NMSI_	35	192	3	96	48	7
NMTAP	36	0	3
NMTAP	36	0	7
NMTAP	36	48	6
NMTAP	36	72	4
NMTAP	36	96	5
NMTAP	36	144	1
NMTAP	36	168	3
NMTAP	36	192	2
NMSTR	36	240	5
NMSCR	36	240	5	96	48	7
NMTAP	36	264	3
NMTAP	36	288	4
NMHLD	36	336	3	96
NMTAP	37	48	7
NMSTR	37	96	7
NMSCL	37	96	7	96	48	4
NMHLD	37	192	1	96
NMTAP	37	192	7
NMTAP	37	288	5
NMTAP	38	0	2
NMSTR	38	0	6
NMSI_	38	0	6	96	48	2
NMTAP	38	48	7
NMTAP	38	96	0
NMTAP	38	96	6
NMTAP	38	144	0
NMHLD	38	192	1	144
NMTAP	38	192	3
NMTAP	38	264	2
NMSTR	38	336	2
NMSI_	38	336	2	96	48	7
EXTAP	39	48	0
EXTAP	39	96	0
CNSI_	39	96	7	0	48	4
NMTAP	39	144	1
CNSCL	39	144	4	0	48	3
NMTAP	39	192	1
CNSI_	39	192	3	0	48	5
NMTAP	39	240	0
NMTAP	39	288	0
NMSTR	40	0	0
NMSCL	40	0	0	96	48	5
NMTAP	40	0	1
NMTAP	40	96	0
NMTAP	40	96	3
EXTAP	40	192	3
EXTAP	40	192	5
NMHLD	40	264	2	72
NMTAP	40	264	4
NMTTP	40	336	0	C	1	M1
EXTAP	41	48	0
EXTAP	41	48	7
EXTAP	41	96	0
EXTAP	41	96	7
NMSTR	41	192	0
NMSSL	41	192	0	96	144	4
NMHLD	41	240	0	240
NMTAP	42	96	5
NMSTR	42	192	1
NMSI_	42	192	1	96	48	5
NMHLD	42	240	1	240
CNSI_	42	336	5	0	48	2
CNSI_	43	0	2	0	48	4
NMTAP	43	96	5
NMTAP	43	192	5
NMTAP	43	240	6
NMTAP	43	288	7
NMTAP	43	336	0
NMHLD	44	0	0	96
NMTAP	44	96	3
EXSTR	44	192	5
NMSV_	44	192	5	96	48	2
EXTAP	44	264	1
EXHLD	44	336	0	144
CNSUL	44	336	2	0	96	6
NMSTR	45	192	0
NMSSL	45	192	0	96	144	4
NMHLD	45	240	0	240
NMTAP	46	96	6
NMSTR	46	192	1
NMSI_	46	192	1	96	48	5
NMHLD	46	240	1	240
CNSI_	46	336	5	0	48	2
CNSI_	47	0	2	0	48	4
NMTAP	47	96	7
NMTAP	47	192	0
NMTAP	47	240	0
NMSTR	47	288	6
NMSI_	47	288	6	96	48	3
NMTAP	47	336	3
NMHLD	48	0	2	336
NMTAP	48	0	6
NMTAP	48	96	0
NMTAP	48	192	5
NMTTP	48	264	4	E	1	M1
NMTTP	48	336	0	C	1	M1
BXTAP	49	96	0
NMTAP	49	192	6
NMTAP	49	192	7
NMTAP	49	240	6
NMTAP	49	240	7
EXSTR	49	288	5
NMSCR	49	288	5	96	144	3
EXSTR	49	312	4
NMSUR	49	312	4	96	120	3
NMSTR	50	240	2
NMSCR	50	240	2	96	48	5
NMSTR	50	288	5
NMSUL	50	288	5	96	48	1
NMTAP	50	336	6
NMTAP	51	48	7
NMTAP	51	96	7
NMTAP	51	144	1
NMSTR	51	168	0
NMSCL	51	168	0	96	48	5
NMSCR	51	168	0	96	48	3
NMTAP	51	192	1
NMTAP	51	216	0
EXTAP	52	48	7
EXTAP	52	64	6
EXTAP	52	80	5
EXTAP	52	96	4
EXTAP	52	144	1
EXTAP	52	160	2
EXTAP	52	176	3
EXTAP	52	192	4
EXTAP	52	240	6
EXTAP	52	256	5
EXTAP	52	272	4
EXTAP	52	288	3
EXTAP	53	0	2
NMTAP	53	24	3
NMTAP	53	48	2
NMTAP	53	72	3
NMTAP	53	96	2
NMTAP	53	120	3
NMTAP	53	144	2
NMTAP	53	168	3
EXTAP	53	192	1
NMTAP	53	216	4
NMTAP	53	240	1
NMTAP	53	264	4
NMTAP	53	288	1
NMTAP	53	312	4
NMTAP	53	336	1
NMTAP	53	360	4
EXTAP	54	0	0
NMTAP	54	24	5
NMTAP	54	48	0
NMTAP	54	72	5
NMTAP	54	96	0
NMTAP	54	120	5
NMTAP	54	144	0
NMTAP	54	168	5
EXTAP	54	192	7
NMTAP	54	216	6
NMTAP	54	240	7
NMTAP	54	264	6
NMTAP	54	288	7
NMHLD	54	312	5	72
NMTAP	55	0	7
NMHLD	55	24	7	72
NMTAP	55	96	0
NMHLD	55	120	0	72
EXTAP	55	192	2
EXTAP	55	208	3
EXTAP	55	224	4
EXTAP	55	240	5
BXTAP	55	288	0
BXTAP	55	288	7
BXTAP	55	336	0
BXSTR	55	336	7
NMSI_	55	336	7	96	48	1
CNSI_	56	96	1	0	96	5
CNSI_	56	192	5	0	48	3
EXSTR	56	240	2
NMSUR	56	240	2	96	144	5
EXTAP	56	288	2
CNSCR	57	96	5	0	144	1
EXHLD	58	0	2	1344
EXTAP	58	0	3
NMTAP	58	96	3
NMTAP	58	192	3
NMTAP	58	288	3
NMTAP	59	0	4
NMTAP	59	96	4
EXTAP	59	192	5
EXTAP	59	288	6
BXSTR	60	0	7
NMSCL	60	0	7	96	192	3
NMTAP	61	96	4
EXTAP	61	192	7
EXTAP	61	288	7
NMHLD	62	0	3	48
NMHLD	62	0	5	48
NMHLD	62	96	4	48
NMHLD	62	96	6	48
NMHLD	62	192	3	48
NMHLD	62	192	5	48
NMHLD	62	288	3	48
NMHLD	62	288	5	48
NMHLD	63	0	4	288
NMSTR	63	0	6
NMSCL	63	0	6	96	48	3
EXTAP	63	192	7
EXTAP	63	288	7
NMSTR	64	0	3
NMSI_	64	0	3	96	48	0
NMTAP	64	0	6
NMTAP	64	96	3
NMSTR	64	96	4
NMSI_	64	96	4	96	48	7
EXHLD	64	192	0	96
NMTAP	64	192	4
EXTAP	64	288	7
EXSTR	64	336	7
NMSI_	64	336	7	96	48	3
NMTAP	65	48	1
NMTAP	65	96	1
NMTAP	65	144	2
NMTAP	65	144	4
NMTAP	65	192	2
NMTAP	65	192	4
NMTAP	65	264	5
NMTAP	65	288	3
NMTAP	65	336	2
NMTAP	65	336	6
NMTAP	66	48	3
NMTAP	66	48	5
NMSTR	66	96	3
NMSCL	66	96	3	96	48	0
NMSTR	66	96	5
NMSCR	66	96	5	96	48	0
NMTAP	66	144	2
NMTAP	66	144	6
BRTAP	66	288	1
BRSTR	66	288	7
NMSI_	66	288	7	96	48	3
NMHLD	67	0	2	144
BRTAP	67	0	7
NMTTP	67	192	2	B	1	M1
NMTTP	67	192	2	E	0	M1
NMTTP	67	192	2	D	0	M1
NMTTP	67	192	3	E	0	M1
NMTTP	67	192	3	D	0	M1
NMTTP	67	264	5	B	1	M1
NMTTP	67	264	5	E	0	M1
NMTTP	67	264	5	D	0	M1
NMTTP	67	264	6	E	0	M1
NMTTP	67	264	6	D	0	M1
NMTTP	67	336	0	A	0	M1
NMTTP	67	336	0	D	1	M1
NMTTP	67	336	1	D	0	M1
NMTTP	67	336	7	A	0	M1
NMTTP	67	336	7	D	0	M1
EXTAP	68	48	2
EXTAP	68	48	3
EXTAP	68	96	2
EXTAP	68	96	3
EXTAP	68	144	0
EXTAP	68	144	1
EXSTR	68	192	6
BRSUR	68	192	6	96	48	3
EXSTR	68	192	7
BRSCR	68	192	7	96	48	2
NMTAP	69	0	5
NMTAP	69	48	5
NMTAP	69	72	4
NMTAP	69	96	6
NMTAP	69	144	2
NMTAP	69	168	3
NMTAP	69	192	1
NMSTR	69	240	5
NMSCR	69	240	5	96	48	7
NMTAP	69	264	3
NMTAP	69	288	4
NMHLD	69	336	3	96
NMTAP	70	48	7
NMSTR	70	96	7
NMSI_	70	96	7	96	48	3
NMHLD	70	192	1	96
NMSTR	70	192	7
NMSCL	70	192	7	96	48	4
NMTAP	70	288	7
NMTAP	71	0	2
NMSTR	71	0	6
NMSI_	71	0	6	96	48	2
NMTAP	71	48	7
NMTAP	71	96	0
NMTAP	71	96	6
NMTAP	71	144	0
NMTAP	71	192	1
NMTAP	71	192	3
NMHLD	71	264	1	72
NMTAP	71	264	3
NMSTR	71	336	2
BRSI_	71	336	2	96	48	7
EXTAP	72	48	0
EXTAP	72	96	0
CNSI_	72	96	7	0	48	4
NMTAP	72	144	1
CNSCL	72	144	4	0	48	3
NMTAP	72	192	1
CNSI_	72	192	3	0	48	5
NMTAP	72	240	0
NMTAP	72	288	0
NMSTR	73	0	0
NMSCL	73	0	0	96	48	5
NMSTR	73	0	1
NMSUL	73	0	1	96	48	4
NMTAP	73	96	0
NMTAP	73	96	1
EXTAP	73	192	3
EXTAP	73	192	5
NMHLD	73	264	2	72
NMTAP	73	264	4
NMTTP	73	336	0	C	1	M1
EXTAP	74	48	0
EXTAP	74	48	7
EXTAP	74	96	0
EXTAP	74	96	7
BRSTR	74	192	0
NMSI_	74	192	0	96	48	6
BRHLD	74	240	0	240
CNSI_	74	336	6	0	48	2
CNSI_	75	0	2	0	48	4
NMTAP	75	96	7
BRSTR	75	192	1
NMSI_	75	192	1	96	48	6
BRHLD	75	240	1	240
CNSI_	75	336	6	0	48	2
CNSI_	76	0	2	0	48	5
NMTAP	76	96	7
NMTAP	76	192	2
NMHLD	76	240	2	48
NMTAP	76	288	0
NMHLD	76	336	0	48
NMTAP	77	0	7
NMTAP	77	96	2
NMTAP	77	96	5
EXSTR	77	192	5
NMSV_	77	192	5	96	48	2
EXTAP	77	264	1
EXHLD	77	336	0	144
CNSUL	77	336	2	0	96	6
BRSTR	78	192	0
NMSCL	78	192	0	96	48	6
BRHLD	78	240	0	240
CNSI_	78	336	6	0	48	2
CNSCR	79	0	2	0	48	4
NMTAP	79	96	7
BRSTR	79	192	1
NMSCL	79	192	1	96	48	6
BRHLD	79	240	1	240
CNSI_	79	336	6	0	48	2
CNSCR	80	0	2	0	48	5
NMTAP	80	96	7
NMTAP	80	192	0
NMTAP	80	240	0
NMSTR	80	288	6
NMSI_	80	288	6	96	48	3
NMTAP	80	336	3
NMHLD	81	0	2	264
NMTAP	81	0	6
NMTAP	81	96	0
NMTAP	81	192	5
NMTTP	81	264	4	E	1	M1
NMTTP	81	336	0	C	1	M1
BXTAP	82	96	0
BXTAP	82	96	7
NMTAP	82	192	2
NMTAP	82	192	6
NMTAP	82	240	2
NMTAP	82	240	6
NMTAP	82	288	5
NMTAP	82	312	4
NMTAP	82	336	6
NMSTR	83	0	2
NMSI_	83	0	2	96	48	7
NMTAP	83	48	2
NMTAP	83	96	4
NMTAP	83	144	4
NMHLD	83	192	0	72
NMHLD	83	264	2	72
NMTAP	83	336	3
NMSTR	84	0	6
NMSCR	84	0	6	96	48	0
NMTAP	84	24	4
NMTAP	84	48	5
NMTAP	84	96	3
NMTAP	84	144	3
NMHLD	84	192	7	72
NMHLD	84	264	1	72
NMTAP	84	336	3
NMSTR	85	0	5
NMSI_	85	0	5	96	48	0
NMTAP	85	48	5
NMTAP	85	96	3
NMTAP	85	144	3
NMHLD	85	192	7	72
NMHLD	85	264	5	72
NMTAP	85	336	4
NMSTR	86	0	1
NMSCL	86	0	1	96	96	5
NMSTR	86	96	5
NMSCL	86	96	5	96	96	1
NMSTR	86	192	1
NMSCL	86	192	1	96	96	5
NMSTR	86	288	5
NMSCL	86	288	5	96	96	1
NMSTR	87	0	1
NMSCL	87	0	1	96	96	5
NMTAP	87	96	5
NMTAP	87	192	2
NMTAP	87	240	2
NMTTP	87	336	0	C	1	M1
NMTTP	87	336	3	B	0	M1
NMTTP	87	336	4	B	0	M1
EXTAP	88	48	0
EXTAP	88	48	7
EXTAP	88	96	0
EXTAP	88	96	7
NMTAP	88	192	2
NMTAP	88	216	3
NMTAP	88	264	5
NMTAP	88	288	4
NMTAP	88	336	3
NMTAP	88	336	6
NMTAP	89	48	2
NMTAP	89	96	1
NMTAP	89	144	0
NMTAP	89	192	7
NMTAP	89	240	6
NMTAP	89	288	5
NMTAP	89	336	4
NMTAP	90	0	5
NMTAP	90	32	7
NMTAP	90	64	6
NMTAP	90	96	2
NMTAP	90	128	0
NMTAP	90	160	1
NMSTR	90	192	5
NMSUL	90	192	5	96	480	4
EXHLD	90	288	3	1248
BXTAP	90	288	5
CNSCL	92	0	4	0	768	6

T_REC_TAP	298
T_REC_BRK	7
T_REC_XTP	64
T_REC_BXX	8
T_REC_HLD	59
T_REC_XHO	5
T_REC_BHO	6
T_REC_BXH	0
T_REC_STR	58
T_REC_BST	6
T_REC_XST	13
T_REC_XBS	2
T_REC_TTP	36
T_REC_THO	0
T_REC_SLD	75
T_REC_BSL	5
T_REC_ALL	642
T_NUM_TAP	469
T_NUM_BRK	34
T_NUM_HLD	64
T_NUM_SLD	75
T_NUM_ALL	642
T_JUDGE_TAP	492
T_JUDGE_HLD	285
T_JUDGE_SLD	80
T_JUDGE_ALL	857
TTM_EACHPAIRS	90
TTM_SCR_TAP	234500
TTM_SCR_BRK	88400
TTM_SCR_HLD	64000
TTM_SCR_SLD	112500
TTM_SCR_ALL	499400
TTM_SCR_S	481150
TTM_SCR_SS	496000
TTM_RAT_ACV	10068

