VERSION	0.00.00	1.04.00
FES_MODE	0
BPM_DEF	154.000	154.000	154.000	154.000
MET_DEF	4	4
RESOLUTION	384
CLK_DEF	384
COMPATIBLE_CODE	MA2

BPM	0	0	154.000
MET	0	0	4	4

NMTAP	1	192	3
NMTAP	1	192	4
NMHLD	2	0	2	192
NMHLD	2	0	4	192
NMTAP	2	264	3
NMTAP	2	264	5
NMHLD	2	336	3	240
NMHLD	2	336	5	240
NMTAP	3	264	2
NMTAP	3	264	4
NMHLD	3	336	2	240
NMHLD	3	336	4	240
NMTAP	4	264	3
NMTAP	4	264	5
NMHLD	4	336	5	96
NMTAP	5	48	3
NMSTR	5	96	3
NMSI_	5	96	3	96	96	7
NMTAP	5	288	6
NMTAP	6	0	1
NMTAP	6	96	0
NMTAP	6	96	2
NMTAP	6	192	6
NMTAP	6	288	5
NMTAP	6	288	7
NMTAP	7	0	1
NMTAP	7	96	0
NMTAP	7	96	2
NMTAP	7	192	6
NMTAP	7	288	5
NMTAP	7	288	7
NMTAP	7	336	5
NMTAP	7	336	7
EXTAP	8	48	6
EXTAP	8	96	6
EXTAP	8	144	7
EXTAP	8	192	7
EXTAP	8	240	0
EXTAP	8	288	0
NMSTR	8	336	1
NMSXL	8	336	1	96	144	3
NMTAP	10	0	2
NMTAP	10	0	4
NMHLD	10	96	2	576
NMTAP	10	96	4
NMTAP	10	288	3
NMTAP	11	96	0
NMTAP	11	288	7
NMTAP	12	0	4
NMTAP	12	0	5
NMTAP	12	96	3
NMTAP	12	96	4
NMTAP	12	192	2
NMTAP	12	192	3
NMSTR	12	288	1
NMSUL	12	288	1	96	192	3
NMTAP	13	288	2
NMTAP	13	288	4
NMTAP	14	0	3
NMTAP	14	0	5
NMTAP	14	96	3
NMHLD	14	96	5	576
NMTAP	14	288	4
NMTAP	15	96	7
NMTAP	15	288	0
NMTAP	16	0	2
NMTAP	16	0	3
NMTAP	16	96	3
NMTAP	16	96	4
NMTAP	16	192	4
NMTAP	16	192	5
NMSTR	16	288	6
NMSLR	16	288	6	96	192	3
NMTAP	17	288	2
NMTAP	17	288	4
NMTAP	18	0	5
NMTAP	18	96	4
NMTAP	18	96	5
NMTAP	18	192	2
NMTAP	18	240	2
NMTAP	18	288	1
NMTAP	18	288	3
NMTAP	19	0	5
NMTAP	19	96	4
NMTAP	19	96	5
NMTAP	19	192	2
NMTAP	19	240	2
NMTAP	19	288	1
NMTAP	19	288	3
NMTAP	20	0	4
NMTAP	20	0	6
NMTAP	20	96	0
NMTAP	20	96	7
NMTAP	20	192	1
NMTAP	20	192	3
NMTAP	20	288	3
NMTAP	20	288	4
NMTAP	21	0	4
NMTAP	21	0	5
NMSTR	21	96	4
NMSI_	21	96	4	96	96	1
NMSTR	21	96	5
NMSI_	21	96	5	96	96	0
NMTAP	22	0	2
NMTAP	22	0	3
NMTAP	22	96	1
NMTAP	22	96	4
NMTAP	22	192	5
NMTAP	22	240	5
NMTAP	22	288	4
NMTAP	22	288	6
NMTAP	23	0	2
NMTAP	23	0	3
NMTAP	23	96	1
NMTAP	23	96	4
NMTAP	23	192	5
NMTAP	23	240	5
NMTAP	23	288	4
NMTAP	23	288	6
NMSTR	24	0	2
NMSUR	24	0	2	96	288	5
NMTAP	25	192	2
NMTAP	25	288	2
NMHLD	26	0	2	288
NMSTR	26	0	7
NMSI_	26	0	7	96	192	4
NMTAP	27	0	3
NMTAP	27	0	5
NMTAP	27	192	2
NMTAP	27	288	2
NMSTR	28	0	0
NMSI_	28	0	0	96	192	5
NMHLD	28	0	2	288
NMTAP	29	0	3
NMTAP	29	0	6
NMTAP	29	192	2
NMTAP	29	288	2
NMTAP	30	0	2
NMTAP	30	0	3
NMTAP	30	96	4
NMTAP	30	192	2
NMTAP	30	192	3
NMTAP	30	288	5
NMTAP	31	0	2
NMTAP	31	0	3
NMTAP	31	96	6
NMTAP	31	192	1
NMTAP	31	192	7
NMTAP	31	288	3
NMTAP	31	288	4
NMHLD	32	0	2	192
NMHLD	32	0	7	192
NMTTP	32	336	0	C	1	M1
NMTTP	32	336	2	B	0	M1
NMTTP	32	336	3	B	0	M1
NMTTP	32	336	4	B	0	M1
NMTTP	32	336	5	B	0	M1
BRTAP	33	192	0
BRTAP	33	192	7
BRTAP	33	288	1
BRTAP	33	288	6
NMTAP	34	0	4
NMTAP	34	0	6
NMTAP	34	96	0
NMTAP	34	96	7
NMTAP	34	192	1
NMTAP	34	192	3
NMTAP	34	288	3
NMTAP	34	288	4
NMTAP	35	0	4
NMTAP	35	0	5
NMTAP	35	96	6
NMTAP	35	96	7
NMTAP	35	192	0
NMTAP	35	192	1
NMTAP	35	288	2
NMTAP	35	288	7
NMHLD	36	0	5	96
NMTAP	36	96	7
NMHLD	36	192	2	96
NMTAP	36	288	0
NMHLD	37	0	5	96
NMTAP	37	96	7
NMTAP	37	192	0
NMTAP	37	192	1
NMTAP	37	288	0
NMTAP	37	288	1
NMTAP	38	0	2
NMTAP	38	0	7
NMTAP	38	96	3
NMTAP	38	96	4
NMTAP	38	192	0
NMTAP	38	192	5
NMTAP	38	288	3
NMTAP	38	288	4
NMTAP	39	0	2
NMTAP	39	0	3
NMTAP	39	96	0
NMTAP	39	96	1
NMTAP	39	192	6
NMTAP	39	192	7
NMTAP	39	288	0
NMTAP	39	288	5
NMTAP	40	0	3
NMTAP	40	0	4
NMTAP	40	96	3
NMTAP	40	96	4
NMHLD	40	192	4	72
NMHLD	40	264	6	72
NMTAP	40	336	0
NMTAP	41	48	1
NMTAP	41	48	6
NMTAP	41	96	1
NMTAP	41	96	6
NMHLD	41	192	0	288
NMSTR	41	192	7
NMSCL	41	192	7	96	48	6
CNSV_	41	336	6	0	144	4
NMSTR	42	192	0
NMSV_	42	192	0	96	144	2
NMHLD	42	192	1	288
CNSCR	43	48	2	0	48	3
NMTAP	43	192	2
NMTAP	43	192	4
NMTAP	43	288	2
NMTAP	43	288	4
NMTAP	44	0	5
NMTAP	44	48	5
NMTAP	44	96	3
NMTAP	44	96	4
NMHLD	44	192	2	72
NMTAP	44	264	1
EXHLD	44	336	0	144
EXHLD	44	336	1	144
NMSTR	45	192	0
NMSCR	45	192	0	96	48	1
NMHLD	45	192	7	288
CNSV_	45	336	1	0	144	3
NMHLD	46	192	6	288
NMSTR	46	192	7
NMSV_	46	192	7	96	144	5
CNSCL	47	48	5	0	48	4
NMTAP	47	192	3
NMTAP	47	192	5
NMTAP	47	288	3
NMTAP	47	288	5
NMTAP	48	0	2
NMTAP	48	48	2
NMTAP	48	96	3
NMTAP	48	96	4
NMHLD	48	192	0	72
NMHLD	48	192	5	72
BRTAP	48	336	2
BRTAP	48	336	7
NMTTP	49	96	0	B	0	M1
NMTTP	49	96	0	C	1	M1
NMTTP	49	96	1	B	0	M1
NMTTP	49	96	6	B	0	M1
NMTTP	49	96	7	B	0	M1
NMTAP	50	0	7
NMTAP	50	96	0
NMTAP	50	96	6
NMTAP	50	192	5
NMTAP	50	240	5
NMTAP	50	288	3
NMTAP	50	288	4
NMTAP	51	0	2
NMTAP	51	96	1
NMTAP	51	96	3
NMTAP	51	192	0
NMTAP	51	192	7
NMTAP	51	240	0
NMTAP	51	240	7
NMTAP	51	288	1
NMTAP	51	288	6
NMHLD	52	0	6	96
NMHLD	52	96	4	96
NMHLD	52	192	3	96
NMHLD	52	288	1	96
NMTAP	53	0	0
NMTAP	53	96	1
NMTAP	53	96	7
NMTAP	53	192	2
NMTAP	53	240	2
NMTAP	53	288	2
NMTAP	53	288	3
NMTAP	54	0	5
NMTAP	54	96	4
NMTAP	54	96	6
NMTAP	54	192	2
NMTAP	54	240	2
NMTAP	54	288	1
NMTAP	54	288	3
NMTAP	55	0	6
NMTAP	55	96	5
NMTAP	55	96	7
NMTAP	55	192	1
NMTAP	55	240	1
NMTAP	55	288	0
NMTAP	55	288	2
NMTAP	56	0	5
NMTAP	56	96	4
NMTAP	56	96	5
NMTAP	56	192	3
NMTAP	56	192	4
NMSTR	56	288	2
NMSCR	56	288	2	96	288	1
NMTTP	58	0	2	A	0	M1
NMTTP	58	96	3	E	0	M1
NMTTP	58	192	3	B	0	M1
NMTTP	58	288	5	E	0	M1
NMTTP	59	0	5	B	0	M1
NMTTP	59	96	6	B	0	M1
NMTTP	59	192	7	E	0	M1
NMTTP	59	288	7	A	0	M1
NMSTR	60	0	0
NMSXL	60	0	0	96	288	4
NMTAP	61	192	3
NMTAP	61	192	4
NMHLD	61	288	3	432
NMTAP	61	288	4
NMHLD	62	0	5	48
NMHLD	62	96	5	48
NMHLD	62	192	5	48
NMHLD	62	288	5	48
NMTAP	63	0	4
NMTAP	63	96	3
NMSTR	63	96	4
NMSCR	63	96	4	96	96	6
NMHLD	64	0	0	96
NMHLD	64	0	1	96
NMTAP	64	192	1
NMTAP	64	192	7
NMTAP	64	264	1
NMTAP	64	264	7
EXSTR	64	336	0
NMSCR	64	336	0	96	144	3
EXSTR	64	336	7
NMSCL	64	336	7	96	144	4
NMSTR	65	336	3
NMSCL	65	336	3	96	144	0
NMSTR	65	336	4
NMSCR	65	336	4	96	144	7
BRHLD	67	0	2	96
BRHLD	67	0	7	96
BRTAP	67	192	3
BRTAP	67	192	4
BRTAP	67	264	3
BRTAP	67	264	4
BRHLD	67	336	0	240
BRHLD	67	336	5	240
BRTAP	68	288	0
BRTAP	68	288	7
NMTAP	69	0	4
NMHLD	69	0	5	96
NMTAP	69	96	7
NMHLD	69	192	2	96
NMTAP	69	192	3
NMTAP	69	288	0
NMTAP	70	0	4
NMHLD	70	0	5	96
NMTAP	70	96	7
NMTAP	70	192	2
NMTAP	70	192	3
NMTAP	70	288	0
NMTAP	70	288	1
NMTAP	71	0	2
NMTAP	71	0	7
NMTAP	71	96	3
NMTAP	71	96	4
NMTAP	71	192	0
NMTAP	71	192	5
NMTAP	71	288	3
NMTAP	71	288	4
NMTAP	72	0	4
NMTAP	72	0	5
NMTAP	72	96	6
NMTAP	72	96	7
NMTAP	72	192	0
NMTAP	72	192	1
NMTAP	72	288	2
NMTAP	72	288	7
NMTAP	73	0	3
NMTAP	73	0	4
NMTAP	73	96	3
NMTAP	73	96	4
NMHLD	73	192	4	72
NMHLD	73	264	6	72
NMTAP	73	336	0
NMTAP	74	48	1
NMTAP	74	48	6
NMTAP	74	96	1
NMTAP	74	96	6
NMSTR	74	192	0
NMSCR	74	192	0	96	48	1
NMHLD	74	192	7	288
CNSV_	74	336	1	0	144	3
NMHLD	75	192	6	288
NMSTR	75	192	7
NMSV_	75	192	7	96	144	5
CNSCL	76	48	5	0	48	4
NMTAP	76	192	3
NMTAP	76	192	5
NMTAP	76	288	3
NMTAP	76	288	5
NMTAP	77	0	2
NMTAP	77	48	2
NMTAP	77	96	3
NMHLD	77	96	4	96
NMHLD	77	192	5	72
NMTAP	77	264	7
EXHLD	77	336	0	144
EXHLD	77	336	7	144
NMHLD	78	192	0	288
NMSTR	78	192	7
NMSCL	78	192	7	96	48	6
CNSV_	78	336	6	0	144	4
NMSTR	79	192	0
NMSV_	79	192	0	96	144	2
NMHLD	79	192	1	288
CNSCR	80	48	2	0	48	3
NMTAP	80	192	2
NMTAP	80	192	4
NMTAP	80	288	2
NMTAP	80	288	4
NMTAP	81	0	5
NMTAP	81	48	5
NMTAP	81	96	3
NMTAP	81	96	4
NMHLD	81	192	2	72
NMHLD	81	192	7	72
BRTAP	81	336	0
BRTAP	81	336	5
NMTTP	82	96	0	B	0	M1
NMTTP	82	96	0	C	1	M1
NMTTP	82	96	1	B	0	M1
NMTTP	82	96	2	B	0	M1
NMTTP	82	96	3	B	0	M1
NMTTP	82	96	4	B	0	M1
NMTTP	82	96	5	B	0	M1
NMTTP	82	96	6	B	0	M1
NMTTP	82	96	7	B	0	M1
NMTAP	83	0	5
NMTAP	83	48	5
NMTAP	83	96	4
NMTAP	83	192	3
EXTAP	83	264	2
EXTAP	83	264	4
EXTAP	83	336	2
EXTAP	83	336	4
NMTAP	84	48	6
NMTAP	84	96	6
NMTAP	84	192	7
NMTAP	84	264	0
NMTAP	84	264	6
NMTAP	84	336	0
NMTAP	84	336	6
NMTAP	85	48	2
NMTAP	85	96	2
NMTAP	85	192	3
NMTAP	85	264	2
NMTAP	85	264	4
NMTAP	85	336	2
NMTAP	85	336	4
NMTAP	86	48	3
NMTAP	86	48	5
NMTAP	86	96	3
NMTAP	86	96	5
NMTAP	86	192	4
NMTAP	86	192	6
EXTAP	86	288	7
NMSTR	86	336	7
NMSCL	86	336	7	96	144	4
NMHLD	87	288	2	384
NMSTR	87	288	3
NMSCR	87	288	3	96	96	4
CNSI_	88	96	4	0	192	7
EXTAP	89	48	6
EXTAP	89	96	6
EXTAP	89	144	7
EXTAP	89	192	7
EXTAP	89	240	0
EXTAP	89	288	0
NMSTR	89	336	1
NMSUL	89	336	1	96	144	3
BRHLD	90	288	1	1248
BRHLD	90	288	6	1248

T_REC_TAP	306
T_REC_BRK	14
T_REC_XTP	17
T_REC_BXX	0
T_REC_HLD	50
T_REC_XHO	4
T_REC_BHO	6
T_REC_BXH	0
T_REC_STR	25
T_REC_BST	0
T_REC_XST	2
T_REC_XBS	0
T_REC_TTP	27
T_REC_THO	0
T_REC_SLD	27
T_REC_BSL	0
T_REC_ALL	478
T_NUM_TAP	377
T_NUM_BRK	20
T_NUM_HLD	54
T_NUM_SLD	27
T_NUM_ALL	478
T_JUDGE_TAP	391
T_JUDGE_HLD	267
T_JUDGE_SLD	27
T_JUDGE_ALL	685
TTM_EACHPAIRS	155
TTM_SCR_TAP	188500
TTM_SCR_BRK	52000
TTM_SCR_HLD	54000
TTM_SCR_SLD	40500
TTM_SCR_ALL	335000
TTM_SCR_S	323050
TTM_SCR_SS	333000
TTM_RAT_ACV	10060

