VERSION	0.00.00	1.04.00
FES_MODE	0
BPM_DEF	190.000	190.000	190.000	190.000
MET_DEF	4	4
RESOLUTION	384
CLK_DEF	384
COMPATIBLE_CODE	MA2

BPM	0	0	190.000
MET	0	0	4	4

NMSTR	2	0	4
NMSCR	2	0	4	96	288	7
NMTHO	3	0	0	384	C	0	M1
NMSTR	4	0	0
NMSCL	4	0	0	96	288	4
NMHLD	5	0	2	192
NMTAP	5	192	4
NMTAP	6	0	4
NMTAP	6	48	4
NMTAP	6	96	3
NMHLD	6	96	5	192
NMTAP	6	192	4
NMTAP	6	288	4
NMTAP	7	0	3
NMTAP	7	0	5
NMTAP	7	96	2
NMTAP	7	96	4
NMHLD	7	144	2	96
NMTAP	7	144	4
NMTAP	7	240	3
NMTAP	7	336	2
NMTAP	7	336	3
NMTAP	8	48	1
NMTAP	8	48	4
NMHLD	8	96	1	96
NMTAP	8	96	4
NMHLD	8	192	3	96
NMHLD	8	288	4	96
NMTAP	9	0	6
NMTAP	9	96	0
NMTAP	9	96	1
NMTAP	9	144	0
NMTAP	9	144	1
NMTAP	9	240	6
NMTAP	9	240	7
NMTAP	9	336	2
NMTAP	9	336	5
BRTAP	10	0	2
BRTAP	10	0	5
NMTAP	10	96	3
NMTAP	10	96	4
NMTAP	10	144	2
NMTAP	10	168	3
NMTAP	10	192	1
NMTAP	10	240	5
NMTAP	10	264	4
NMTAP	10	288	5
NMTAP	10	336	1
NMTAP	10	360	3
NMTAP	11	0	2
NMTAP	11	48	5
NMTAP	11	72	4
NMTAP	11	96	6
NMTAP	11	144	2
NMTAP	11	168	3
NMTAP	11	192	1
NMTAP	11	216	4
NMTAP	11	240	0
NMTAP	11	264	5
NMSTR	11	288	7
NMSCL	11	288	7	96	48	4
NMSTR	12	0	7
NMSCR	12	0	7	96	48	2
NMSTR	12	96	7
NMSI_	12	96	7	96	48	3
NMTAP	12	192	7
NMTAP	12	288	1
NMTAP	12	288	5
NMTAP	13	0	2
NMTAP	13	0	3
NMTAP	13	48	1
NMTAP	13	96	6
NMTAP	13	96	7
NMTAP	13	144	5
NMTAP	13	192	2
NMTAP	13	216	3
NMTAP	13	240	2
NMTAP	13	264	3
NMTAP	13	288	1
NMTAP	13	288	4
NMTAP	14	0	0
NMTAP	14	0	7
NMTAP	14	96	2
NMTAP	14	96	5
NMTAP	14	144	1
NMTAP	14	168	0
NMTAP	14	192	2
NMTAP	14	240	5
NMTAP	14	264	4
NMTAP	14	288	6
NMTAP	14	336	2
NMTAP	14	360	3
NMTAP	15	0	1
NMTAP	15	48	6
NMTAP	15	72	7
NMTAP	15	96	5
NMTAP	15	144	1
NMTAP	15	168	3
NMTAP	15	192	2
NMTAP	15	216	4
NMTAP	15	240	3
NMTAP	15	264	5
NMSTR	15	288	2
NMSCL	15	288	2	96	96	7
NMTAP	15	288	6
NMSTR	16	0	7
NMSCL	16	0	7	96	96	4
NMSTR	16	96	4
NMSCL	16	96	4	96	96	1
NMTAP	16	192	0
NMTAP	16	240	7
NMTAP	16	288	6
NMTAP	16	336	0
NMTAP	16	336	5
NMTAP	17	48	2
NMTAP	17	48	3
NMTAP	17	144	4
NMTAP	17	144	5
NMTAP	17	240	0
NMTAP	17	240	1
NMTAP	17	288	2
NMSTR	17	288	7
NMSCL	17	288	7	96	384	0
NMTTP	18	0	0	C	1	M1
NMTHO	20	0	0	672	C	0	M1
NMTTP	20	0	2	B	0	M1
NMTTP	20	0	5	B	0	M1
NMSTR	20	336	0
NMSLL	20	336	0	96	240	1
NMSTR	22	0	1
NMSCR	22	0	1	96	96	4
NMTAP	22	288	5
NMSTR	23	0	6
NMSCL	23	0	6	96	96	3
NMTAP	23	288	2
NMTAP	24	0	1
NMTAP	24	48	1
NMTAP	24	96	3
NMTAP	24	144	3
NMTAP	24	192	4
NMTAP	24	240	4
NMTAP	24	288	6
NMTAP	24	336	6
NMHLD	25	0	7	24
NMHLD	25	48	7	24
NMHLD	25	96	7	24
NMHLD	25	144	7	24
NMSTR	25	192	7
NMSI_	25	192	7	96	48	3
EXTAP	25	288	7
NMHLD	26	0	2	48
NMTAP	26	0	4
NMHLD	26	96	2	48
NMTAP	26	96	4
NMHLD	26	192	1	48
NMTAP	26	192	3
NMHLD	26	288	1	48
NMTAP	26	288	3
NMTAP	27	0	0
NMHLD	27	0	1	48
NMHLD	27	96	1	48
NMTAP	27	96	3
NMTAP	27	192	0
NMHLD	27	192	1	48
NMTAP	27	288	1
NMTAP	27	288	3
NMTAP	27	336	2
NMTAP	27	360	2
NMTAP	28	0	2
NMTAP	28	96	1
NMHLD	28	96	3	48
NMHLD	28	192	1	48
NMTAP	28	192	7
NMTAP	28	288	5
NMHLD	28	288	7	48
NMTAP	29	0	6
NMTAP	29	24	6
NMTAP	29	48	6
NMTAP	29	96	5
NMTAP	29	96	7
NMTAP	29	144	0
NMTAP	29	144	4
NMSTR	29	192	1
NMSI_	29	192	1	96	48	3
NMSTR	29	192	3
NMSI_	29	192	3	96	48	5
NMTAP	30	0	4
NMHLD	30	0	6	48
NMTAP	30	96	0
NMHLD	30	96	1	48
NMHLD	30	192	1	48
NMTAP	30	192	3
NMTAP	30	288	6
NMHLD	30	288	7	48
NMHLD	31	0	4	48
NMTAP	31	0	6
NMTAP	31	48	6
NMHLD	31	96	1	48
NMTAP	31	96	3
NMTAP	31	144	3
NMTAP	31	192	0
NMHLD	31	192	4	48
NMTAP	31	240	0
BRTAP	31	288	6
BRTAP	31	288	7
NMTAP	32	0	0
NMHLD	32	0	5	48
NMHLD	32	96	2	48
NMTAP	32	96	7
NMTAP	32	192	4
NMHLD	32	192	5	48
NMHLD	32	288	2	48
NMTAP	32	288	3
EXTAP	33	0	1
EXTAP	33	0	4
EXTAP	33	72	2
EXTAP	33	72	5
NMTAP	33	144	3
NMTAP	33	144	6
NMTAP	33	192	3
NMTAP	33	192	6
NMTAP	33	240	4
NMTAP	33	240	5
BRTAP	33	288	2
BRTAP	33	288	7
NMHLD	34	0	0	96
NMTTP	34	0	1	A	0	M1
NMTTP	34	24	2	E	0	M1
NMTTP	34	48	2	B	0	M1
NMTTP	34	72	3	B	0	M1
NMTTP	34	96	4	E	0	M1
NMTTP	34	192	6	A	0	M1
NMHLD	34	192	7	96
NMTTP	34	216	6	E	0	M1
NMTTP	34	240	5	B	0	M1
NMTTP	34	264	4	B	0	M1
NMTTP	34	288	4	E	0	M1
NMTTP	35	0	0	D	0	M1
NMHLD	35	0	1	288
NMTTP	35	24	1	D	0	M1
NMTTP	35	48	2	D	0	M1
NMTTP	35	72	3	D	0	M1
NMTTP	35	96	4	D	0	M1
NMTTP	35	120	5	D	0	M1
NMTTP	35	144	6	D	0	M1
NMTTP	35	168	7	D	0	M1
NMTTP	35	192	0	D	0	M1
NMTTP	35	216	1	D	0	M1
NMTTP	35	240	2	D	0	M1
NMTTP	35	264	3	D	0	M1
NMTTP	35	288	4	D	0	M1
NMTTP	36	0	6	A	0	M1
NMHLD	36	0	7	96
NMTTP	36	24	6	E	0	M1
NMTTP	36	48	5	B	0	M1
NMTTP	36	72	4	B	0	M1
NMTTP	36	96	4	E	0	M1
NMHLD	36	192	0	96
NMTTP	36	192	1	A	0	M1
NMTTP	36	216	2	E	0	M1
NMTTP	36	240	2	B	0	M1
NMTTP	36	264	3	B	0	M1
NMTTP	36	288	4	E	0	M1
NMTTP	37	0	0	D	0	M1
NMHLD	37	0	6	288
NMTTP	37	24	7	D	0	M1
NMTTP	37	48	6	D	0	M1
NMTTP	37	72	5	D	0	M1
NMTTP	37	96	4	D	0	M1
NMTTP	37	120	3	D	0	M1
NMTTP	37	144	2	D	0	M1
NMTTP	37	168	1	D	0	M1
NMTTP	37	192	0	D	0	M1
NMTTP	37	216	7	D	0	M1
NMTTP	37	240	6	D	0	M1
NMTTP	37	264	5	D	0	M1
NMTTP	37	288	4	D	0	M1
NMTAP	38	0	6
NMTAP	38	24	0
NMTAP	38	48	6
NMTAP	38	72	0
NMTAP	38	96	6
NMTAP	38	144	1
NMTAP	38	168	3
NMTAP	38	192	1
NMTAP	38	216	3
NMTAP	38	240	2
NMTAP	38	336	6
NMTAP	38	360	4
NMTAP	39	0	6
NMTAP	39	24	4
NMTAP	39	48	5
NMTAP	39	144	3
NMTAP	39	168	4
NMTAP	39	192	2
NMTAP	39	240	1
NMTAP	39	240	5
NMTAP	39	288	1
NMTAP	39	288	5
NMTAP	40	0	6
NMTAP	40	24	7
NMTAP	40	48	6
NMTAP	40	72	7
NMTAP	40	96	5
NMTAP	40	120	0
NMTAP	40	144	5
NMTAP	40	168	0
NMTAP	40	192	4
NMTAP	40	216	1
NMTAP	40	240	4
NMTAP	40	264	1
NMTAP	40	288	3
NMTAP	40	312	2
NMTAP	40	336	3
NMTAP	40	360	2
NMTAP	41	0	3
NMTAP	41	48	1
NMTAP	41	96	0
NMTAP	41	96	7
NMTAP	41	144	6
NMTAP	41	192	4
NMTAP	41	192	5
NMTAP	41	240	4
NMTAP	41	240	5
BRTAP	41	288	2
BRTAP	41	288	6
NMSTR	42	0	1
NMSI_	42	0	1	96	48	4
NMSTR	42	48	5
NMSI_	42	48	5	96	48	0
NMTAP	42	96	1
NMSTR	42	144	5
NMSCL	42	144	5	96	48	2
NMTAP	42	240	5
NMSTR	42	240	7
BRSI_	42	240	7	96	48	5
NMSTR	42	336	7
BRSI_	42	336	7	96	48	1
NMSTR	43	48	7
NMSF_	43	48	7	96	48	3
NMTAP	43	144	7
NMTAP	43	240	1
NMTAP	43	240	5
NMTAP	43	288	1
NMTAP	43	288	5
NMSTR	44	0	6
NMSI_	44	0	6	96	48	3
NMSTR	44	48	2
NMSI_	44	48	2	96	48	7
NMTAP	44	96	6
NMSTR	44	144	2
NMSCR	44	144	2	96	48	5
NMSTR	44	240	0
BRSI_	44	240	0	96	48	2
NMTAP	44	240	2
NMSTR	44	336	0
BRSI_	44	336	0	96	48	6
NMSTR	45	48	0
NMSF_	45	48	0	96	48	4
NMTAP	45	144	0
NMTAP	45	240	6
NMTAP	45	240	7
NMTAP	45	288	0
NMTAP	45	288	5
NMSTR	46	0	0
NMSI_	46	0	0	96	48	4
NMSTR	46	48	5
NMSI_	46	48	5	96	48	7
NMTAP	46	96	0
NMSTR	46	144	5
NMSI_	46	144	5	96	48	2
NMSTR	46	240	1
NMSCR	46	240	1	96	48	4
NMSTR	46	240	5
NMSCR	46	240	5	96	48	0
NMSTR	46	336	1
NMSI_	46	336	1	96	48	5
NMTAP	46	336	5
NMTAP	47	48	1
NMSTR	47	48	7
NMSI_	47	48	7	96	48	2
NMSI_	47	48	7	96	48	4
NMTAP	47	144	7
NMTAP	47	240	3
NMTAP	47	288	2
NMTAP	47	288	4
NMTAP	47	336	1
NMTAP	47	336	5
NMSTR	48	0	0
NMSI_	48	0	0	96	48	5
NMTAP	48	48	6
NMTAP	48	96	0
NMSTR	48	144	3
NMSI_	48	144	3	96	48	6
NMSTR	48	240	1
NMSI_	48	240	1	96	48	5
NMTAP	48	240	3
NMTAP	48	336	1
NMSTR	48	336	7
NMSXL	48	336	7	96	240	3
NMSXR	48	336	7	96	240	3
BRTAP	50	0	0
BRTAP	50	0	6
NMSTR	54	0	1
NMSI_	54	0	1	96	96	4
NMTTP	54	192	0	C	0	M1
CNSI_	54	192	4	0	96	2
NMSTR	55	0	6
NMSI_	55	0	6	96	96	3
NMTTP	55	192	0	C	0	M1
CNSI_	55	192	3	0	96	5
NMSTR	56	0	0
NMSI_	56	0	0	96	144	4
NMTTP	56	192	6	B	0	M1
CNSI_	56	240	4	0	96	2
NMTHO	56	336	0	240	C	0	M1
EXTAP	57	288	0
NMHLD	58	0	1	96
NMTAP	58	96	3
NMHLD	58	144	1	96
NMTAP	58	144	4
NMTAP	58	240	4
NMHLD	58	288	1	96
NMTAP	58	288	5
NMTAP	59	0	5
NMHLD	59	48	1	96
NMTAP	59	48	6
NMTAP	59	144	6
NMSTR	59	192	1
NMSI_	59	192	1	96	48	4
NMTAP	59	192	7
NMTAP	59	288	5
NMHLD	60	0	6	96
NMTAP	60	96	4
NMTAP	60	144	3
NMHLD	60	144	6	96
NMTAP	60	240	3
NMTAP	60	288	2
NMHLD	60	288	6	96
NMTAP	61	0	2
NMTAP	61	48	1
NMTAP	61	48	6
NMTAP	61	144	0
NMTAP	61	144	7
NMTAP	61	192	1
NMTAP	61	216	7
NMTAP	61	240	1
NMTAP	61	264	7
NMTAP	61	288	2
NMTAP	61	288	6
NMHLD	62	0	3	96
NMTAP	62	96	5
NMHLD	62	144	3	96
NMTAP	62	144	6
NMTAP	62	240	6
NMHLD	62	288	3	96
NMTAP	62	288	7
NMTAP	63	0	7
NMTAP	63	48	3
NMTAP	63	48	7
NMTAP	63	96	3
NMTAP	63	96	7
NMTAP	63	192	0
NMTAP	63	192	2
NMTAP	63	264	1
NMTAP	63	264	7
NMTAP	63	336	0
NMTAP	63	336	6
NMTAP	64	0	0
NMHLD	64	0	6	96
NMTAP	64	48	7
NMTAP	64	96	7
NMTAP	64	144	1
NMHLD	64	144	3	96
NMTAP	64	192	2
NMTAP	64	240	2
NMHLD	64	288	4	96
NMTAP	64	288	6
NMTAP	64	336	5
NMTAP	65	0	5
NMTAP	65	48	0
NMHLD	65	48	6	96
NMTAP	65	96	7
NMTAP	65	144	7
NMTAP	65	192	7
NMTAP	65	216	0
NMTAP	65	240	1
NMTAP	65	264	2
NMTAP	65	288	3
NMTAP	65	288	4
NMTAP	65	312	5
NMTAP	65	336	6
NMTAP	65	360	7
NMHLD	66	0	0	384
NMTAP	66	0	1
NMHLD	67	0	1	384
NMHLD	68	0	2	384
NMSTR	69	0	3
NMSCL	69	0	3	96	192	4
NMTAP	70	0	7
NMTAP	70	48	7
NMTAP	70	96	4
NMTAP	70	96	7
NMTAP	70	144	7
NMTAP	70	192	4
NMTAP	70	192	7
NMTAP	70	240	7
NMTAP	70	288	4
NMTAP	70	288	7
NMTAP	70	336	7
NMTAP	71	0	3
NMTAP	71	0	7
NMTAP	71	48	7
NMTAP	71	96	2
NMTAP	71	96	6
NMTAP	71	144	6
NMTAP	71	192	1
NMTAP	71	192	5
NMTAP	71	240	5
NMTAP	71	288	0
NMTAP	71	288	4
NMTAP	71	336	4
NMTAP	72	0	1
NMTAP	72	24	3
NMTAP	72	48	1
NMTAP	72	72	3
NMTAP	72	96	2
NMTAP	72	120	4
NMTAP	72	144	2
NMTAP	72	168	4
NMTAP	72	192	3
NMTAP	72	216	5
NMTAP	72	240	3
NMTAP	72	264	5
NMTAP	72	288	4
NMTAP	72	312	6
BRTAP	72	336	0
NMTAP	73	48	1
NMTAP	73	96	7
NMTAP	73	144	3
NMHLD	73	144	6	144
NMTAP	73	240	5
NMTAP	73	264	4
NMTAP	73	288	3
NMTAP	73	312	2
NMTAP	73	336	1
NMTAP	73	360	0
NMTAP	74	0	4
NMSTR	74	0	7
NMSCR	74	0	7	96	48	2
NMTAP	74	48	5
NMTAP	74	72	5
NMTAP	74	96	7
NMSTR	74	144	6
NMSV_	74	144	6	96	48	3
NMTAP	74	192	4
NMTAP	74	216	4
NMTAP	74	240	6
NMTAP	74	288	2
NMTAP	74	336	2
NMTAP	74	336	4
NMTAP	75	0	0
NMTAP	75	0	1
NMTAP	75	48	6
NMTAP	75	72	7
NMTAP	75	96	6
NMHLD	75	144	0	96
NMTAP	75	144	5
NMTAP	75	240	6
NMTAP	75	264	5
NMTAP	75	288	4
NMTAP	75	312	3
NMTAP	75	336	2
NMTAP	75	360	1
NMSTR	76	0	0
NMSCL	76	0	0	96	48	5
NMTAP	76	0	4
NMTAP	76	48	3
NMTAP	76	72	3
NMTAP	76	96	0
NMSTR	76	144	1
NMSV_	76	144	1	96	48	4
NMTAP	76	192	3
NMTAP	76	216	3
NMTAP	76	240	1
NMTAP	76	288	5
NMTAP	76	336	3
NMTAP	76	336	5
NMTAP	77	0	6
NMTAP	77	0	7
NMTAP	77	48	1
NMTAP	77	72	0
NMTAP	77	96	1
NMTAP	77	144	2
NMHLD	77	144	7	96
NMTAP	77	240	3
NMTAP	77	264	4
NMTAP	77	288	5
NMTAP	77	312	6
NMTAP	77	336	7
NMTAP	77	360	0
NMSTR	78	0	1
NMSI_	78	0	1	96	48	6
NMSTR	78	0	5
NMSI_	78	0	5	96	48	2
NMSTR	78	192	0
NMSCL	78	192	0	96	48	5
NMTAP	78	192	4
NMTAP	78	240	3
NMTAP	78	264	3
NMTAP	78	288	0
NMTAP	78	336	2
EXSTR	79	0	3
NMSI_	79	0	3	96	48	5
EXTAP	79	0	7
NMTAP	79	48	0
NMTAP	79	72	0
NMSTR	79	96	3
NMSI_	79	96	3	96	48	6
NMTAP	79	144	1
NMTAP	79	168	1
NMSTR	79	192	3
NMSI_	79	192	3	96	48	7
NMTAP	79	240	2
NMTAP	79	264	2
NMTAP	79	288	3
NMHLD	80	0	0	48
NMHLD	80	0	1	48
NMHLD	80	72	3	48
NMHLD	80	72	5	48
NMHLD	80	144	6	48
NMHLD	80	144	7	48
NMHLD	80	216	2	48
NMHLD	80	216	4	48
NMTAP	80	288	1
NMTAP	80	288	5
NMTAP	80	336	1
NMTAP	80	336	5
NMSTR	81	48	2
NMSCL	81	48	2	96	144	3
NMTAP	81	96	0
BRTAP	81	144	2
NMTAP	81	144	6
NMTAP	82	0	4
NMTAP	82	24	5
NMTAP	82	48	6
NMTAP	82	72	7
NMTAP	82	96	1
NMTAP	82	120	2
NMTAP	82	144	3
NMTAP	82	168	4
EXTAP	82	192	7
NMTAP	82	216	3
NMTAP	82	240	7
NMTAP	82	264	3
EXTAP	82	288	6
NMTAP	82	312	2
NMTAP	82	336	6
NMTAP	82	360	2
NMTAP	83	0	6
NMTAP	83	24	5
NMTAP	83	48	4
NMTAP	83	72	3
NMTAP	83	96	6
NMTAP	83	120	5
NMTAP	83	144	4
NMTAP	83	168	3
EXTAP	83	192	6
NMTAP	83	216	2
NMTAP	83	240	6
NMTAP	83	264	2
EXTAP	83	288	5
NMTAP	83	312	1
NMTAP	83	336	5
NMTAP	83	360	1
NMTAP	84	0	5
NMTAP	84	24	6
NMTAP	84	48	7
NMTAP	84	72	0
NMTAP	84	96	3
NMTAP	84	120	2
NMTAP	84	144	1
NMTAP	84	168	0
EXTAP	84	192	5
NMTAP	84	216	7
NMTAP	84	240	5
NMTAP	84	264	7
EXTAP	84	288	4
NMTAP	84	312	0
NMTAP	84	336	4
NMTAP	84	360	0
NMTAP	85	0	4
NMTAP	85	24	5
NMTAP	85	48	6
NMTAP	85	72	7
NMTAP	85	96	1
NMTAP	85	120	2
NMTAP	85	144	3
NMTAP	85	168	4
EXTAP	85	192	7
NMTAP	85	216	0
NMTAP	85	240	1
NMTAP	85	264	2
EXTAP	85	288	5
NMTAP	85	312	6
NMTAP	85	336	7
NMTAP	85	360	0
EXSTR	86	0	1
NMSI_	86	0	1	96	192	5
EXTAP	86	0	5
NMSTR	87	0	6
NMSUL	87	0	6	96	192	2
NMHLD	88	0	0	96
NMHLD	88	0	1	96
NMHLD	88	144	6	96
NMHLD	88	144	7	96
NMTAP	88	288	1
NMTAP	88	288	5
NMSTR	88	336	2
NMSXR	88	336	2	96	240	7
NMSTR	88	336	3
NMSXL	88	336	3	96	240	6
BRTAP	90	0	0
NMTAP	90	0	4
BRTAP	90	96	1
NMTAP	90	96	5
BRTAP	90	192	2
NMHLD	90	192	6	96
BXTAP	90	288	0
BXTAP	90	336	0
NMSTR	91	0	0
NMSI_	91	0	0	96	48	3
NMSTR	91	96	0
NMSI_	91	96	0	96	48	5
NMTAP	91	96	7
NMSTR	91	192	0
NMSI_	91	192	0	96	48	2
NMTAP	91	192	1
NMSTR	91	288	0
NMSI_	91	288	0	96	48	6
EXTAP	91	288	6
NMSTR	92	0	0
NMSI_	92	0	0	96	48	3
EXTAP	92	0	2
NMSTR	92	96	0
NMSI_	92	96	0	96	48	4
EXTAP	92	96	6
NMTAP	92	192	0
EXTAP	92	192	2
NMTAP	92	288	3
NMTAP	92	288	5
NMTAP	92	336	2
NMTAP	92	336	6
BXSTR	93	0	1
NMSI_	93	0	1	96	48	4
BXSTR	93	0	7
NMSI_	93	0	7	96	48	4
BXTAP	93	48	0
BXTAP	93	96	1
BXTAP	93	96	7
BXTAP	93	192	2
BXTAP	93	192	6
BXTAP	93	216	2
BXTAP	93	216	6
BXTAP	93	264	1
BXTAP	93	264	5
BXSTR	93	288	1
BRSI_	93	288	1	96	48	4
BXSTR	93	288	5
BRSI_	93	288	5	96	48	0
BXTAP	93	336	0
BXTAP	93	336	4
BXTAP	94	0	1
BXTAP	94	0	5
BRHLD	94	96	3	48
BRHLD	94	96	7	48
BRHLD	94	192	4	48
BRHLD	94	192	6	48
BRHLD	94	288	1	48
BRHLD	94	288	3	48
NMTAP	95	0	6
BRSTR	95	0	7
BRSI_	95	0	7	96	48	4
NMTAP	95	96	0
BRSTR	95	96	7
BRSI_	95	96	7	96	48	2
NMTAP	95	192	6
BRSTR	95	192	7
BRSI_	95	192	7	96	48	5
EXTAP	95	288	1
BRSTR	95	288	7
BRSI_	95	288	7	96	48	1
EXTAP	96	0	5
BRSTR	96	0	7
BRSI_	96	0	7	96	48	3
EXTAP	96	96	1
BRTAP	96	96	7
NMTAP	96	192	2
NMTAP	96	192	4
NMTAP	96	240	2
NMTAP	96	240	4
NMTAP	96	288	6
NMTAP	96	312	0
NMTAP	96	336	6
NMSTR	97	0	1
NMSI_	97	0	1	96	48	3
NMSTR	97	0	5
NMSI_	97	0	5	96	48	7
NMTAP	97	48	1
NMTAP	97	48	5
NMSTR	97	96	1
NMSI_	97	96	1	96	48	5
NMTAP	97	96	5
NMTAP	97	192	1
NMSTR	97	192	6
NMSI_	97	192	6	96	48	2
NMSTR	97	288	0
NMSI_	97	288	0	96	48	4
NMTAP	97	288	6
NMTAP	98	0	0
NMSTR	98	0	5
NMSLR	98	0	5	96	96	1
NMTAP	98	96	1
CNSLL	98	192	1	0	96	5
NMTAP	98	192	5
NMTAP	98	288	1
NMTAP	99	0	2
NMTAP	99	0	4
NMTAP	99	48	1
NMTAP	99	96	0
NMTAP	99	96	7
NMTAP	99	144	6
NMSTR	99	192	5
NMSCR	99	192	5	96	48	0
NMTAP	99	216	3
NMTAP	99	264	3
NMTAP	99	288	5
NMTAP	99	336	1
NMTAP	99	360	2
NMTAP	100	0	3
NMTAP	100	48	3
NMTAP	100	48	7
NMTAP	100	96	6
NMTAP	100	144	1
NMTAP	100	144	5
NMSTR	100	192	4
NMSI_	100	192	4	96	48	0
NMTAP	100	216	0
NMTAP	100	264	0
NMTAP	100	288	4
NMTAP	101	0	1
NMTAP	101	0	7
NMTAP	101	48	2
NMTAP	101	96	3
NMTAP	101	96	4
NMTAP	101	144	5
NMSTR	101	192	6
NMSI_	101	192	6	96	48	3
NMTAP	101	216	7
NMTAP	101	264	7
NMTAP	101	288	6
NMTAP	101	336	1
NMTAP	101	360	1
NMTAP	102	0	4
NMTAP	102	48	3
NMTAP	102	48	5
NMTAP	102	96	2
NMTAP	102	96	6
NMTAP	102	144	1
NMTAP	102	144	7
NMTAP	102	192	0
NMTAP	102	216	0
NMTAP	102	240	0
NMTAP	102	264	0
NMTAP	102	288	1
NMTAP	102	288	7
NMTAP	103	0	3
NMTAP	103	0	5
NMTAP	103	48	6
NMTAP	103	96	0
NMTAP	103	96	7
NMTAP	103	144	1
NMSTR	103	192	2
NMSCL	103	192	2	96	48	7
NMTAP	103	216	4
NMTAP	103	264	4
NMTAP	103	288	2
NMTAP	103	336	6
NMTAP	103	360	5
NMTAP	104	0	4
NMTAP	104	48	0
NMTAP	104	48	4
NMTAP	104	96	1
NMTAP	104	144	2
NMTAP	104	144	6
NMSTR	104	192	7
NMSI_	104	192	7	96	48	3
NMTAP	104	216	1
NMTAP	104	264	1
NMTAP	104	288	7
NMTAP	105	0	1
NMTAP	105	24	0
NMTAP	105	48	2
NMTAP	105	72	7
NMTAP	105	96	3
NMTAP	105	120	6
NMTAP	105	144	4
NMTAP	105	168	5
NMTAP	105	192	7
NMTAP	105	216	6
NMTAP	105	240	0
NMTAP	105	264	5
NMTAP	105	288	1
NMTAP	105	312	4
NMTAP	105	336	2
NMTAP	105	360	3
NMTAP	106	0	1
NMTAP	106	24	7
NMTAP	106	48	4
NMTAP	106	72	5
NMTAP	106	96	0
NMTAP	106	120	6
NMTAP	106	144	2
NMTAP	106	168	3
NMTAP	106	192	0
NMTAP	106	204	7
NMTAP	106	216	6
NMTAP	106	228	5
NMTAP	106	240	4
NMTAP	106	252	3
NMTAP	106	264	2
NMTAP	106	276	1
BRSTR	106	288	0
BRSLR	106	288	0	96	48	4
BRSTR	106	288	4
NMSLR	106	288	4	96	48	0
NMTAP	107	0	0
NMTTP	107	0	2	A	1	M1
NMTAP	107	0	4
NMTTP	107	0	6	A	0	M1

T_REC_TAP	575
T_REC_BRK	16
T_REC_XTP	23
T_REC_BXX	15
T_REC_HLD	70
T_REC_XHO	0
T_REC_BHO	6
T_REC_BXH	0
T_REC_STR	73
T_REC_BST	7
T_REC_XST	2
T_REC_XBS	4
T_REC_TTP	54
T_REC_THO	3
T_REC_SLD	76
T_REC_BSL	12
T_REC_ALL	936
T_NUM_TAP	727
T_NUM_BRK	60
T_NUM_HLD	73
T_NUM_SLD	76
T_NUM_ALL	936
T_JUDGE_TAP	769
T_JUDGE_HLD	171
T_JUDGE_SLD	88
T_JUDGE_ALL	1028
TTM_EACHPAIRS	182
TTM_SCR_TAP	363500
TTM_SCR_BRK	156000
TTM_SCR_HLD	73000
TTM_SCR_SLD	114000
TTM_SCR_ALL	706500
TTM_SCR_S	679500
TTM_SCR_SS	700500
TTM_RAT_ACV	10085

