VERSION	0.00.00	1.04.00
FES_MODE	0
BPM_DEF	190.000	190.000	190.000	190.000
MET_DEF	4	4
RESOLUTION	384
CLK_DEF	384
COMPATIBLE_CODE	MA2

BPM	0	0	190.000
MET	0	0	4	4

NMSTR	2	0	2
NMSUR	2	0	2	96	576	4
NMSTR	4	0	5
NMSXL	4	0	5	96	576	3
NMSTR	6	0	2
NMSCR	6	0	2	96	192	5
NMSTR	7	0	6
NMSUL	7	0	6	96	192	1
NMHLD	8	0	0	288
NMHLD	8	192	7	96
NMHLD	9	0	1	96
NMHLD	9	0	6	96
NMSTR	9	144	1
NMSI_	9	144	1	96	48	4
NMSTR	9	144	6
NMSI_	9	144	6	96	48	3
BRTAP	10	0	0
BRTAP	10	0	7
NMTAP	10	96	6
NMTAP	10	192	4
NMTAP	10	288	3
NMTAP	10	288	5
NMTAP	11	0	2
NMTAP	11	96	1
NMTAP	11	96	3
NMTAP	11	192	5
NMTAP	11	240	5
NMTAP	11	288	4
NMHLD	12	0	0	96
NMHLD	12	0	6	96
NMTAP	12	192	7
NMTAP	12	288	0
NMTAP	12	288	6
NMTAP	13	0	1
NMTAP	13	48	1
NMSTR	13	96	3
NMSI_	13	96	3	96	48	7
EXTAP	13	288	0
NMHLD	14	0	1	96
NMHLD	14	0	7	96
NMTAP	14	192	0
NMTAP	14	288	1
NMTAP	14	288	7
NMTAP	15	0	6
NMTAP	15	48	6
NMTAP	15	96	7
NMTAP	15	192	1
NMTAP	15	240	1
NMTAP	15	288	0
NMTAP	16	0	2
NMTAP	16	96	4
NMTAP	16	96	6
NMTAP	16	192	1
NMTAP	16	192	3
NMTAP	16	288	0
NMTAP	16	288	7
NMSTR	16	336	0
NMSCR	16	336	0	96	72	3
NMSTR	16	336	7
NMSCL	16	336	7	96	72	4
NMTHO	17	192	0	192	C	1	M1
NMTTP	17	192	1	B	0	M1
NMTTP	17	192	2	E	0	M1
NMTTP	17	192	5	B	0	M1
NMTTP	17	192	6	E	0	M1
NMHLD	20	0	7	144
NMTAP	20	144	0
NMSTR	20	240	1
NMSUR	20	240	1	96	240	3
NMTAP	20	240	6
NMTAP	21	192	4
NMTAP	21	288	4
NMTAP	22	0	2
EXHLD	22	0	6	288
NMTAP	22	96	2
NMTAP	22	192	4
NMTAP	22	288	4
EXHLD	23	0	1	288
NMTAP	23	0	5
NMTAP	23	96	5
NMTAP	23	192	3
NMTAP	23	288	3
NMTAP	24	0	2
NMTAP	24	0	3
NMTAP	24	96	4
NMTAP	24	96	5
NMTAP	24	192	1
NMTAP	24	192	3
NMTAP	24	288	4
NMTAP	24	288	6
EXTAP	25	0	0
EXTAP	25	0	7
EXTAP	25	48	0
EXTAP	25	48	7
EXSTR	25	96	0
NMSI_	25	96	0	96	48	4
EXSTR	25	96	7
NMSI_	25	96	7	96	48	3
BRTAP	25	288	1
BRTAP	25	288	6
NMHLD	26	0	2	48
NMHLD	26	96	2	48
NMHLD	26	192	3	48
NMHLD	26	192	4	48
NMHLD	26	288	3	48
NMHLD	26	288	4	48
NMHLD	27	0	5	48
NMHLD	27	96	5	48
NMHLD	27	192	3	48
NMHLD	27	192	4	48
NMHLD	27	288	3	48
NMHLD	27	288	4	48
NMHLD	28	0	2	48
NMHLD	28	96	1	48
NMHLD	28	96	3	48
NMHLD	28	192	4	48
NMHLD	28	288	3	48
NMHLD	28	288	4	48
NMHLD	29	0	5	48
NMHLD	29	96	4	48
NMHLD	29	96	6	48
NMSTR	29	192	3
NMSI_	29	192	3	96	48	1
NMSTR	29	192	7
NMSI_	29	192	7	96	48	3
EXTAP	30	0	0
NMTAP	30	96	1
NMTAP	30	96	7
NMTAP	30	192	2
NMTAP	30	240	2
NMTAP	30	288	3
NMTAP	31	0	4
NMTAP	31	0	5
NMTAP	31	96	2
NMTAP	31	96	7
NMSTR	31	192	4
NMSI_	31	192	4	96	48	0
NMTAP	31	192	5
NMTAP	32	0	7
NMTAP	32	96	0
NMTAP	32	96	6
NMTAP	32	192	5
NMTAP	32	240	5
NMTAP	32	288	4
NMHLD	33	0	0	72
NMHLD	33	72	2	72
NMTAP	33	144	3
NMSTR	33	192	3
NMSI_	33	192	3	96	48	7
NMTAP	34	0	6
NMTAP	34	48	6
NMTAP	34	96	5
NMTAP	34	96	7
NMTAP	34	192	3
NMTAP	34	192	4
NMTAP	34	288	2
NMTAP	34	336	2
NMTAP	35	0	1
NMTAP	35	0	3
NMTAP	35	96	4
NMTAP	35	144	4
NMTAP	35	192	3
NMSTR	35	192	5
NMSI_	35	192	5	96	48	0
NMTAP	36	0	1
NMTAP	36	48	1
NMTAP	36	96	0
NMTAP	36	96	2
NMTAP	36	192	3
NMTAP	36	192	4
NMTAP	36	288	5
NMTAP	36	336	5
NMTAP	37	0	4
NMTAP	37	48	4
NMTAP	37	96	3
NMTAP	37	96	6
NMSTR	37	192	1
NMSI_	37	192	1	96	48	4
NMTAP	37	192	4
EXTAP	38	0	6
EXSTR	38	0	7
NMSCR	38	0	7	96	48	2
EXTAP	38	192	3
EXSTR	38	192	4
NMSCR	38	192	4	96	48	7
EXTAP	39	0	0
EXSTR	39	0	1
NMSCR	39	0	1	96	48	4
EXSTR	39	192	6
NMSI_	39	192	6	96	48	2
EXTAP	39	192	7
EXHLD	40	0	1	96
NMTAP	40	96	3
EXHLD	40	144	3	96
NMTAP	40	240	4
EXHLD	40	288	4	96
NMTAP	41	0	6
NMTAP	41	48	6
NMSTR	41	96	0
NMSI_	41	96	0	96	48	4
BRTAP	41	288	2
BRTAP	41	288	6
NMTAP	42	0	0
NMTAP	42	48	0
NMTAP	42	96	6
NMSTR	42	144	6
NMSCL	42	144	6	96	48	3
NMTAP	42	240	7
NMSTR	42	336	2
NMSI_	42	336	2	96	48	5
NMTAP	43	48	0
NMHLD	43	144	6	96
NMTAP	43	240	7
NMTAP	43	288	0
NMTAP	43	288	5
NMTAP	44	0	2
NMTAP	44	48	2
NMTAP	44	96	3
NMTAP	44	144	1
NMSTR	44	240	6
NMSI_	44	240	6	96	48	4
NMTAP	44	240	7
NMSTR	44	336	0
NMSI_	44	336	0	96	48	2
NMSTR	45	48	7
NMSI_	45	48	7	96	48	3
NMTAP	45	144	0
NMTAP	45	240	2
NMTAP	45	240	4
EXTAP	45	288	2
EXTAP	45	288	4
NMTAP	46	0	7
NMTAP	46	48	7
NMTAP	46	96	1
NMSTR	46	144	1
NMSCR	46	144	1	96	48	4
NMTAP	46	240	0
NMSTR	46	336	5
NMSI_	46	336	5	96	48	2
NMTAP	47	48	7
NMHLD	47	144	1	96
NMTAP	47	240	0
NMTAP	47	288	2
NMTAP	47	288	7
NMTAP	48	0	5
NMTAP	48	48	5
NMTAP	48	96	4
NMTAP	48	144	6
NMTAP	48	192	0
NMTAP	48	240	0
NMTAP	48	288	7
EXSTR	48	336	2
NMSCL	48	336	2	96	336	3
EXTAP	48	336	6
NMHLD	50	0	6	144
NMHLD	50	144	4	192
NMHLD	50	336	3	336
NMHLD	52	0	2	144
NMTAP	52	0	4
NMHLD	52	144	3	192
NMHLD	52	336	4	240
NMTAP	53	288	3
NMTAP	53	288	5
NMHLD	54	0	1	144
NMHLD	54	144	3	192
NMHLD	54	336	4	336
NMTAP	56	0	3
NMHLD	56	0	5	144
NMTAP	56	144	4
NMSTR	56	240	3
NMSUR	56	240	3	96	288	4
NMTAP	56	336	5
BRTAP	57	288	7
NMHLD	58	0	1	144
NMTAP	58	0	5
NMHLD	58	144	3	144
NMHLD	58	288	4	144
NMHLD	59	48	6	144
NMTAP	59	192	0
NMTAP	59	288	1
NMTAP	59	288	7
NMHLD	60	0	2	96
NMHLD	60	0	3	96
NMHLD	60	144	4	96
NMHLD	60	144	6	96
NMHLD	60	288	1	96
NMHLD	60	288	5	96
NMHLD	61	48	6	96
NMHLD	61	48	7	96
NMSTR	61	192	4
NMSI_	61	192	4	96	48	1
NMSTR	61	192	5
NMSI_	61	192	5	96	48	0
EXTAP	62	0	2
EXTAP	62	0	7
NMTAP	62	96	6
NMTAP	62	144	6
NMTAP	62	144	7
NMTAP	62	240	5
NMTAP	62	288	4
NMTAP	62	288	5
NMTAP	63	0	2
NMTAP	63	48	2
NMTAP	63	48	3
NMTAP	63	144	1
EXHLD	63	192	1	72
EXHLD	63	264	2	72
EXTAP	63	336	3
NMTAP	64	0	3
NMTAP	64	96	5
NMTAP	64	144	4
NMTAP	64	144	6
NMTAP	64	240	2
NMTAP	64	288	1
NMTAP	64	288	3
NMTAP	65	0	4
NMTAP	65	0	5
NMTAP	65	48	4
NMTAP	65	48	5
NMTAP	65	144	2
NMTAP	65	144	3
NMSTR	65	192	2
NMSI_	65	192	2	96	48	7
NMSTR	65	192	3
NMSI_	65	192	3	96	48	6
EXHLD	66	0	1	384
NMTTP	66	96	3	E	0	M1
NMTTP	66	288	2	E	0	M1
NMHLD	67	0	3	384
NMTTP	67	96	3	E	0	M1
NMTTP	67	288	2	E	0	M1
NMHLD	68	0	4	384
NMTTP	68	96	6	E	0	M1
NMTTP	68	288	5	E	0	M1
NMHLD	69	0	6	384
NMTTP	69	96	6	E	0	M1
NMTTP	69	288	5	E	0	M1
NMTAP	70	0	1
NMTAP	70	48	1
NMTAP	70	96	3
NMTAP	70	144	3
NMTAP	70	192	2
NMTAP	70	240	2
NMTAP	70	288	5
NMTAP	70	336	5
NMTAP	71	0	4
NMTAP	71	48	4
NMTAP	71	96	6
NMTAP	71	144	6
NMTAP	71	192	0
NMTAP	71	240	0
NMTAP	71	288	7
NMTAP	71	336	7
NMTAP	72	0	1
NMTAP	72	48	1
NMTAP	72	96	6
NMTAP	72	144	6
NMTAP	72	192	0
NMTAP	72	216	7
NMTAP	72	240	0
NMTAP	72	264	7
NMTAP	72	288	0
NMTAP	72	312	7
EXTAP	72	336	0
EXTAP	73	48	1
EXTAP	73	48	6
EXSTR	73	144	3
BRSF_	73	144	3	96	72	7
EXTAP	73	144	4
EXHLD	74	0	1	72
EXTAP	74	0	5
NMHLD	74	72	3	72
NMSTR	74	144	4
NMSI_	74	144	4	96	48	0
NMTAP	74	240	7
NMTAP	74	288	7
NMTAP	75	0	2
NMHLD	75	0	6	72
NMHLD	75	72	4	72
NMSTR	75	144	3
NMSI_	75	144	3	96	48	7
NMTAP	75	240	0
NMTAP	75	288	0
NMTAP	76	0	4
NMTAP	76	0	6
NMTAP	76	72	3
NMTAP	76	72	4
NMTAP	76	144	1
NMTAP	76	144	3
NMTAP	76	240	0
NMTAP	76	288	0
NMTAP	76	288	7
NMTAP	77	0	2
NMTAP	77	0	3
NMTAP	77	72	4
NMTAP	77	72	5
NMHLD	77	144	0	96
NMHLD	77	144	7	96
EXSTR	77	288	1
NMSCR	77	288	1	96	48	3
EXSTR	77	288	6
NMSCL	77	288	6	96	48	4
BRTAP	78	96	0
BRTAP	78	96	7
NMTAP	78	192	2
NMTAP	78	240	2
NMTAP	78	288	3
NMTAP	78	336	1
NMTAP	79	0	6
NMTAP	79	48	6
NMTAP	79	96	7
NMTAP	79	144	5
NMTAP	79	192	0
NMTAP	79	240	0
EXTAP	79	288	2
EXTAP	79	288	6
NMHLD	80	0	1	72
NMHLD	80	72	3	72
NMHLD	80	144	4	72
NMHLD	80	216	6	72
NMTAP	80	288	0
NMHLD	80	336	0	96
EXTAP	81	48	7
EXTAP	81	96	1
EXTAP	81	96	6
EXTAP	81	144	2
EXTAP	81	144	5
EXSTR	81	192	3
BRSI_	81	192	3	96	48	0
EXSTR	81	192	4
BRSI_	81	192	4	96	48	7
EXTAP	82	0	1
EXTAP	82	0	6
EXTAP	82	48	1
EXTAP	82	48	6
NMHLD	82	144	2	48
EXTAP	82	144	5
NMHLD	82	240	3	48
EXTAP	82	240	5
NMHLD	82	336	4	48
EXTAP	82	336	5
EXTAP	83	48	5
NMHLD	83	48	6	48
EXTAP	83	144	5
NMHLD	83	144	7	48
NMHLD	83	240	0	48
EXTAP	83	240	5
NMHLD	83	336	1	48
EXTAP	83	336	5
EXTAP	84	48	2
NMHLD	84	48	6	48
EXTAP	84	144	2
NMHLD	84	144	5	48
EXTAP	84	240	2
NMHLD	84	240	4	48
EXTAP	84	336	2
NMHLD	84	336	3	48
NMHLD	85	48	1	48
EXTAP	85	48	2
NMHLD	85	144	0	48
EXTAP	85	144	2
EXTAP	85	240	2
NMHLD	85	240	7	48
EXTAP	85	336	2
EXTAP	85	336	6
BRTAP	86	0	2
BRTAP	86	0	6
NMTAP	86	96	3
NMHLD	86	96	5	288
NMTAP	86	288	4
NMHLD	87	0	2	288
NMTAP	87	96	3
NMTAP	87	288	4
NMHLD	88	0	1	96
NMHLD	88	0	6	96
NMHLD	88	144	2	144
NMHLD	88	144	5	144
NMHLD	88	336	3	336
NMHLD	88	336	4	336
NMTTP	90	0	4	E	0	M1
NMTTP	90	96	2	E	0	M1
NMTTP	90	96	6	E	0	M1
NMTTP	90	192	0	C	0	M1
NMTTP	90	192	3	B	0	M1
NMTTP	90	192	4	B	0	M1
BRSTR	90	288	0
NMSI_	90	288	0	96	48	3
BRSTR	90	288	7
NMSI_	90	288	7	96	48	4
NMTAP	91	96	2
NMTAP	91	96	5
NMTAP	91	192	1
NMTAP	91	192	3
NMTAP	91	288	0
NMTAP	91	288	7
NMTAP	92	0	4
NMTAP	92	0	6
NMTAP	92	96	0
NMTAP	92	96	7
NMSTR	92	192	1
NMSI_	92	192	1	96	48	4
NMTAP	92	192	3
EXSTR	92	288	5
NMSI_	92	288	5	96	48	0
EXTAP	93	0	3
NMTAP	93	96	1
NMTAP	93	96	7
NMTAP	93	192	4
NMTAP	93	240	4
NMTAP	93	288	0
NMTAP	93	336	0
NMSTR	94	0	6
NMSI_	94	0	6	96	48	3
EXSTR	94	96	2
NMSI_	94	96	2	96	48	7
EXSTR	94	192	5
NMSI_	94	192	5	96	48	0
EXSTR	94	288	1
NMSI_	94	288	1	96	48	4
EXTAP	95	0	7
NMTAP	95	96	5
NMTAP	95	96	6
NMTAP	95	192	3
NMTAP	95	192	4
NMTAP	95	288	1
NMTAP	95	288	2
NMTAP	96	0	0
NMTAP	96	0	7
NMTAP	96	96	5
NMTAP	96	96	6
NMSTR	96	192	3
NMSI_	96	192	3	96	48	0
NMTAP	96	192	4
EXSTR	96	288	7
NMSI_	96	288	7	96	48	4
EXTAP	97	0	0
NMTAP	97	96	1
NMTAP	97	96	2
NMTAP	97	192	3
NMTAP	97	192	4
NMTAP	97	288	5
NMTAP	97	288	6
NMTAP	98	0	0
NMTAP	98	0	7
NMTAP	98	96	2
NMTAP	98	96	3
NMTAP	98	144	1
NMTAP	98	144	4
NMTAP	98	240	0
NMTAP	98	240	7
BRTAP	98	288	1
BRTAP	98	288	6
NMHLD	99	0	5	96
NMHLD	99	96	4	144
NMTAP	99	240	5
NMTAP	99	288	3
NMTAP	99	288	6
NMHLD	100	0	2	96
NMHLD	100	96	3	144
NMTAP	100	240	2
NMTAP	100	288	1
NMTAP	100	288	4
NMHLD	101	0	6	96
NMHLD	101	96	7	144
NMTAP	101	240	6
NMTAP	101	288	0
NMTAP	101	288	5
NMHLD	102	0	1	96
NMHLD	102	96	0	144
NMTAP	102	240	1
NMTAP	102	288	2
NMTAP	102	288	7
NMHLD	103	0	4	96
NMTAP	103	0	5
NMTAP	103	96	6
NMTAP	103	144	6
NMTAP	103	192	4
NMTAP	103	240	5
NMTAP	103	288	3
NMTAP	103	288	7
NMTAP	104	0	2
NMHLD	104	0	3	96
NMTAP	104	96	1
NMTAP	104	144	1
NMTAP	104	192	3
NMTAP	104	240	2
NMTAP	104	288	0
NMTAP	104	288	4
NMHLD	105	0	6	48
NMHLD	105	0	7	48
NMHLD	105	96	4	48
NMHLD	105	96	5	48
NMHLD	105	192	2	48
NMHLD	105	192	3	48
NMHLD	105	288	0	48
NMHLD	105	288	1	48
NMTAP	106	0	6
NMTAP	106	48	5
NMTAP	106	96	4
NMTAP	106	144	3
EXTAP	106	192	2
EXTAP	106	192	6
EXTAP	106	240	2
EXTAP	106	240	6
NMSTR	106	288	1
NMSI_	106	288	1	96	48	6
NMSTR	106	288	5
NMSI_	106	288	5	96	48	2

T_REC_TAP	293
T_REC_BRK	13
T_REC_XTP	55
T_REC_BXX	0
T_REC_HLD	109
T_REC_XHO	9
T_REC_BHO	0
T_REC_BXH	0
T_REC_STR	36
T_REC_BST	2
T_REC_XST	17
T_REC_XBS	0
T_REC_TTP	18
T_REC_THO	1
T_REC_SLD	52
T_REC_BSL	3
T_REC_ALL	608
T_NUM_TAP	419
T_NUM_BRK	18
T_NUM_HLD	119
T_NUM_SLD	52
T_NUM_ALL	608
T_JUDGE_TAP	434
T_JUDGE_HLD	285
T_JUDGE_SLD	55
T_JUDGE_ALL	774
TTM_EACHPAIRS	152
TTM_SCR_TAP	209500
TTM_SCR_BRK	46800
TTM_SCR_HLD	119000
TTM_SCR_SLD	78000
TTM_SCR_ALL	453300
TTM_SCR_S	438000
TTM_SCR_SS	451500
TTM_RAT_ACV	10039

