VERSION	0.00.00	1.04.00
FES_MODE	0
BPM_DEF	190.000	190.000	190.000	190.000
MET_DEF	4	4
RESOLUTION	384
CLK_DEF	384
COMPATIBLE_CODE	MA2

BPM	0	0	190.000
MET	0	0	4	4

NMSTR	6	0	1
NMSI_	6	0	1	96	288	4
NMTAP	7	192	5
NMSTR	8	0	6
NMSI_	8	0	6	96	288	3
NMTAP	9	192	2
NMTAP	9	192	3
NMTAP	10	0	2
NMTAP	10	96	2
NMTAP	10	192	2
NMTAP	10	192	3
NMTAP	11	0	1
NMTAP	11	96	1
NMTAP	11	192	0
NMTAP	11	192	1
NMTAP	12	0	7
NMTAP	12	96	7
NMTAP	12	192	6
NMTAP	12	192	7
NMTAP	13	0	4
NMTAP	13	0	5
NMTAP	13	96	4
NMTAP	13	96	5
NMTAP	13	192	4
NMTAP	13	192	5
NMTAP	14	0	5
NMTAP	14	96	5
NMTAP	14	192	4
NMTAP	14	192	5
NMTAP	15	0	6
NMTAP	15	96	6
NMTAP	15	192	6
NMTAP	15	192	7
NMTAP	16	0	0
NMTAP	16	96	0
NMTAP	16	192	0
NMTAP	16	192	1
NMTAP	17	0	2
NMTAP	17	0	3
NMTAP	17	96	2
NMTAP	17	96	3
NMTAP	17	192	2
NMTAP	17	192	3
NMHLD	18	0	2	192
NMTAP	18	192	3
NMTAP	19	0	2
NMTAP	19	0	3
NMTAP	19	192	2
NMTAP	19	192	3
NMHLD	20	0	1	192
NMTAP	20	192	0
NMTAP	21	0	0
NMTAP	21	0	1
NMTAP	21	192	0
NMTAP	21	192	1
NMHLD	22	0	6	192
NMTAP	22	192	7
NMTAP	23	0	6
NMTAP	23	0	7
NMTAP	23	192	6
NMTAP	23	192	7
NMHLD	24	0	5	192
NMTAP	24	192	4
NMTAP	25	0	4
NMTAP	25	0	5
NMTAP	25	192	4
NMTAP	25	192	5
NMTAP	26	0	6
NMTAP	26	96	6
NMTAP	26	192	5
NMTAP	26	288	5
NMTAP	27	0	4
NMTAP	27	96	4
NMTAP	27	192	2
NMTAP	27	192	3
NMTAP	28	0	1
NMTAP	28	96	1
NMTAP	28	192	2
NMTAP	28	288	2
NMTAP	29	0	3
NMTAP	29	96	3
NMTAP	29	192	4
NMTAP	29	192	5
NMTAP	30	0	5
NMTAP	30	96	5
NMTAP	30	192	6
NMTAP	30	288	6
NMTAP	31	0	7
NMTAP	31	96	7
NMTAP	31	192	0
NMTAP	31	192	1
NMTAP	32	0	2
NMTAP	32	96	2
NMTAP	32	192	1
NMTAP	32	288	1
NMTAP	33	0	0
NMTAP	33	96	0
NMTAP	33	192	6
NMTAP	33	192	7
NMTTP	34	0	6	B	0	L1
NMTTP	34	96	5	B	0	L1
NMTTP	34	192	4	B	0	L1
NMTTP	35	0	1	B	0	L1
NMTTP	35	96	2	B	0	L1
NMTTP	35	192	3	B	0	L1
NMTTP	36	0	6	B	0	L1
NMTTP	36	96	5	B	0	L1
NMTTP	36	192	4	B	0	L1
NMTTP	36	288	3	B	0	L1
NMTTP	37	0	2	B	0	L1
NMTTP	37	96	1	B	0	L1
NMTTP	37	192	0	C	0	L1
NMTTP	38	0	0	B	0	L1
NMTTP	38	96	1	B	0	L1
NMTTP	38	192	2	B	0	L1
NMTTP	38	192	3	B	0	L1
NMTTP	39	0	7	B	0	L1
NMTTP	39	96	6	B	0	L1
NMTTP	39	192	4	B	0	L1
NMTTP	39	192	5	B	0	L1
NMTTP	40	0	2	B	0	L1
NMTTP	40	96	3	B	0	L1
NMTTP	40	192	4	B	0	L1
NMTTP	40	288	5	B	0	L1
NMTTP	41	0	0	C	0	L1
BXTAP	42	0	1
NMTAP	42	96	1
NMTAP	42	192	0
NMTAP	42	192	1
NMTAP	42	288	0
NMTAP	42	288	1
NMTAP	43	0	7
NMTAP	43	96	7
NMTAP	43	192	6
NMTAP	43	192	7
NMTAP	44	0	5
NMTAP	44	96	5
NMTAP	44	192	6
NMTAP	44	192	7
NMTAP	44	288	6
NMTAP	44	288	7
NMTAP	45	0	0
NMTAP	45	96	0
NMTAP	45	192	0
NMTAP	45	192	1
NMTAP	46	0	1
NMTAP	46	96	1
NMTAP	46	192	2
NMTAP	46	192	3
NMTAP	46	288	2
NMTAP	46	288	3
NMTAP	47	0	4
NMTAP	47	96	4
NMTAP	47	192	4
NMTAP	47	192	5
NMTAP	48	0	6
NMTAP	48	96	6
NMTAP	48	192	5
NMTAP	48	288	5
NMTAP	49	0	3
NMTAP	49	0	4
NMSTR	50	0	2
NMSUR	50	0	2	96	480	5
NMSTR	52	0	6
NMSUL	52	0	6	96	480	3
NMSTR	54	0	1
NMSXR	54	0	1	96	480	4
NMSTR	56	0	6
NMSXL	56	0	6	96	480	3
NMTAP	58	0	2
NMTAP	58	96	2
NMTAP	58	192	2
NMTAP	58	288	2
NMTAP	59	0	1
NMTAP	59	96	1
NMTAP	59	192	1
NMTAP	59	288	1
NMTAP	60	0	0
NMTAP	60	96	0
NMTAP	60	192	0
NMTAP	60	288	0
NMTAP	61	0	6
NMTAP	61	0	7
NMTAP	62	0	5
NMTAP	62	96	5
NMTAP	62	192	5
NMTAP	62	288	5
NMTAP	63	0	6
NMTAP	63	96	6
NMTAP	63	192	6
NMTAP	63	288	6
NMTAP	64	0	7
NMTAP	64	96	7
NMTAP	64	192	7
NMTAP	64	288	7
NMTAP	65	0	0
NMTAP	65	0	1
NMHLD	66	0	2	192
NMHLD	66	192	3	192
NMHLD	67	0	4	192
NMTAP	67	192	5
NMHLD	68	0	5	192
NMHLD	68	192	4	192
NMHLD	69	0	3	192
NMTAP	69	192	2
NMHLD	70	0	1	192
NMHLD	70	192	2	192
NMHLD	71	0	3	192
NMTAP	71	192	4
NMHLD	72	0	6	192
NMHLD	72	192	5	192
NMHLD	73	0	4	192
NMTAP	73	192	3
NMTAP	74	0	2
NMTAP	74	48	2
NMTAP	74	96	2
NMTAP	74	192	0
NMTAP	74	192	1
NMTAP	74	288	0
NMTAP	74	288	1
NMTAP	75	0	7
NMTAP	75	96	6
NMTAP	75	192	4
NMTAP	75	192	5
NMTAP	76	0	5
NMTAP	76	48	5
NMTAP	76	96	5
NMTAP	76	192	6
NMTAP	76	192	7
NMTAP	76	288	6
NMTAP	76	288	7
NMTAP	77	0	0
NMTAP	77	96	1
NMTAP	77	192	2
NMTAP	77	192	3
NMTAP	78	0	1
NMTAP	78	48	1
NMTAP	78	96	1
NMTAP	78	192	2
NMTAP	78	192	3
NMTAP	78	288	2
NMTAP	78	288	3
NMTAP	79	0	4
NMTAP	79	96	5
NMTAP	79	192	6
NMTAP	79	192	7
NMTAP	80	0	6
NMTAP	80	48	6
NMTAP	80	96	6
NMTAP	80	192	4
NMTAP	80	192	5
NMTAP	80	288	4
NMTAP	80	288	5
NMTAP	81	0	3
NMTAP	81	96	2
NMTAP	81	192	0
NMTAP	81	192	1
NMTAP	82	0	2
NMTAP	82	48	2
NMTAP	82	96	2
NMTAP	82	192	0
NMTAP	82	192	1
NMTAP	82	288	0
NMTAP	82	288	1
NMTAP	83	0	7
NMTAP	83	48	7
NMTAP	83	96	7
NMTAP	83	192	6
NMTAP	83	192	7
NMTAP	84	0	5
NMTAP	84	48	5
NMTAP	84	96	5
NMTAP	84	192	6
NMTAP	84	192	7
NMTAP	84	288	6
NMTAP	84	288	7
NMTAP	85	0	0
NMTAP	85	48	0
NMTAP	85	96	0
NMTAP	85	192	0
NMTAP	85	192	1
NMTAP	86	0	1
NMTAP	86	48	1
NMTAP	86	96	1
NMTAP	86	192	2
NMTAP	86	192	3
NMTAP	86	288	2
NMTAP	86	288	3
NMTAP	87	0	4
NMTAP	87	48	4
NMTAP	87	96	4
NMTAP	87	192	4
NMTAP	87	192	5
NMTAP	88	0	6
NMTAP	88	48	6
NMTAP	88	96	6
NMTAP	88	192	4
NMTAP	88	192	5
NMTAP	88	288	4
NMTAP	88	288	5
NMTAP	89	0	3
NMTAP	89	48	3
NMTAP	89	96	3
NMTAP	89	192	2
NMTAP	89	192	3
NMTAP	90	0	3
NMTAP	90	0	4
NMTAP	90	96	3
NMTAP	90	96	4
BRTAP	90	192	3
BRTAP	90	192	4
NMTAP	91	0	4
NMTAP	91	0	5
NMTAP	91	96	4
NMTAP	91	96	5
NMTAP	91	192	4
NMTAP	91	192	5
NMTAP	91	288	4
NMTAP	91	288	5
NMTAP	92	0	6
NMTAP	92	0	7
NMTAP	92	96	6
NMTAP	92	96	7
NMTAP	92	192	6
NMTAP	92	192	7
NMTAP	92	288	6
NMTAP	92	288	7
NMTAP	93	0	0
NMTAP	93	0	1
NMTAP	93	96	0
NMTAP	93	96	1
NMTAP	93	192	0
NMTAP	93	192	1
NMTAP	93	288	0
NMTAP	93	288	1
NMTAP	94	0	2
NMTAP	94	0	3
NMTAP	94	96	2
NMTAP	94	96	3
NMTAP	94	192	1
NMTAP	94	192	4
NMTAP	95	0	2
NMTAP	95	0	3
NMTAP	95	96	2
NMTAP	95	96	3
NMTAP	95	192	2
NMTAP	95	192	3
NMTAP	95	288	2
NMTAP	95	288	3
NMTAP	96	0	0
NMTAP	96	0	1
NMTAP	96	96	0
NMTAP	96	96	1
NMTAP	96	192	0
NMTAP	96	192	1
NMTAP	96	288	0
NMTAP	96	288	1
NMTAP	97	0	6
NMTAP	97	0	7
NMTAP	97	96	6
NMTAP	97	96	7
NMTAP	97	192	6
NMTAP	97	192	7
NMTAP	97	288	6
NMTAP	97	288	7
NMTAP	98	0	4
NMTAP	98	0	5
NMTAP	98	96	4
NMTAP	98	96	5
NMTAP	98	192	3
NMTAP	98	192	6
NMTAP	99	0	5
NMTAP	99	96	5
NMTAP	99	192	5
NMTAP	99	288	4
NMTAP	99	288	5
NMTAP	100	0	6
NMTAP	100	96	6
NMTAP	100	192	6
NMTAP	100	288	6
NMTAP	100	288	7
NMTAP	101	0	0
NMTAP	101	96	0
NMTAP	101	192	0
NMTAP	101	288	0
NMTAP	101	288	1
NMTAP	102	0	2
NMTAP	102	0	3
NMTAP	102	96	2
NMTAP	102	96	3
NMTAP	102	192	2
NMTAP	102	192	3
NMTAP	103	0	2
NMTAP	103	96	2
NMTAP	103	192	2
NMTAP	103	288	2
NMTAP	103	288	3
NMTAP	104	0	1
NMTAP	104	96	1
NMTAP	104	192	1
NMTAP	104	288	0
NMTAP	104	288	1
NMTAP	105	0	7
NMTAP	105	96	7
NMTAP	105	192	7
NMTAP	105	288	6
NMTAP	105	288	7
NMTAP	106	0	5
NMTAP	106	96	5
NMTAP	106	192	3
NMTAP	106	192	4
NMTAP	106	288	3
NMTAP	106	288	4
BRTAP	107	0	2
BRTAP	107	0	5

T_REC_TAP	356
T_REC_BRK	4
T_REC_XTP	0
T_REC_BXX	1
T_REC_HLD	16
T_REC_XHO	0
T_REC_BHO	0
T_REC_BXH	0
T_REC_STR	6
T_REC_BST	0
T_REC_XST	0
T_REC_XBS	0
T_REC_TTP	26
T_REC_THO	0
T_REC_SLD	6
T_REC_BSL	0
T_REC_ALL	415
T_NUM_TAP	388
T_NUM_BRK	5
T_NUM_HLD	16
T_NUM_SLD	6
T_NUM_ALL	415
T_JUDGE_TAP	393
T_JUDGE_HLD	64
T_JUDGE_SLD	6
T_JUDGE_ALL	463
TTM_EACHPAIRS	106
TTM_SCR_TAP	194000
TTM_SCR_BRK	13000
TTM_SCR_HLD	16000
TTM_SCR_SLD	9000
TTM_SCR_ALL	232000
TTM_SCR_S	224600
TTM_SCR_SS	231500
TTM_RAT_ACV	10021

