VERSION	0.00.00	1.04.00
FES_MODE	0
BPM_DEF	216.000	216.000	216.000	216.000
MET_DEF	4	4
RESOLUTION	384
CLK_DEF	384
COMPATIBLE_CODE	MA2

BPM	0	0	216.000
MET	0	0	4	4
MET	132	0	4	3
MET	141	0	4	4

BRSTR	2	0	3
NMSCL	2	0	3	96	1248	4
BRTAP	2	0	4
NMTTP	3	0	6	E	0	M1
NMTTP	4	0	0	E	0	M1
NMTTP	5	0	2	E	0	M1
NMTAP	6	0	3
NMSTR	6	0	4
BRSCR	6	0	4	96	1056	3
NMTTP	7	0	3	E	0	M1
NMTTP	8	0	0	E	0	M1
NMTTP	9	0	5	E	0	M1
NMTAP	9	192	3
NMTAP	9	192	4
BRTAP	10	0	1
BRTAP	10	0	5
NMTAP	10	96	2
NMTAP	10	128	4
NMTAP	10	160	2
NMTAP	10	192	4
NMTAP	10	288	5
NMTAP	10	320	3
NMTAP	10	352	5
NMTAP	11	0	3
NMTAP	11	96	2
NMTAP	11	128	3
NMTAP	11	160	2
NMTAP	11	192	4
NMTAP	11	224	3
NMTAP	11	256	4
NMTAP	11	288	2
BRTAP	12	0	2
BRTAP	12	0	6
NMTAP	12	96	5
NMTAP	12	128	3
NMTAP	12	160	5
NMTAP	12	192	3
NMTAP	12	288	2
NMTAP	12	320	4
NMTAP	12	352	2
NMTAP	13	0	4
NMTAP	13	96	5
NMTAP	13	128	4
NMTAP	13	160	5
NMTAP	13	192	3
NMTAP	13	224	4
NMTAP	13	256	3
NMTAP	13	288	5
BRTAP	14	0	1
BRTAP	14	0	4
NMTAP	14	96	1
NMTAP	14	128	3
NMTAP	14	160	2
NMTAP	14	192	4
NMTAP	14	288	4
NMTAP	14	320	2
NMTAP	14	352	3
NMTAP	15	0	1
NMTAP	15	96	1
NMTAP	15	128	3
NMTAP	15	160	2
NMTAP	15	192	4
NMTAP	15	224	2
NMTAP	15	256	3
NMTAP	15	288	1
BRTAP	16	0	3
BRTAP	16	0	6
NMTAP	16	96	6
NMTAP	16	128	4
NMTAP	16	160	5
NMTAP	16	192	3
NMTAP	16	288	3
NMTAP	16	320	5
NMTAP	16	352	4
NMTAP	17	0	6
NMTAP	17	96	6
NMTAP	17	128	4
NMTAP	17	160	5
NMTAP	17	192	3
NMTAP	17	224	5
NMTAP	17	256	4
NMHLD	17	288	6	96
NMTHO	18	0	0	288	C	0	M1
BXTAP	19	0	1
BXTAP	19	24	7
BXTAP	19	48	1
BXTAP	19	72	7
BXTAP	19	96	1
BXTAP	19	120	7
BXTAP	19	144	1
BXTAP	19	168	7
BXSTR	19	192	0
BRSI_	19	192	0	96	48	4
BXTAP	19	288	0
BXTAP	19	288	6
NMSTR	20	0	5
NMSI_	20	0	5	96	48	0
NMTAP	20	96	1
NMTAP	20	192	1
NMTAP	20	256	7
NMTAP	20	288	7
NMTAP	20	352	2
NMSTR	21	0	2
NMSCR	21	0	2	96	48	5
NMTAP	21	96	5
NMSTR	21	192	6
NMSCR	21	192	6	96	48	1
NMTAP	21	288	2
NMSTR	22	0	3
NMSUL	22	0	3	96	96	7
NMSTR	22	96	7
NMSUL	22	96	7	96	96	3
NMSTR	22	192	3
NMSLL	22	192	3	96	96	7
NMSTR	22	288	7
NMSCL	22	288	7	96	96	4
NMSLL	22	288	7	96	96	3
NMTAP	23	192	2
NMTAP	23	192	3
NMTAP	23	288	0
NMTAP	23	288	1
NMSTR	24	0	1
NMSI_	24	0	1	96	48	4
NMTAP	24	64	7
NMTAP	24	96	1
NMSTR	24	192	6
NMSUL	24	192	6	96	48	2
NMTAP	24	256	7
NMTAP	24	288	6
NMSTR	25	0	0
NMSI_	25	0	0	96	48	4
NMTAP	25	64	7
NMTAP	25	96	0
NMSTR	25	192	5
NMSI_	25	192	5	96	48	0
NMTAP	25	256	3
NMTAP	25	288	5
NMTAP	26	0	1
NMTAP	26	32	2
NMTAP	26	64	3
NMTAP	26	96	4
NMTAP	26	96	7
NMTAP	26	128	6
NMTAP	26	160	5
NMTAP	26	192	0
NMTAP	26	192	4
NMTAP	26	224	1
NMTAP	26	256	2
NMSTR	26	288	3
NMSLL	26	288	3	96	192	7
NMSTR	26	288	7
NMSLL	26	288	7	96	192	3
NMTAP	27	288	0
NMTAP	27	288	4
BRSTR	28	0	2
NMSV_	28	0	2	96	80	5
BRTAP	28	0	6
NMTAP	28	96	6
CNSCL	28	176	5	0	48	3
NMTAP	28	192	6
CNSUL	28	224	3	0	64	7
NMTAP	28	288	6
NMSTR	29	0	5
NMSCR	29	0	5	96	48	0
NMTAP	29	96	1
NMSTR	29	192	2
NMSCL	29	192	2	96	48	7
NMTAP	29	288	6
NMSTR	30	0	4
NMSUR	30	0	4	96	96	0
NMSTR	30	96	0
NMSUR	30	96	0	96	96	4
NMSTR	30	192	4
NMSLR	30	192	4	96	96	0
NMSTR	30	288	0
NMSCR	30	288	0	96	192	7
NMTTP	31	0	0	C	1	M1
NMTAP	31	288	0
NMTAP	31	288	7
NMHLD	32	0	1	64
NMTAP	32	64	0
NMTAP	32	96	1
NMTAP	32	128	7
NMTAP	32	160	2
NMHLD	32	192	6	64
NMTAP	32	256	7
NMTAP	32	288	6
NMTAP	32	320	0
NMTAP	32	352	5
NMHLD	33	0	1	64
NMTAP	33	64	0
NMTAP	33	96	2
NMTAP	33	128	7
NMTAP	33	160	3
NMHLD	33	192	6	64
NMTAP	33	256	7
NMTAP	33	288	5
NMTAP	33	320	0
NMTAP	33	352	4
NMSTR	34	0	1
NMSI_	34	0	1	96	48	3
NMSTR	34	0	3
NMSI_	34	0	3	96	48	7
NMSTR	34	192	4
NMSI_	34	192	4	96	48	0
NMSTR	34	192	6
NMSI_	34	192	6	96	48	4
NMSTR	35	0	1
NMSI_	35	0	1	96	48	5
NMSTR	35	0	3
NMSUR	35	0	3	96	48	7
NMSTR	35	192	4
NMSUL	35	192	4	96	48	0
NMSTR	35	192	6
NMSI_	35	192	6	96	48	2
NMTTP	36	0	0	B	0	M1
NMTTP	36	0	0	C	1	M1
NMTTP	36	0	0	E	0	M1
NMTTP	36	0	4	B	0	M1
NMTTP	36	0	4	E	0	M1
NMTAP	38	0	2
NMHLD	38	96	2	288
NMTTP	38	192	3	E	0	M1
NMTAP	39	0	4
NMHLD	39	96	4	288
NMTTP	39	192	4	E	0	M1
NMTAP	40	0	3
NMHLD	40	96	3	288
NMTTP	40	192	4	E	0	M1
NMTAP	41	0	5
NMHLD	41	96	5	288
NMTTP	41	192	5	E	0	M1
NMTAP	42	0	3
NMHLD	42	96	3	192
NMTAP	42	192	4
NMSTR	42	288	4
NMSXR	42	288	4	96	288	7
BRTAP	43	288	0
NMSTR	44	0	0
NMSI_	44	0	0	96	48	4
NMTAP	44	96	0
NMSTR	44	96	6
NMSI_	44	96	6	96	48	2
NMSTR	44	192	3
NMSI_	44	192	3	96	48	0
NMTAP	44	192	6
NMTAP	44	288	3
NMSTR	44	288	7
NMSI_	44	288	7	96	48	3
NMSTR	45	0	1
NMSI_	45	0	1	96	48	5
NMTAP	45	0	7
NMTAP	45	96	1
NMSTR	45	96	4
NMSI_	45	96	4	96	48	7
NMSTR	45	192	2
NMSI_	45	192	2	96	48	7
NMTAP	45	192	4
NMTAP	45	288	2
NMSTR	45	288	6
NMSI_	45	288	6	96	48	3
NMSTR	46	0	0
NMSI_	46	0	0	96	48	4
NMTAP	46	0	6
NMTAP	46	96	0
NMSTR	46	96	5
NMSI_	46	96	5	96	48	0
NMSTR	46	192	1
NMSI_	46	192	1	96	48	5
NMTAP	46	192	5
NMTAP	46	288	1
NMTAP	46	288	7
NMTAP	47	0	6
NMTAP	47	32	4
NMTAP	47	64	6
NMTAP	47	96	4
NMTAP	47	160	2
NMTAP	47	192	3
NMTAP	47	256	0
NMTAP	47	288	7
NMTAP	48	0	6
NMTAP	48	0	7
NMTAP	48	64	6
NMTAP	48	96	5
NMTAP	48	160	5
NMTAP	48	192	4
NMTAP	48	256	4
NMTAP	48	288	3
NMTAP	48	352	3
NMTAP	49	0	2
NMTAP	49	64	2
NMTAP	49	96	1
NMTAP	49	160	1
NMTAP	49	192	0
NMTAP	49	256	0
NMTAP	49	288	7
NMTAP	50	0	6
NMTAP	50	32	0
NMTAP	50	64	6
NMTAP	50	96	0
NMTAP	50	192	1
NMTAP	50	224	7
NMTAP	50	256	1
NMTAP	50	288	7
NMTAP	51	0	6
NMTAP	51	32	4
NMTAP	51	64	5
NMTAP	51	96	1
NMTAP	51	128	3
NMTAP	51	160	2
NMSTR	51	192	3
NMSI_	51	192	3	96	48	7
NMSTR	51	192	4
NMSI_	51	192	4	96	48	0
NMHLD	52	0	1	384
NMTAP	52	0	6
BRSTR	53	0	2
NMSI_	53	0	2	96	48	6
BRSTR	53	96	1
NMSI_	53	96	1	96	48	5
BRSTR	53	192	0
BRSF_	53	192	0	96	48	4
BRTAP	53	288	0
NMSTR	54	0	6
NMSCL	54	0	6	96	96	2
NMSTR	54	96	2
NMSV_	54	96	2	96	96	7
NMTAP	54	128	1
NMTAP	54	160	0
NMSTR	54	192	7
BRSI_	54	192	7	96	48	3
EXTAP	54	288	0
NMSTR	55	0	1
NMSCR	55	0	1	96	96	5
NMSTR	55	96	5
NMSV_	55	96	5	96	96	0
NMTAP	55	128	6
NMTAP	55	160	7
NMSTR	55	192	0
BRSI_	55	192	0	96	48	4
EXTAP	55	288	7
NMSTR	56	0	6
NMSCL	56	0	6	96	96	2
NMSTR	56	96	2
NMSV_	56	96	2	96	96	7
NMTAP	56	128	1
NMTAP	56	160	0
NMTAP	56	192	7
EXSTR	56	288	1
NMSI_	56	288	1	96	48	6
NMTAP	57	0	1
NMSTR	57	0	4
NMSI_	57	0	4	96	48	0
NMSTR	57	96	2
NMSI_	57	96	2	96	48	5
NMTAP	57	96	4
NMTAP	57	192	2
NMTAP	57	192	7
NMTAP	57	288	3
NMTAP	57	288	6
NMHLD	58	0	0	64
NMTAP	58	0	1
NMTAP	58	64	2
NMTAP	58	96	0
NMTAP	58	128	1
NMTAP	58	160	6
NMHLD	58	192	7	64
NMTAP	58	256	5
NMSTR	58	288	7
NMSI_	58	288	7	96	48	3
NMTAP	58	320	6
NMTAP	58	352	0
NMSTR	59	0	7
NMSI_	59	0	7	96	48	1
NMSI_	59	0	7	96	48	5
NMSTR	59	96	7
NMSF_	59	96	7	96	48	3
NMTAP	59	192	7
NMTAP	59	288	1
NMTAP	59	288	5
NMTAP	60	0	3
NMTAP	60	32	3
NMTAP	60	64	3
NMTAP	60	96	2
NMTAP	60	96	4
NMTAP	60	192	5
NMTAP	60	224	5
NMTAP	60	256	5
NMTAP	60	288	4
NMTAP	60	288	6
NMTAP	61	0	7
NMTAP	61	32	7
NMTAP	61	64	7
NMTAP	61	96	7
NMTAP	61	128	7
NMTAP	61	160	7
BRSTR	61	192	0
NMSI_	61	192	0	96	48	3
BRSTR	61	192	6
NMSI_	61	192	6	96	48	3
NMSTR	62	0	5
NMSCR	62	0	5	96	96	1
NMSTR	62	96	1
NMSV_	62	96	1	96	96	4
NMTAP	62	128	2
NMTAP	62	160	3
NMSTR	62	192	4
BRSI_	62	192	4	96	48	0
EXTAP	62	288	3
NMSTR	63	0	2
NMSCL	63	0	2	96	96	6
NMSTR	63	96	6
NMSV_	63	96	6	96	96	3
NMTAP	63	128	5
NMTAP	63	160	4
NMSTR	63	192	3
BRSI_	63	192	3	96	48	7
EXTAP	63	288	4
NMTAP	64	0	0
NMTAP	64	0	4
NMTAP	64	96	0
NMTAP	64	96	4
NMTAP	64	120	1
NMTAP	64	120	5
NMTAP	64	144	2
NMTAP	64	144	6
NMTAP	64	168	3
NMTAP	64	168	7
NMTAP	64	192	0
NMTAP	64	192	4
NMTAP	64	288	0
NMTAP	64	288	4
NMTAP	64	312	3
NMTAP	64	312	7
NMTAP	64	336	2
NMTAP	64	336	6
NMTAP	64	360	1
NMTAP	64	360	5
BRSTR	65	0	0
BRSXR	65	0	0	96	160	1
BRSTR	65	0	4
NMSXR	65	0	4	96	160	5
EXTAP	65	352	1
EXTAP	65	352	5
NMTAP	66	64	0
NMSTR	66	96	6
NMSI_	66	96	6	96	48	2
NMTAP	66	160	6
NMSTR	66	192	0
NMSI_	66	192	0	96	48	4
NMTAP	66	256	0
NMSTR	66	288	7
NMSI_	66	288	7	96	48	3
NMTAP	66	352	7
NMSTR	67	0	1
NMSI_	67	0	1	96	48	5
NMTAP	67	64	1
NMSTR	67	96	6
NMSI_	67	96	6	96	48	3
NMTAP	67	160	6
NMTAP	67	192	1
NMTAP	67	288	2
NMTAP	67	288	4
BRTAP	68	0	2
NMTAP	68	32	2
NMTAP	68	64	3
NMTAP	68	96	1
NMTAP	68	128	1
NMTAP	68	160	0
NMHLD	68	192	2	96
BRTAP	68	288	5
NMTAP	68	320	5
NMTAP	68	352	4
NMTAP	69	0	6
NMTAP	69	32	6
NMTAP	69	64	7
NMHLD	69	96	5	96
BRTAP	69	192	0
NMTAP	69	224	0
NMTAP	69	256	0
NMTAP	69	288	7
NMTAP	69	320	7
NMTAP	69	352	7
BRSTR	70	0	2
BRSXR	70	0	2	96	480	4
BRSTR	70	0	6
NMSXL	70	0	6	96	480	4
NMTAP	71	288	3
NMTAP	71	288	5
NMHLD	72	0	6	96
NMTAP	72	96	4
NMTAP	72	160	5
NMHLD	72	192	3	96
NMTAP	72	288	4
NMTAP	72	352	3
NMHLD	73	0	5	96
NMTAP	73	96	4
NMTAP	73	160	5
NMTAP	73	192	4
NMTAP	73	256	4
NMTAP	73	288	3
NMTAP	73	352	3
NMTAP	74	0	1
NMTAP	74	64	1
NMTAP	74	96	3
NMTAP	74	160	2
NMTAP	74	192	5
NMTAP	74	256	5
NMTAP	74	288	3
NMTAP	74	352	4
NMTAP	75	0	2
NMTAP	75	32	3
NMTAP	75	64	2
NMTAP	75	96	4
NMTAP	75	128	3
NMTAP	75	160	4
NMTAP	75	192	1
NMTAP	75	224	3
NMTAP	75	256	1
NMTAP	75	288	5
NMTAP	75	320	3
NMTAP	75	352	5
BRTAP	76	0	0
NMTTP	76	96	1	A	0	M1
NMTTP	76	128	1	B	0	M1
NMTTP	76	160	0	C	0	M1
NMTTP	76	192	5	B	0	M1
NMTTP	76	288	6	A	0	M1
NMTTP	76	320	6	B	0	M1
NMTTP	76	352	0	C	0	M1
NMTTP	77	0	2	B	0	M1
NMTAP	77	96	1
NMTAP	77	192	1
NMSTR	77	288	0
BRSCL	77	288	0	96	48	5
NMTAP	77	288	6
BRTAP	78	0	0
BRHLD	78	0	4	256
NMSTR	78	160	6
NMSI_	78	160	6	96	64	2
NMTAP	78	192	6
CNSI_	78	320	2	0	64	0
NMTAP	79	0	4
NMTAP	79	32	4
NMTAP	79	64	7
NMSTR	79	96	5
NMSI_	79	96	5	96	48	7
NMTAP	79	128	5
NMTAP	79	160	0
CNSI_	79	240	7	0	80	4
CNSI_	79	320	4	0	64	0
NMHLD	80	0	3	256
NMSTR	80	160	0
NMSI_	80	160	0	96	64	6
NMTAP	80	192	0
CNSI_	80	320	6	0	64	1
NMTAP	81	0	3
NMTAP	81	32	3
NMTAP	81	64	0
NMSTR	81	96	2
NMSI_	81	96	2	96	64	5
NMTAP	81	128	2
NMTAP	81	160	7
CNSI_	81	256	5	0	64	1
CNSI_	81	320	1	0	64	4
NMHLD	82	0	7	256
NMSTR	82	160	6
NMSI_	82	160	6	96	64	3
NMTAP	82	192	6
CNSI_	82	320	3	0	64	1
NMTAP	83	0	6
NMTAP	83	32	6
NMTAP	83	64	0
NMSTR	83	96	5
NMSI_	83	96	5	96	64	3
NMTAP	83	128	5
NMTAP	83	160	7
CNSI_	83	256	3	0	64	6
CNSI_	83	320	6	0	64	2
NMHLD	84	0	0	256
NMSTR	84	160	1
NMSI_	84	160	1	96	64	4
NMTAP	84	192	1
CNSI_	84	320	4	0	64	7
NMTAP	85	0	0
NMTAP	85	32	1
NMTAP	85	64	2
NMTAP	85	96	6
NMTAP	85	128	5
NMTAP	85	160	4
NMTAP	85	192	1
NMTAP	85	224	2
NMTAP	85	256	3
NMTAP	85	288	4
NMTAP	85	288	5
BRHLD	86	0	3	256
BRTAP	86	0	7
NMSTR	86	160	1
NMSUL	86	160	1	96	64	5
NMTAP	86	192	1
CNSCR	86	320	5	0	64	7
NMTAP	87	0	3
NMTAP	87	32	3
NMTAP	87	64	0
NMSTR	87	96	2
NMSCL	87	96	2	96	48	0
NMTAP	87	128	2
NMTAP	87	160	7
CNSI_	87	240	0	0	80	3
CNSUL	87	320	3	0	64	7
NMHLD	88	0	4	256
NMSTR	88	160	7
NMSCR	88	160	7	96	64	2
NMTAP	88	192	7
CNSUL	88	320	2	0	64	6
NMTAP	89	0	4
NMTAP	89	32	4
NMTAP	89	64	7
NMSTR	89	96	5
NMSUL	89	96	5	96	64	1
NMTAP	89	128	5
NMTAP	89	160	0
CNSI_	89	256	1	0	64	6
CNSI_	89	320	6	0	64	3
NMHLD	90	0	0	256
NMSTR	90	160	1
NMSV_	90	160	1	96	64	4
NMTAP	90	192	1
CNSCR	90	320	4	0	64	6
NMTAP	91	0	1
NMTAP	91	32	1
NMTAP	91	64	7
NMSTR	91	96	2
NMSI_	91	96	2	96	64	4
NMTAP	91	128	2
NMTAP	91	160	0
CNSI_	91	256	4	0	64	1
CNSI_	91	320	1	0	64	6
NMHLD	92	0	5	64
NMTAP	92	64	7
NMTAP	92	80	0
NMTAP	92	96	1
NMTAP	92	112	2
NMTAP	92	128	3
NMHLD	92	192	2	64
NMTAP	92	256	0
NMTAP	92	272	7
NMTAP	92	288	6
NMTAP	92	304	5
NMTAP	92	320	4
NMTAP	93	0	1
NMTAP	93	32	3
NMTAP	93	64	2
NMTAP	93	96	6
NMTAP	93	128	4
NMTAP	93	160	5
NMHLD	93	192	1	96
NMSTR	93	288	0
BRSI_	93	288	0	96	48	4
NMTAP	93	320	2
NMTAP	93	352	6
BRTAP	94	0	0
NMTTP	94	12	0	C	1	M1
NMTTP	98	0	4	B	0	M1
NMTTP	98	0	4	E	0	M1
NMTTP	98	192	6	B	0	M1
NMTTP	98	192	6	E	0	M1
NMTTP	99	0	2	B	0	M1
NMTTP	99	0	2	E	0	M1
NMTTP	99	192	0	E	0	M1
NMTTP	99	192	7	B	0	M1
NMTHO	100	0	0	384	C	0	M1
NMTAP	101	192	1
NMTAP	101	192	6
NMTAP	102	0	2
NMTTP	102	0	4	E	0	M1
NMTAP	102	96	2
NMTAP	102	192	2
NMTTP	102	192	5	E	0	M1
NMTAP	102	288	2
NMTAP	103	0	2
NMTTP	103	0	6	E	0	M1
NMTAP	103	96	2
NMTAP	103	192	2
NMTTP	103	192	7	E	0	M1
NMTAP	103	288	2
NMTTP	104	0	4	E	0	M1
NMTAP	104	0	5
NMTAP	104	96	5
NMTTP	104	192	3	E	0	M1
NMTAP	104	192	5
NMTAP	104	288	5
NMTTP	105	0	2	E	0	M1
NMTAP	105	0	5
NMTAP	105	96	5
NMTAP	105	192	1
NMTAP	105	192	5
NMTAP	105	288	2
NMTAP	105	320	4
NMTAP	105	352	0
NMHLD	106	0	6	96
NMTAP	106	96	1
NMTAP	106	128	7
NMTAP	106	160	3
NMHLD	106	192	5	96
NMTAP	106	288	2
NMTAP	106	320	6
NMTAP	106	352	4
NMTAP	107	0	0
NMTAP	107	32	2
NMTAP	107	64	4
NMTAP	107	96	0
NMTAP	107	128	6
NMTAP	107	160	3
NMTAP	107	192	7
NMTAP	107	224	1
NMTAP	107	256	3
NMTAP	107	288	7
NMTAP	107	320	5
NMTAP	107	352	1
BRHLD	108	0	7	384
NMTTP	109	0	1	E	0	M1
NMTTP	109	24	2	E	0	M1
NMTTP	109	48	3	E	0	M1
NMTTP	109	72	4	E	0	M1
NMTTP	109	96	0	E	0	M1
NMTTP	109	120	7	E	0	M1
NMTTP	109	144	6	E	0	M1
NMTTP	109	168	5	E	0	M1
NMTTP	109	192	0	D	0	M1
NMTTP	109	208	1	D	0	M1
NMTTP	109	224	2	D	0	M1
NMTTP	109	240	3	D	0	M1
NMTTP	109	256	4	D	0	M1
NMTTP	109	272	5	D	0	M1
NMTTP	109	288	6	D	0	M1
NMTTP	109	304	7	D	0	M1
NMTTP	109	320	0	D	0	M1
NMTTP	109	336	1	D	0	M1
NMTTP	109	352	2	D	0	M1
NMTTP	109	368	3	D	0	M1
NMTHO	110	0	0	480	C	1	M1
NMTTP	110	0	4	D	0	M1
EXTAP	111	96	0
NMTTP	111	192	2	B	0	M1
NMTTP	111	192	2	E	0	M1
NMTTP	111	192	3	E	1	M1
EXTAP	111	192	7
EXTAP	111	288	1
NMTTP	111	288	5	B	0	M1
NMTTP	111	288	5	E	1	M1
NMTTP	111	288	6	E	0	M1
NMSTR	112	0	0
NMSCR	112	0	0	96	48	3
NMSTR	112	0	7
NMSCL	112	0	7	96	48	4
BRTAP	112	96	0
BRTAP	112	96	7
NMSTR	112	192	2
NMSI_	112	192	2	96	48	0
NMSTR	112	288	2
NMSI_	112	288	2	96	48	4
NMSTR	112	288	6
NMSI_	112	288	6	96	48	0
NMTAP	113	0	2
NMSTR	113	0	6
NMSI_	113	0	6	96	48	4
NMSTR	113	96	0
NMSCR	113	96	0	96	48	2
NMSTR	113	96	6
NMSI_	113	96	6	96	48	2
NMSTR	113	192	0
NMSI_	113	192	0	96	48	4
NMSTR	113	192	6
NMSCL	113	192	6	96	48	4
NMTAP	113	288	0
NMTAP	113	288	6
NMHLD	114	0	3	192
NMTAP	114	96	2
NMTAP	114	112	1
NMTAP	114	128	0
NMTAP	114	144	7
NMTAP	114	160	6
NMTAP	114	176	5
NMHLD	114	192	4	192
NMTAP	114	288	5
NMTAP	114	304	6
NMTAP	114	320	7
NMTAP	114	336	0
NMTAP	114	352	1
NMTAP	114	368	2
NMSTR	115	0	3
NMSI_	115	0	3	96	48	6
NMSCR	115	0	3	96	48	6
NMSTR	115	96	3
NMSI_	115	96	3	96	48	0
NMSCL	115	96	3	96	48	0
NMSTR	115	192	3
NMSF_	115	192	3	96	48	7
NMTAP	115	288	3
NMTAP	116	0	1
NMTAP	116	32	0
NMTAP	116	64	3
NMTAP	116	96	4
NMTAP	116	128	7
NMTAP	116	160	6
NMTAP	116	192	1
NMTAP	116	224	0
NMTAP	116	256	5
NMTAP	116	288	6
NMTAP	116	320	2
NMTAP	116	352	4
BRTAP	117	0	1
BRSTR	117	0	5
NMSUL	117	0	5	96	96	0
EXTAP	117	96	1
EXTAP	117	128	2
EXTAP	117	160	3
EXTAP	117	192	4
NMSTR	117	288	3
NMSI_	117	288	3	96	48	0
NMSTR	117	288	7
NMSV_	117	288	7	96	48	4
BRTAP	118	0	3
BRTAP	118	0	7
NMSTR	118	96	5
NMSXL	118	96	5	96	192	0
NMTAP	118	192	1
NMTAP	118	256	2
NMTAP	118	320	3
NMSTR	119	0	4
NMSLL	119	0	4	96	96	0
NMSTR	119	96	0
NMSLL	119	96	0	96	96	4
NMTAP	119	192	4
NMTAP	119	288	0
NMTAP	120	0	2
NMTAP	120	0	6
NMTAP	120	96	1
NMTAP	120	128	0
NMTAP	120	160	2
BRHLD	120	192	3	32
BRHLD	120	192	7	32
BRHLD	120	256	5	32
BRHLD	120	256	6	32
BRHLD	120	320	2	32
BRHLD	120	320	3	32
BRSTR	121	0	1
NMSXR	121	0	1	96	160	6
BRSTR	121	0	5
NMSXR	121	0	5	96	160	2
NMTAP	121	352	0
NMTAP	121	352	5
NMTAP	122	64	7
NMSTR	122	96	6
NMSI_	122	96	6	96	48	2
NMTAP	122	160	6
NMSTR	122	192	5
NMSI_	122	192	5	96	48	1
NMTAP	122	256	5
NMSTR	122	288	4
NMSI_	122	288	4	96	48	0
NMTAP	122	352	4
NMSTR	123	0	3
NMSI_	123	0	3	96	48	7
NMTAP	123	64	3
NMSTR	123	96	2
NMSI_	123	96	2	96	48	6
NMTAP	123	160	2
NMTAP	123	192	1
NMTAP	123	288	0
NMTAP	123	288	5
NMTAP	124	0	1
NMTAP	124	0	4
NMTAP	124	32	2
NMTAP	124	64	3
NMTAP	124	96	1
NMTAP	124	96	4
NMTAP	124	128	2
NMTAP	124	160	3
NMTAP	124	192	1
NMTAP	124	192	4
NMTAP	124	288	3
NMTAP	124	288	6
NMTAP	124	320	5
NMTAP	124	352	4
NMTAP	125	0	3
NMTAP	125	0	6
NMTAP	125	32	5
NMTAP	125	64	4
NMTAP	125	96	3
NMTAP	125	96	6
NMTAP	125	192	1
NMTAP	125	224	7
NMTAP	125	256	2
NMTAP	125	288	6
NMTAP	125	320	3
NMTAP	125	352	5
NMTTP	126	0	1	E	0	M1
NMTTP	126	32	2	E	0	M1
NMTTP	126	64	3	E	0	M1
NMTTP	126	96	7	E	0	M1
NMTTP	126	128	6	E	0	M1
NMTTP	126	160	5	E	0	M1
NMTTP	126	192	0	C	0	M1
NMTTP	126	288	7	D	0	M1
NMTTP	126	320	6	D	0	M1
NMTTP	126	352	5	D	0	M1
NMTTP	127	0	1	D	0	M1
NMTTP	127	32	2	D	0	M1
NMTTP	127	64	3	D	0	M1
NMTTP	127	96	0	E	0	M1
NMTAP	127	192	0
NMTAP	127	224	1
NMTAP	127	256	2
NMTAP	127	288	7
NMTAP	127	320	6
NMTAP	127	352	5
NMTAP	128	0	0
NMTAP	128	0	4
NMTAP	128	32	1
NMTAP	128	64	2
NMTAP	128	96	1
NMTAP	128	96	3
NMTAP	128	128	2
NMTAP	128	160	3
NMTAP	128	192	2
NMTAP	128	192	4
NMTAP	128	288	4
NMTAP	128	288	7
NMTAP	128	320	6
NMTAP	128	352	5
NMTAP	129	0	4
NMTAP	129	0	6
NMTAP	129	32	5
NMTAP	129	64	4
NMTAP	129	96	3
NMTAP	129	96	5
NMTAP	129	192	2
NMTAP	129	192	7
NMTAP	129	224	1
NMTAP	129	256	0
NMTAP	129	288	1
NMTAP	129	288	7
NMTAP	129	320	0
NMTAP	129	352	7
NMSTR	130	0	0
NMSCL	130	0	0	96	192	3
NMHLD	130	0	6	384
BRTAP	131	0	2
BRTAP	131	24	6
BRTAP	131	48	2
BRTAP	131	72	6
BRTAP	131	96	1
BRTAP	131	120	5
BRTAP	131	144	1
BRTAP	131	168	5
BRSTR	131	192	0
BRSI_	131	192	0	96	48	4
BRTAP	131	216	4
BRTAP	131	240	0
BRTAP	131	264	4
BRTAP	131	288	0
NMHLD	132	0	6	96
NMTAP	132	96	4
NMTAP	132	128	6
NMTAP	132	160	2
NMHLD	132	192	4	96
NMHLD	132	288	1	96
NMTAP	133	0	3
NMTAP	133	32	1
NMTAP	133	64	5
NMHLD	133	96	3	96
NMHLD	133	192	6	96
NMTAP	133	288	4
NMTAP	133	320	6
NMTAP	133	352	2
NMSTR	134	0	4
NMSI_	134	0	4	96	48	0
NMSTR	134	96	1
NMSI_	134	96	1	96	48	5
NMTAP	134	96	4
NMTAP	134	192	1
NMSTR	134	192	7
NMSI_	134	192	7	96	48	3
NMTAP	134	288	2
NMTAP	134	288	7
NMHLD	135	0	1	64
NMTAP	135	64	0
NMSTR	135	96	0
NMSI_	135	96	0	96	48	4
NMTAP	135	128	1
NMTAP	135	160	7
NMTAP	135	192	0
NMHLD	135	288	6	64
NMTAP	135	352	7
NMSTR	136	0	7
NMSI_	136	0	7	96	48	3
NMTAP	136	32	6
NMTAP	136	64	0
NMTAP	136	96	7
NMHLD	136	192	1	64
NMTAP	136	256	0
NMSTR	136	288	0
NMSI_	136	288	0	96	48	4
NMTAP	136	320	1
NMTAP	136	352	7
NMTAP	137	0	0
NMTAP	137	96	7
NMTAP	137	128	4
NMTAP	137	160	4
NMTAP	137	192	0
NMTAP	137	224	2
NMTAP	137	256	2
NMTAP	137	288	7
NMTAP	137	320	5
NMTAP	137	352	5
NMTAP	138	0	6
NMTAP	138	32	0
NMTAP	138	64	0
NMTAP	138	96	3
NMTAP	138	128	7
NMTAP	138	160	7
NMTAP	138	192	4
NMTAP	138	224	1
NMTAP	138	256	1
BRHLD	138	288	3	32
NMTAP	138	320	0
NMTAP	138	336	7
NMTAP	138	352	6
BRHLD	139	0	3	32
NMTAP	139	32	0
NMTAP	139	48	1
NMTAP	139	64	2
BRHLD	139	96	3	32
NMTAP	139	128	0
NMTAP	139	144	7
NMTAP	139	160	6
BRHLD	139	192	4	32
NMTAP	139	224	0
NMTAP	139	240	1
NMTAP	139	256	2
BRHLD	139	288	7	32
NMTAP	139	320	6
NMTAP	139	336	5
NMTAP	139	352	4
BRHLD	140	0	7	32
NMTAP	140	32	2
NMTAP	140	48	3
NMTAP	140	64	4
NMHLD	140	80	5	256
NMSTR	140	336	1
BRSSR	140	336	1	96	1392	5
NMTAP	140	348	0
NMTAP	140	348	4
NMTAP	140	360	3
NMTAP	140	360	7
NMTAP	140	372	2
NMSTR	140	372	6
NMSSL	140	372	6	96	1356	2
BRTAP	141	0	1
BRTAP	141	0	5
NMTTP	144	336	0	B	0	M1
NMTTP	144	336	0	E	0	M1
NMTHO	144	336	0	24	C	0	M1
NMTTP	144	336	3	B	0	M1
NMTTP	144	336	4	B	0	M1
NMTTP	144	336	4	E	0	M1
NMTTP	144	336	7	B	0	M1

T_REC_TAP	577
T_REC_BRK	38
T_REC_XTP	13
T_REC_BXX	10
T_REC_HLD	40
T_REC_XHO	0
T_REC_BHO	15
T_REC_BXH	0
T_REC_STR	113
T_REC_BST	15
T_REC_XST	1
T_REC_XBS	1
T_REC_TTP	87
T_REC_THO	4
T_REC_SLD	121
T_REC_BSL	13
T_REC_ALL	1048
T_NUM_TAP	791
T_NUM_BRK	92
T_NUM_HLD	44
T_NUM_SLD	121
T_NUM_ALL	1048
T_JUDGE_TAP	855
T_JUDGE_HLD	195
T_JUDGE_SLD	134
T_JUDGE_ALL	1184
TTM_EACHPAIRS	103
TTM_SCR_TAP	395500
TTM_SCR_BRK	239200
TTM_SCR_HLD	44000
TTM_SCR_SLD	181500
TTM_SCR_ALL	860200
TTM_SCR_S	825500
TTM_SCR_SS	851000
TTM_RAT_ACV	10108

