VERSION	0.00.00	1.04.00
FES_MODE	0
BPM_DEF	216.000	216.000	216.000	216.000
MET_DEF	4	4
RESOLUTION	384
CLK_DEF	384
COMPATIBLE_CODE	MA2

BPM	0	0	216.000
MET	0	0	4	4
MET	132	0	4	3
MET	141	0	4	4

NMTAP	2	0	2
NMHLD	2	96	2	672
NMTTP	3	0	3	E	0	M1
NMTTP	3	192	4	E	0	M1
NMTAP	4	0	5
NMHLD	4	96	5	672
NMTTP	5	0	5	E	0	M1
NMTTP	5	192	4	E	0	M1
NMTAP	6	0	1
NMHLD	6	96	1	672
NMTTP	7	0	2	E	0	M1
NMTTP	7	192	3	B	0	M1
NMTAP	8	0	6
NMHLD	8	96	6	480
NMTTP	9	0	5	B	0	M1
NMTTP	9	192	4	E	0	M1
NMTAP	10	0	2
NMHLD	10	96	1	96
NMHLD	10	96	3	96
NMHLD	10	288	1	96
NMHLD	10	288	3	96
NMTAP	11	96	0
NMTAP	11	192	1
NMTAP	11	192	3
NMTAP	11	288	2
NMTAP	12	0	5
NMHLD	12	96	4	96
NMHLD	12	96	6	96
NMHLD	12	288	4	96
NMHLD	12	288	6	96
NMTAP	13	96	7
NMTAP	13	192	4
NMTAP	13	192	6
NMTAP	13	288	5
NMHLD	14	0	2	96
NMHLD	14	96	3	96
NMHLD	14	192	4	96
NMTAP	14	288	5
NMHLD	15	0	6	96
NMHLD	15	96	5	96
NMHLD	15	192	4	96
NMTAP	15	288	3
NMTAP	16	0	2
NMTAP	16	0	3
NMTAP	16	96	2
NMTAP	16	96	3
NMTAP	16	192	3
NMTAP	16	192	4
NMTAP	16	288	3
NMTAP	16	288	4
NMHLD	17	0	4	96
NMHLD	17	0	5	96
NMHLD	17	192	2	96
NMHLD	17	192	3	96
EXTAP	18	0	3
EXTAP	18	0	4
BRHLD	19	0	0	192
BRHLD	19	0	7	192
NMTAP	20	0	1
NMTAP	20	64	1
NMTAP	20	96	0
NMTAP	20	192	2
NMTAP	20	192	7
NMTAP	20	288	2
NMTAP	20	288	7
NMTAP	21	0	6
NMTAP	21	64	6
NMTAP	21	96	7
NMTAP	21	192	0
NMTAP	21	192	5
NMTAP	21	288	0
NMTAP	21	288	5
NMHLD	22	0	1	96
NMHLD	22	96	3	96
NMHLD	22	192	4	96
NMHLD	22	288	6	96
NMHLD	23	0	4	96
NMTAP	23	96	3
BXTAP	23	192	2
BXTAP	23	192	5
NMTAP	24	0	0
NMTAP	24	0	1
NMTAP	24	96	2
NMTAP	24	96	3
NMTAP	24	192	4
NMTAP	24	192	5
NMTAP	24	288	6
NMTAP	24	288	7
NMTAP	25	0	6
NMTAP	25	0	7
NMTAP	25	96	4
NMTAP	25	96	5
NMTAP	25	192	2
NMTAP	25	192	3
NMTAP	25	288	0
NMTAP	25	288	1
NMTAP	26	0	2
NMTAP	26	0	7
NMTAP	26	96	2
NMTAP	26	96	7
NMTAP	26	192	0
NMTAP	26	192	5
NMTAP	26	288	0
NMTAP	26	288	5
NMTHO	27	0	0	192	C	0	M1
NMTAP	28	0	6
NMTAP	28	64	6
NMTAP	28	96	7
NMTAP	28	192	0
NMTAP	28	192	5
NMTAP	28	288	2
NMTAP	28	288	3
NMTAP	29	0	1
NMTAP	29	64	1
NMTAP	29	96	0
NMTAP	29	192	2
NMTAP	29	192	7
NMTAP	29	288	4
NMTAP	29	288	5
NMTAP	30	0	4
NMHLD	30	0	6	96
NMTAP	30	96	7
NMHLD	30	192	1	96
NMTAP	30	192	3
NMTAP	30	288	0
NMSTR	31	0	2
NMSV_	31	0	2	96	96	7
NMTAP	31	0	7
NMTAP	32	0	6
NMTAP	32	64	6
NMTAP	32	96	7
NMTAP	32	192	5
NMTAP	32	256	5
NMTAP	32	288	4
NMTAP	33	0	2
NMTAP	33	64	2
NMTAP	33	96	3
NMTAP	33	192	1
NMTAP	33	256	1
NMTAP	33	288	0
NMTAP	34	0	2
NMSTR	34	0	7
NMSI_	34	0	7	96	96	3
NMSTR	34	192	0
NMSI_	34	192	0	96	96	4
NMSTR	35	0	6
NMSI_	35	0	6	96	96	2
NMTAP	35	192	0
NMTTP	36	0	0	C	1	M1
NMTTP	36	0	1	B	0	M1
NMTTP	36	0	2	B	0	M1
NMTTP	36	0	5	B	0	M1
NMTTP	36	0	6	B	0	M1
NMTTP	38	0	5	E	0	M1
NMTTP	38	192	6	E	0	M1
NMTTP	39	0	7	E	0	M1
NMTTP	39	192	0	E	0	M1
NMTTP	40	0	1	E	0	M1
NMTTP	40	192	2	E	0	M1
NMTTP	41	0	3	E	0	M1
NMTTP	41	192	4	E	0	M1
NMTTP	42	0	0	C	0	M1
NMTTP	42	192	0	E	0	M1
NMHLD	43	0	3	192
NMHLD	43	0	4	192
NMTAP	44	0	2
NMSTR	44	96	1
NMSI_	44	96	1	96	96	4
NMTAP	44	256	5
NMTAP	44	288	5
NMTAP	45	0	6
NMSTR	45	96	7
NMSI_	45	96	7	96	96	3
NMTAP	45	256	2
NMTAP	45	288	2
NMTAP	46	0	1
NMSTR	46	96	0
NMSI_	46	96	0	96	96	4
NMTAP	46	256	5
NMTAP	46	288	5
NMTAP	47	0	6
NMSTR	47	96	6
NMSI_	47	96	6	96	96	3
NMTAP	47	256	2
NMTAP	47	288	2
NMTAP	48	0	1
NMTAP	48	96	1
NMTAP	48	96	3
NMTAP	48	192	2
NMTAP	48	192	4
NMTAP	48	288	2
NMTAP	48	288	4
NMTAP	49	0	3
NMTAP	49	0	5
NMTAP	49	96	3
NMTAP	49	96	5
NMTAP	49	192	4
NMTAP	49	192	6
NMTAP	49	288	4
NMTAP	49	288	6
NMHLD	50	0	5	96
NMTAP	50	96	4
NMHLD	50	192	2	96
NMTAP	50	288	3
NMSTR	51	0	3
NMSCL	51	0	3	96	96	0
NMSTR	51	0	4
NMSCR	51	0	4	96	96	7
NMTHO	52	0	0	192	C	0	M1
EXTAP	53	0	0
EXTAP	53	0	7
EXTAP	53	96	0
EXTAP	53	96	7
EXTAP	53	192	0
EXTAP	53	192	7
NMHLD	54	0	2	96
NMTAP	54	96	3
NMTAP	54	160	3
NMTAP	54	192	1
NMTAP	54	288	6
NMTAP	54	288	7
NMHLD	55	0	5	96
NMTAP	55	96	4
NMTAP	55	160	4
NMTAP	55	192	6
NMTAP	55	288	0
NMTAP	55	288	1
NMHLD	56	0	2	96
NMTAP	56	96	3
NMTAP	56	160	3
NMTAP	56	192	1
NMTAP	56	288	6
NMTAP	56	288	7
NMTAP	57	0	0
NMTAP	57	0	5
NMTAP	57	96	0
NMTAP	57	96	5
NMTAP	57	192	2
NMTAP	57	192	7
NMTAP	57	288	2
NMTAP	57	288	7
NMHLD	58	0	2	96
NMHLD	58	96	0	96
NMHLD	58	192	7	96
NMTAP	58	288	5
NMTAP	59	0	6
NMTAP	59	0	7
NMTAP	59	96	3
NMTAP	59	96	4
NMTAP	59	192	0
NMTAP	59	192	1
NMTAP	59	288	3
NMTAP	59	288	4
NMTAP	60	0	5
NMTAP	60	32	4
NMTAP	60	64	5
NMTAP	60	96	4
NMTAP	60	192	2
NMTAP	60	224	3
NMTAP	60	256	2
NMTAP	60	288	3
NMTAP	61	0	7
NMTAP	61	32	0
NMTAP	61	64	7
NMTAP	61	96	0
BRTAP	61	192	1
BRTAP	61	192	6
NMHLD	62	0	1	96
NMTAP	62	96	3
NMTAP	62	160	3
NMTAP	62	192	2
NMTAP	62	288	0
NMTAP	62	288	6
NMHLD	63	0	6	96
NMTAP	63	96	4
NMTAP	63	160	4
NMTAP	63	192	5
NMTAP	63	288	1
NMTAP	63	288	7
EXSTR	64	0	0
NMSI_	64	0	0	96	48	4
EXSTR	64	0	1
NMSI_	64	0	1	96	48	4
EXSTR	64	192	6
NMSI_	64	192	6	96	48	3
EXSTR	64	192	7
NMSI_	64	192	7	96	48	3
EXSTR	65	0	0
NMSCL	65	0	0	96	96	5
NMSCR	65	0	0	96	96	3
EXHLD	65	352	4	128
EXHLD	65	352	5	128
NMTAP	66	192	1
NMTAP	66	256	1
NMTAP	66	288	3
NMTAP	67	0	4
NMTAP	67	0	6
NMTAP	67	96	0
NMTAP	67	96	7
NMTAP	67	192	1
NMTAP	67	192	3
NMTAP	67	288	3
NMTAP	67	288	4
NMTAP	68	0	5
NMTAP	68	32	4
NMTAP	68	64	5
NMTAP	68	96	4
NMTAP	68	128	5
NMTAP	68	160	4
NMTAP	68	192	5
NMTAP	68	288	2
NMTAP	68	320	3
NMTAP	68	352	2
NMTAP	69	0	3
NMTAP	69	32	2
NMTAP	69	64	3
NMTAP	69	96	2
NMTAP	69	192	0
NMTAP	69	224	7
NMTAP	69	256	0
NMTAP	69	288	7
BRSTR	70	0	1
NMSXR	70	0	1	96	672	4
BRSTR	70	0	6
NMSXL	70	0	6	96	672	3
NMTAP	73	0	3
NMTAP	73	0	5
NMTAP	73	192	2
NMTAP	73	192	4
NMTAP	74	0	1
NMTAP	74	0	3
NMTAP	74	96	2
NMTAP	74	160	2
NMTAP	74	192	3
NMTAP	74	288	5
NMTAP	74	352	5
NMTAP	75	0	4
NMTAP	75	96	1
NMTAP	75	160	1
NMTAP	75	192	3
NMTAP	75	288	6
NMTAP	75	352	6
NMTAP	76	0	4
NMTAP	76	192	3
NMTAP	76	192	5
NMTHO	77	0	0	192	C	0	M1
NMHLD	78	0	0	96
NMHLD	78	0	7	96
BXSTR	78	192	1
BRSI_	78	192	1	96	96	5
BXTAP	78	192	6
CNSLL	79	0	5	0	192	7
NMHLD	80	0	6	96
NMHLD	80	0	7	96
BXTAP	80	192	0
BXSTR	80	192	5
BRSLL	80	192	5	96	192	6
CNSI_	81	96	6	0	96	2
NMHLD	82	0	0	96
NMHLD	82	0	1	96
BXTAP	82	192	2
BXSTR	82	192	7
BRSI_	82	192	7	96	96	2
CNSI_	83	0	2	0	96	6
CNSI_	83	96	6	0	96	4
NMHLD	84	0	1	96
NMTAP	84	96	3
NMHLD	84	192	6	96
NMTAP	84	288	4
NMHLD	85	0	1	96
NMTAP	85	96	0
NMTAP	85	192	2
NMTAP	85	192	7
NMTAP	85	288	2
NMTAP	85	288	7
NMHLD	86	0	4	96
NMHLD	86	0	5	96
BRSTR	86	192	3
BRSLL	86	192	3	96	192	5
BRTAP	86	192	6
CNSI_	87	96	5	0	96	7
NMHLD	88	0	0	96
NMHLD	88	0	1	96
BRTAP	88	192	2
BRSTR	88	192	6
BRSI_	88	192	6	96	96	2
CNSLL	89	0	2	0	192	4
NMHLD	90	0	3	96
NMHLD	90	0	5	96
BRSTR	90	192	2
BRSI_	90	192	2	96	96	5
BRTAP	90	192	6
CNSI_	91	0	5	0	96	0
CNSI_	91	96	0	0	96	3
NMHLD	92	0	0	96
NMHLD	92	0	1	96
NMHLD	92	192	6	96
NMHLD	92	192	7	96
NMTAP	93	0	0
NMTAP	93	0	7
NMTAP	93	96	0
NMTAP	93	96	7
EXTAP	93	192	1
EXTAP	93	192	6
NMTTP	94	0	0	C	1	M1
NMTTP	94	0	1	B	0	M1
NMTTP	94	0	2	B	0	M1
NMTTP	94	0	5	B	0	M1
NMTTP	94	0	6	B	0	M1
NMTAP	96	0	1
NMHLD	96	96	1	480
NMTTP	97	0	4	E	0	M1
NMTAP	97	192	3
NMTAP	98	0	6
NMHLD	98	96	6	480
NMTTP	99	0	4	E	0	M1
NMTAP	99	192	4
NMTAP	100	0	2
NMHLD	100	96	2	480
NMTTP	101	0	0	C	0	M1
NMTTP	101	192	0	E	0	M1
NMHLD	102	0	1	384
NMTAP	102	192	3
NMHLD	103	0	3	384
NMTAP	103	192	4
NMHLD	104	0	4	384
NMTAP	104	192	6
NMHLD	105	0	6	192
NMTAP	105	192	0
NMTAP	106	0	6
NMTAP	106	0	7
NMTAP	106	96	6
NMTAP	106	96	7
NMTAP	106	192	4
NMTAP	106	192	5
NMTAP	106	288	4
NMTAP	106	288	5
NMTAP	107	0	2
NMTAP	107	0	3
NMTAP	107	96	2
NMTAP	107	96	3
NMTAP	107	192	0
NMTAP	107	192	1
NMTAP	107	288	0
NMTAP	107	288	1
NMTAP	108	0	0
NMTAP	108	96	1
NMTAP	108	192	2
NMTAP	108	288	3
NMSTR	109	0	4
NMSF_	109	0	4	96	96	0
NMSTR	110	0	0
NMSSL	110	0	0	96	288	4
BXTAP	111	96	4
BXTAP	111	96	6
BRTAP	111	192	0
BRTAP	111	192	7
BRTAP	111	288	1
BRTAP	111	288	3
EXSTR	112	0	2
NMSI_	112	0	2	96	48	7
EXSTR	112	0	3
NMSI_	112	0	3	96	48	7
EXSTR	112	192	4
NMSI_	112	192	4	96	48	0
EXSTR	112	192	5
NMSI_	112	192	5	96	48	0
NMTAP	113	0	1
NMTAP	113	96	2
NMTAP	113	96	3
NMTAP	113	192	0
NMTAP	113	192	1
NMTAP	113	288	6
NMTAP	113	288	7
NMTAP	114	0	4
NMTAP	114	0	5
NMTAP	114	96	2
NMTAP	114	128	3
NMTAP	114	160	2
NMTAP	114	192	3
NMTAP	114	288	1
NMTAP	114	288	4
NMTAP	115	0	2
NMTAP	115	0	3
NMTAP	115	96	0
NMTAP	115	96	6
NMTAP	115	192	4
NMTAP	115	192	5
NMTAP	115	288	1
NMTAP	115	288	7
NMHLD	116	0	6	64
NMHLD	116	64	4	64
NMHLD	116	128	5	64
NMHLD	116	192	2	64
NMHLD	116	256	3	64
NMHLD	116	320	1	64
NMSTR	117	0	7
NMSCL	117	0	7	96	192	0
BXHLD	118	0	6	96
BXHLD	118	0	7	96
NMTAP	118	192	0
NMTAP	118	192	5
NMTAP	118	256	1
NMTAP	118	256	4
NMTAP	118	320	2
NMTAP	118	320	3
NMTAP	119	0	2
NMTAP	119	0	3
NMTAP	119	96	0
NMTAP	119	96	1
NMTAP	119	192	6
NMTAP	119	192	7
NMTAP	119	288	0
NMTAP	119	288	5
NMHLD	120	0	2	96
NMHLD	120	0	4	96
NMTAP	120	192	1
NMTAP	120	192	5
NMTAP	120	256	1
NMTAP	120	256	5
NMTAP	120	320	0
NMTAP	120	320	4
NMSTR	121	0	3
NMSLR	121	0	3	96	128	0
NMSTR	121	0	7
NMSLR	121	0	7	96	128	4
NMHLD	122	0	2	64
NMTAP	122	64	3
NMTAP	122	96	1
NMHLD	122	192	5	64
NMTAP	122	256	4
NMTAP	122	288	6
NMTAP	123	0	0
NMTAP	123	0	1
NMTAP	123	96	4
NMTAP	123	96	5
NMTAP	123	192	6
NMTAP	123	192	7
NMTAP	123	288	2
NMTAP	123	288	3
NMTAP	124	0	1
NMTAP	124	32	0
NMTAP	124	64	1
NMTAP	124	96	0
NMTAP	124	128	1
NMTAP	124	160	0
NMTAP	124	192	1
NMTAP	124	288	6
NMTAP	124	320	7
NMTAP	124	352	6
NMTAP	125	0	7
NMTAP	125	32	6
NMTAP	125	64	7
NMTAP	125	96	6
NMTAP	125	192	0
NMTAP	125	224	7
NMTAP	125	256	0
NMTAP	125	288	7
NMTAP	125	320	0
NMTAP	125	352	7
NMSTR	126	0	0
NMSUR	126	0	0	96	96	5
NMTAP	126	192	6
NMSTR	126	288	7
NMSUL	126	288	7	96	96	2
NMTAP	127	96	1
NMTAP	127	192	1
NMTAP	127	288	2
NMTAP	127	288	3
NMTAP	128	0	1
NMTAP	128	32	0
NMTAP	128	64	1
NMTAP	128	96	0
NMTAP	128	128	1
NMTAP	128	160	0
NMTAP	128	192	1
NMTAP	128	288	6
NMTAP	128	320	7
NMTAP	128	352	6
NMTAP	129	0	7
NMTAP	129	32	6
NMTAP	129	64	7
NMTAP	129	96	6
NMTAP	129	192	2
NMTAP	129	224	4
NMTAP	129	256	2
NMTAP	129	288	4
BRSTR	130	0	1
NMSXL	130	0	1	96	192	0
BRSTR	130	0	5
NMSXL	130	0	5	96	192	4
NMHLD	131	0	3	96
NMHLD	131	0	7	96
BRTAP	131	192	1
BRTAP	131	192	5
NMTAP	132	0	2
NMTAP	132	0	3
NMTAP	132	96	1
NMTAP	132	160	1
NMTAP	132	192	0
NMTAP	132	288	0
NMTAP	132	288	7
NMTAP	133	0	6
NMTAP	133	64	6
NMTAP	133	96	7
NMTAP	133	192	6
NMTAP	133	192	7
NMTAP	133	288	5
NMTAP	133	352	5
NMTAP	134	0	4
NMTAP	134	96	3
NMTAP	134	96	6
NMTAP	134	192	1
NMTAP	134	192	4
NMTAP	134	288	0
NMTAP	134	288	7
NMTAP	135	0	0
NMTAP	135	0	1
NMTAP	135	96	2
NMTAP	135	128	3
NMTAP	135	160	2
NMTAP	135	192	3
NMTAP	135	288	4
NMTAP	135	288	5
NMTAP	136	0	6
NMTAP	136	32	7
NMTAP	136	64	6
NMTAP	136	96	7
NMSTR	136	192	1
NMSI_	136	192	1	96	48	4
NMSTR	136	288	7
NMSI_	136	288	7	96	48	3
NMTAP	137	0	0
NMSTR	137	96	6
NMSI_	137	96	6	96	48	3
NMSTR	137	192	0
NMSI_	137	192	0	96	48	4
NMTAP	137	288	7
NMSTR	138	0	1
NMSI_	138	0	1	96	48	4
NMSTR	138	96	5
NMSI_	138	96	5	96	48	0
NMSTR	138	192	2
NMSI_	138	192	2	96	48	7
NMSTR	138	288	6
NMSI_	138	288	6	96	48	3
NMSTR	139	0	1
NMSI_	139	0	1	96	48	5
NMSTR	139	96	4
NMSI_	139	96	4	96	48	0
NMSTR	139	192	2
NMSI_	139	192	2	96	48	6
NMSTR	139	288	5
NMSI_	139	288	5	96	48	0
NMHLD	140	0	1	1920
BXSTR	141	0	7
BRSI_	141	0	7	96	96	1
CNSI_	141	192	1	0	192	6
CNSI_	142	0	6	0	192	2
CNSI_	142	192	2	0	288	5
CNSI_	143	96	5	0	672	3

T_REC_TAP	401
T_REC_BRK	11
T_REC_XTP	10
T_REC_BXX	7
T_REC_HLD	80
T_REC_XHO	2
T_REC_BHO	2
T_REC_BXH	2
T_REC_STR	29
T_REC_BST	7
T_REC_XST	9
T_REC_XBS	4
T_REC_TTP	32
T_REC_THO	3
T_REC_SLD	43
T_REC_BSL	7
T_REC_ALL	649
T_NUM_TAP	481
T_NUM_BRK	40
T_NUM_HLD	85
T_NUM_SLD	43
T_NUM_ALL	649
T_JUDGE_TAP	510
T_JUDGE_HLD	320
T_JUDGE_SLD	50
T_JUDGE_ALL	880
TTM_EACHPAIRS	147
TTM_SCR_TAP	240500
TTM_SCR_BRK	104000
TTM_SCR_HLD	85000
TTM_SCR_SLD	64500
TTM_SCR_ALL	494000
TTM_SCR_S	475300
TTM_SCR_SS	490000
TTM_RAT_ACV	10081

