VERSION	0.00.00	1.04.00
FES_MODE	0
BPM_DEF	216.000	216.000	216.000	216.000
MET_DEF	4	4
RESOLUTION	384
CLK_DEF	384
COMPATIBLE_CODE	MA2

BPM	0	0	216.000
MET	0	0	4	4
MET	132	0	4	3
MET	141	0	4	4

NMHLD	2	0	2	384
NMHLD	3	0	3	384
NMHLD	4	0	4	384
NMTAP	5	0	5
NMHLD	6	0	5	384
NMHLD	7	0	4	384
NMHLD	8	0	3	384
NMTAP	9	0	2
NMTAP	10	0	2
NMTAP	10	96	2
NMTAP	10	192	2
NMTAP	10	192	3
NMTAP	11	0	1
NMTAP	11	96	1
NMTAP	11	192	0
NMTAP	11	192	1
NMTAP	12	0	7
NMTAP	12	96	7
NMTAP	12	192	6
NMTAP	12	192	7
NMTAP	13	0	4
NMTAP	13	0	5
NMTAP	13	96	4
NMTAP	13	96	5
NMTAP	13	192	4
NMTAP	13	192	5
NMTAP	14	0	5
NMTAP	14	96	5
NMTAP	14	192	4
NMTAP	14	192	5
NMTAP	15	0	6
NMTAP	15	96	6
NMTAP	15	192	6
NMTAP	15	192	7
NMTAP	16	0	0
NMTAP	16	96	0
NMTAP	16	192	0
NMTAP	16	192	1
NMTAP	17	0	2
NMTAP	17	0	3
NMTAP	17	96	2
NMTAP	17	96	3
NMTAP	17	192	2
NMTAP	17	192	3
EXTAP	18	0	3
EXTAP	18	0	4
BXTAP	19	0	2
BXTAP	19	0	5
NMTAP	20	0	5
NMTAP	20	96	5
NMTAP	20	192	5
NMTAP	20	288	5
NMTAP	21	0	6
NMTAP	21	96	6
NMTAP	21	192	6
NMTAP	21	288	6
NMTAP	22	0	7
NMTAP	22	96	7
NMTAP	22	192	7
NMTAP	22	288	7
NMTAP	23	0	0
NMTAP	23	0	1
NMTAP	24	0	2
NMTAP	24	96	2
NMTAP	24	192	2
NMTAP	24	288	2
NMTAP	25	0	1
NMTAP	25	96	1
NMTAP	25	192	1
NMTAP	25	288	1
NMTAP	26	0	0
NMTAP	26	96	0
NMTAP	26	192	0
NMTAP	26	288	0
NMTAP	27	0	6
NMTAP	27	0	7
NMTAP	28	0	6
NMTAP	28	96	6
NMTAP	28	192	6
NMTAP	28	288	6
NMTAP	28	288	7
NMTAP	29	0	5
NMTAP	29	96	5
NMTAP	29	192	5
NMTAP	29	288	4
NMTAP	29	288	5
NMTAP	30	0	3
NMTAP	30	96	3
NMTAP	30	192	3
NMTAP	30	288	2
NMTAP	30	288	3
NMTAP	31	0	1
NMTAP	31	96	1
NMTAP	31	192	0
NMTAP	31	192	1
NMTAP	32	0	1
NMTAP	32	96	1
NMTAP	32	192	1
NMTAP	32	288	0
NMTAP	32	288	1
NMTAP	33	0	2
NMTAP	33	96	2
NMTAP	33	192	2
NMTAP	33	288	2
NMTAP	33	288	3
NMTAP	34	0	4
NMTAP	34	96	4
NMTAP	34	192	4
NMTAP	34	288	4
NMTAP	34	288	5
NMTAP	35	0	6
NMTAP	35	96	6
NMTAP	35	192	6
NMTAP	35	192	7
NMSTR	36	0	6
NMSI_	36	0	6	96	288	3
NMTAP	37	192	2
NMSTR	38	0	1
NMSI_	38	0	1	96	288	4
NMTAP	39	192	5
NMSTR	40	0	5
NMSI_	40	0	5	96	288	0
NMTAP	41	192	1
NMSTR	42	0	1
NMSI_	42	0	1	96	288	5
NMTAP	43	192	6
NMTAP	44	0	7
NMTAP	44	96	7
NMTAP	44	192	6
NMTAP	45	0	5
NMTAP	45	96	5
NMTAP	45	192	4
NMTAP	46	0	3
NMTAP	46	96	3
NMTAP	46	192	2
NMTAP	47	0	1
NMTAP	47	96	1
NMTAP	47	192	0
NMTAP	47	192	1
NMTAP	48	0	1
NMTAP	48	96	1
NMTAP	48	192	0
NMTAP	48	192	1
NMTAP	49	0	2
NMTAP	49	96	2
NMTAP	49	192	2
NMTAP	49	192	3
NMTAP	50	0	4
NMTAP	50	96	4
NMTAP	50	192	4
NMTAP	50	192	5
NMTAP	51	0	6
NMTAP	51	0	7
NMTAP	51	96	6
NMTAP	51	96	7
NMTAP	51	192	6
NMTAP	51	192	7
NMHLD	52	0	0	192
NMHLD	52	0	7	192
NMTAP	53	0	0
NMTAP	53	0	7
NMTAP	53	96	0
NMTAP	53	96	7
NMTAP	53	192	0
NMTAP	53	192	7
BRTAP	54	0	6
NMTAP	54	96	6
NMTAP	54	192	6
NMTAP	54	192	7
NMTAP	54	288	6
NMTAP	54	288	7
NMTAP	55	0	5
NMTAP	55	96	5
NMTAP	55	192	4
NMTAP	55	192	5
NMTAP	55	288	4
NMTAP	55	288	5
NMTAP	56	0	2
NMTAP	56	96	2
NMTAP	56	192	2
NMTAP	56	192	3
NMTAP	56	288	2
NMTAP	56	288	3
NMTAP	57	0	0
NMTAP	57	0	1
NMTAP	57	96	0
NMTAP	57	96	1
NMTAP	57	192	0
NMTAP	57	192	1
BRTAP	58	0	1
NMTAP	58	96	1
NMTAP	58	192	0
NMTAP	58	192	1
NMTAP	58	288	0
NMTAP	58	288	1
NMTAP	59	0	2
NMTAP	59	96	2
NMTAP	59	192	2
NMTAP	59	192	3
NMTAP	59	288	2
NMTAP	59	288	3
NMTAP	60	0	5
NMTAP	60	96	5
NMTAP	60	192	4
NMTAP	60	192	5
NMTAP	60	288	4
NMTAP	60	288	5
NMTAP	61	0	6
NMTAP	61	0	7
NMTAP	61	96	6
NMTAP	61	96	7
NMTAP	61	192	6
NMTAP	61	192	7
NMTAP	62	0	5
NMTAP	62	96	5
NMTAP	62	192	6
NMTAP	62	192	7
NMTAP	62	288	6
NMTAP	62	288	7
NMTAP	63	0	0
NMTAP	63	96	0
NMTAP	63	192	0
NMTAP	63	192	1
NMTAP	63	288	0
NMTAP	63	288	1
NMTAP	64	0	2
NMTAP	64	96	2
NMTAP	64	192	0
NMTAP	64	192	1
NMTAP	64	288	0
NMTAP	64	288	1
NMTAP	65	0	7
NMTAP	65	96	7
NMTAP	65	192	6
NMTAP	65	192	7
NMTAP	66	0	6
NMTAP	66	96	6
NMTAP	66	192	4
NMTAP	66	192	5
NMTAP	66	288	4
NMTAP	66	288	5
NMTAP	67	0	3
NMTAP	67	96	3
NMTAP	67	192	2
NMTAP	67	192	3
NMTAP	67	288	2
NMTAP	67	288	3
NMTAP	68	0	1
NMTAP	68	96	1
NMTAP	68	192	2
NMTAP	68	192	3
NMTAP	68	288	2
NMTAP	68	288	3
NMTAP	69	0	4
NMTAP	69	96	4
NMTAP	69	192	4
NMTAP	69	192	5
NMSTR	70	0	3
NMSI_	70	0	3	96	480	0
NMSTR	70	0	4
NMSI_	70	0	4	96	480	7
NMHLD	72	0	1	192
NMTAP	72	192	0
NMHLD	73	0	6	192
NMTAP	73	192	7
NMTAP	74	0	5
NMTAP	74	96	5
NMTAP	74	192	4
NMTAP	74	192	5
NMTAP	75	0	2
NMTAP	75	96	2
NMTAP	75	192	2
NMTAP	75	192	3
NMHLD	76	0	3	384
NMHLD	76	0	4	384
NMHLD	78	0	2	192
NMTAP	78	192	3
NMTAP	79	0	2
NMTAP	79	96	2
NMTAP	79	192	2
NMTAP	79	192	3
NMHLD	80	0	1	192
NMTAP	80	192	0
NMTAP	81	0	1
NMTAP	81	96	1
NMTAP	81	192	0
NMTAP	81	192	1
NMHLD	82	0	6	192
NMTAP	82	192	7
NMTAP	83	0	6
NMTAP	83	96	6
NMTAP	83	192	6
NMTAP	83	192	7
NMHLD	84	0	5	192
NMTAP	84	192	4
NMTAP	85	0	5
NMTAP	85	96	5
NMTAP	85	192	4
NMTAP	85	192	5
NMTAP	86	0	6
NMTAP	86	96	6
NMTAP	86	192	6
NMTAP	86	288	6
NMTAP	87	0	5
NMTAP	87	96	5
NMTAP	87	192	5
NMTAP	87	288	5
NMTAP	88	0	4
NMTAP	88	96	4
NMTAP	88	192	4
NMTAP	88	288	4
NMTAP	89	0	2
NMTAP	89	0	3
NMTAP	90	0	1
NMTAP	90	96	1
NMTAP	90	192	1
NMTAP	90	288	1
NMTAP	91	0	2
NMTAP	91	96	2
NMTAP	91	192	2
NMTAP	91	288	2
NMTAP	92	0	3
NMTAP	92	96	3
NMTAP	92	192	3
NMTAP	92	288	3
NMTAP	93	0	4
NMTAP	93	0	5
NMSTR	94	0	6
NMSUL	94	0	6	96	672	3
NMTAP	97	0	2
NMTAP	97	0	3
NMSTR	98	0	1
NMSUR	98	0	1	96	672	4
NMTAP	101	0	4
NMTAP	101	0	5
NMTTP	102	0	4	B	0	L1
NMTTP	102	0	5	B	0	L1
NMTTP	103	0	6	B	0	L1
NMTTP	103	0	7	B	0	L1
NMTTP	104	0	0	B	0	L1
NMTTP	104	0	1	B	0	L1
NMTTP	105	0	2	B	0	L1
NMTTP	105	0	3	B	0	L1
NMTTP	106	0	5	E	0	L1
NMTTP	106	192	6	E	0	L1
NMTTP	107	0	7	E	0	L1
NMTTP	107	192	0	E	0	L1
NMTTP	108	0	1	E	0	L1
NMTTP	108	192	2	E	0	L1
NMTTP	109	0	3	E	0	L1
NMTHO	110	0	0	384	C	0	L1
EXTAP	112	0	0
EXTAP	112	96	0
NMTAP	112	192	7
NMTAP	112	288	7
NMTAP	113	0	0
NMTAP	113	0	7
NMTAP	113	96	0
NMTAP	113	96	7
NMTAP	113	192	1
NMTAP	113	192	6
NMTAP	114	0	6
NMTAP	114	0	7
NMTAP	114	96	6
NMTAP	114	96	7
NMTAP	114	192	0
NMTAP	114	192	5
NMTAP	115	0	0
NMTAP	115	0	1
NMTAP	115	96	0
NMTAP	115	96	1
NMTAP	115	192	2
NMTAP	115	192	7
NMTAP	116	0	1
NMTAP	116	0	3
NMTAP	116	96	1
NMTAP	116	96	3
NMTAP	116	192	1
NMTAP	116	192	3
NMTAP	117	0	4
NMTAP	117	0	6
NMTAP	117	96	4
NMTAP	117	96	6
NMTAP	117	192	4
NMTAP	117	192	6
NMTAP	118	0	5
NMTAP	118	96	5
NMTAP	118	192	6
NMTAP	118	192	7
NMTAP	118	288	6
NMTAP	118	288	7
NMTAP	119	0	0
NMTAP	119	96	0
NMTAP	119	192	0
NMTAP	119	192	1
NMTAP	120	0	2
NMTAP	120	96	2
NMTAP	120	192	0
NMTAP	120	192	1
NMTAP	120	288	0
NMTAP	120	288	1
NMTAP	121	0	7
NMTAP	121	96	7
NMTAP	121	192	6
NMTAP	121	192	7
NMTAP	122	0	7
NMTAP	122	96	6
NMTAP	122	192	5
NMTAP	122	288	4
NMTAP	123	0	3
NMTAP	123	96	2
NMTAP	123	192	0
NMTAP	123	192	1
NMTAP	124	0	1
NMTAP	124	96	1
NMTAP	124	192	1
NMTAP	124	288	2
NMTAP	124	288	3
NMTAP	125	0	2
NMTAP	125	0	3
NMTAP	125	96	2
NMTAP	125	96	3
NMTAP	125	192	1
NMTAP	125	192	4
NMTAP	126	0	6
NMTAP	126	96	6
NMTAP	126	192	6
NMTAP	126	288	4
NMTAP	126	288	5
NMTAP	127	0	4
NMTAP	127	0	5
NMTAP	127	96	4
NMTAP	127	96	5
NMTAP	127	192	3
NMTAP	127	192	6
NMTAP	128	0	2
NMTAP	128	96	2
NMTAP	128	192	2
NMTAP	128	288	0
NMTAP	128	288	1
NMTAP	129	0	0
NMTAP	129	0	1
NMTAP	129	96	0
NMTAP	129	96	1
NMTAP	129	192	2
NMTAP	129	192	7
NMTAP	130	0	5
NMTAP	130	96	5
NMTAP	130	192	5
NMTAP	130	288	6
NMTAP	130	288	7
NMTAP	131	0	6
NMTAP	131	0	7
NMTAP	131	96	6
NMTAP	131	96	7
NMTAP	131	192	0
NMTAP	131	192	5
NMTAP	132	0	6
NMTAP	132	96	6
NMTAP	132	192	6
NMTAP	132	288	6
NMTAP	132	288	7
NMTAP	133	192	1
NMTAP	133	288	1
NMTAP	134	0	1
NMTAP	134	96	0
NMTAP	134	96	1
NMTAP	135	0	0
NMTAP	135	0	1
NMTAP	135	96	0
NMTAP	135	96	1
NMTAP	135	192	0
NMTAP	135	192	1
NMTAP	135	288	2
NMTAP	135	288	7
NMTAP	136	0	2
NMTAP	136	0	7
NMTAP	136	96	2
NMTAP	136	96	7
NMTAP	136	192	3
NMTAP	136	192	6
NMTAP	136	288	3
NMTAP	136	288	6
NMTAP	137	0	3
NMTAP	137	0	6
NMTAP	137	96	4
NMTAP	137	96	5
NMTAP	137	192	4
NMTAP	137	192	5
NMTAP	137	288	4
NMTAP	137	288	5
NMTAP	138	0	3
NMTAP	138	0	6
NMTAP	138	96	3
NMTAP	138	96	6
NMTAP	138	192	3
NMTAP	138	192	6
NMTAP	138	288	2
NMTAP	138	288	7
NMTAP	139	0	2
NMTAP	139	0	7
NMTAP	139	96	2
NMTAP	139	96	7
NMTAP	139	192	0
NMTAP	139	192	1
NMTAP	139	288	0
NMTAP	139	288	1
NMTAP	140	0	0
NMTAP	140	0	1
NMSTR	141	0	0
NMSXL	141	0	0	96	1344	3
NMSTR	141	0	7
NMSXR	141	0	7	96	1344	4

T_REC_TAP	453
T_REC_BRK	2
T_REC_XTP	4
T_REC_BXX	2
T_REC_HLD	16
T_REC_XHO	0
T_REC_BHO	0
T_REC_BXH	0
T_REC_STR	10
T_REC_BST	0
T_REC_XST	0
T_REC_XBS	0
T_REC_TTP	15
T_REC_THO	1
T_REC_SLD	10
T_REC_BSL	0
T_REC_ALL	513
T_NUM_TAP	482
T_NUM_BRK	4
T_NUM_HLD	17
T_NUM_SLD	10
T_NUM_ALL	513
T_JUDGE_TAP	486
T_JUDGE_HLD	104
T_JUDGE_SLD	10
T_JUDGE_ALL	600
TTM_EACHPAIRS	141
TTM_SCR_TAP	241000
TTM_SCR_BRK	10400
TTM_SCR_HLD	17000
TTM_SCR_SLD	15000
TTM_SCR_ALL	283400
TTM_SCR_S	274550
TTM_SCR_SS	283000
TTM_RAT_ACV	10014

