VERSION	0.00.00	1.04.00
FES_MODE	0
BPM_DEF	181.000	181.000	181.000	181.000
MET_DEF	4	4
RESOLUTION	384
CLK_DEF	384
COMPATIBLE_CODE	MA2

BPM	0	0	181.000
MET	0	0	4	4

NMSTR	2	0	0
NMSI_	2	0	0	96	672	3
NMTTP	3	0	5	E	0	M1
NMTTP	3	192	6	B	0	M1
NMSTR	4	0	7
NMSI_	4	0	7	96	672	4
NMTTP	5	0	3	B	0	M1
NMTTP	5	16	4	E	0	M1
NMTTP	5	192	1	B	0	M1
NMSTR	6	0	0
NMSCR	6	0	0	96	288	3
NMSTR	7	0	4
NMSCR	7	0	4	96	288	7
NMSTR	8	0	1
NMSUR	8	0	1	96	480	4
EXTAP	9	0	6
EXTAP	9	192	6
NMHLD	10	0	5	288
NMHLD	10	144	4	144
NMTAP	11	0	4
NMTAP	11	72	5
NMHLD	11	144	6	192
NMHLD	11	240	4	120
NMHLD	12	0	5	288
NMHLD	12	144	3	144
NMTAP	13	0	3
NMTAP	13	0	5
NMTAP	13	72	2
NMTAP	13	72	4
NMHLD	13	144	1	96
NMTAP	13	144	3
NMTAP	13	240	4
NMTAP	13	288	2
NMTAP	13	312	3
NMTAP	13	336	2
NMTAP	13	360	3
NMSTR	14	0	2
NMSCL	14	0	2	96	144	6
EXTAP	14	144	4
NMTAP	14	288	4
NMSTR	15	0	5
NMSCR	15	0	5	96	144	1
NMTAP	15	144	3
NMTAP	15	288	3
NMSTR	16	0	2
NMSCL	16	0	2	96	144	6
NMTAP	16	144	4
NMHLD	16	288	5	96
NMTAP	17	0	3
NMTAP	17	48	3
NMTAP	17	96	5
NMTAP	17	144	5
NMTAP	17	192	3
NMTAP	17	216	4
NMTAP	17	240	3
NMTAP	17	264	4
NMTAP	17	288	3
NMTAP	17	312	4
NMTAP	17	336	3
NMTAP	17	360	4
BRTAP	18	0	2
NMTAP	18	48	3
NMTAP	18	96	1
NMTAP	18	96	4
NMTAP	18	144	2
NMTAP	18	192	3
NMTAP	18	240	2
NMTAP	18	240	4
NMTAP	18	288	3
NMTAP	18	336	2
NMSTR	19	0	1
NMSI_	19	0	1	96	48	5
NMTAP	19	48	1
NMTAP	19	96	0
NMTAP	19	144	7
NMSTR	19	192	6
NMSI_	19	192	6	96	48	3
NMTAP	19	240	6
EXTAP	19	288	0
NMTAP	20	0	2
NMTAP	20	0	4
NMTAP	20	48	5
NMTAP	20	96	3
NMTAP	20	96	6
NMTAP	20	144	5
NMTAP	20	192	4
NMTAP	20	192	6
NMTAP	20	240	3
NMTAP	20	288	7
NMSTR	20	336	2
BRSV_	20	336	2	96	48	7
BRSTR	20	336	6
NMSV_	20	336	6	96	48	3
EXTAP	21	48	2
EXTAP	21	48	6
EXTAP	21	144	0
EXTAP	21	192	0
NMSTR	21	288	4
NMSI_	21	288	4	96	48	0
NMTAP	21	288	6
NMSTR	22	0	7
NMSCL	22	0	7	96	48	4
NMTAP	22	96	1
NMHLD	22	144	1	96
NMTAP	22	240	4
NMTAP	22	288	2
NMTAP	22	288	3
NMTAP	22	336	1
NMSTR	23	0	0
NMSI_	23	0	0	96	48	4
NMTAP	23	0	4
NMTAP	23	96	5
NMHLD	23	144	5	96
EXTAP	23	240	7
NMTAP	23	288	0
NMTAP	23	288	4
NMTAP	23	336	1
NMTAP	23	336	5
NMTAP	24	0	2
NMSTR	24	0	6
NMSCL	24	0	6	96	48	3
NMTAP	24	96	0
NMTAP	24	144	0
NMHLD	24	192	1	72
NMTAP	24	264	0
NMTAP	24	336	2
NMTAP	24	336	7
NMTAP	25	0	2
NMSTR	25	0	7
NMSI_	25	0	7	96	48	3
NMTAP	25	96	0
NMTAP	25	144	1
CNSI_	25	144	3	0	48	5
NMSTR	25	192	2
NMSCL	25	192	2	96	48	7
BRTAP	25	288	5
NMHLD	26	0	6	192
NMTAP	26	144	4
NMSTR	26	192	4
NMSV_	26	192	4	96	48	7
NMHLD	26	288	5	192
NMSTR	27	96	7
NMSI_	27	96	7	96	48	4
NMTAP	27	192	6
NMTAP	27	288	5
NMHLD	28	0	1	192
NMTAP	28	144	3
NMSTR	28	192	3
NMSV_	28	192	3	96	48	0
NMTAP	28	288	2
NMTAP	29	0	1
NMTAP	29	0	7
NMTAP	29	48	0
NMTAP	29	72	6
NMTAP	29	96	0
NMTAP	29	120	6
NMTAP	29	144	0
NMTAP	29	168	6
EXTAP	29	192	1
EXTAP	29	192	5
NMTAP	29	288	3
NMSTR	29	288	4
BRSI_	29	288	4	96	48	0
BRTAP	30	0	4
BRTAP	30	0	5
NMSTR	30	96	6
NMSI_	30	96	6	96	48	4
NMTAP	30	144	6
NMTAP	30	192	3
NMTAP	30	240	2
NMSTR	30	288	1
NMSI_	30	288	1	96	48	7
NMTAP	30	336	1
NMTAP	31	0	3
NMTAP	31	48	4
NMSTR	31	96	5
NMSI_	31	96	5	96	48	2
NMTAP	31	144	5
NMTAP	31	192	7
NMTAP	31	240	0
NMHLD	31	288	1	96
NMTAP	32	0	7
NMTAP	32	48	7
NMTAP	32	96	0
NMTAP	32	144	0
NMTAP	32	192	1
NMTAP	32	216	7
NMTAP	32	240	1
NMTAP	32	264	7
NMTAP	32	288	1
NMTAP	32	312	7
NMTAP	32	336	1
NMTAP	32	360	7
BRTAP	33	0	1
BRTAP	33	72	4
BRTAP	33	72	5
BRTAP	33	144	2
BRTAP	33	144	4
BRTAP	33	216	4
BRTAP	33	216	6
NMTAP	33	288	2
NMTAP	33	288	7
NMTAP	34	0	1
NMTAP	34	24	0
NMTAP	34	48	1
NMTAP	34	72	0
NMTAP	34	96	1
NMTAP	34	120	0
NMTAP	34	144	1
NMHLD	34	192	2	48
BXTAP	34	240	7
EXTAP	34	256	6
EXTAP	34	272	5
EXTAP	34	288	4
NMSTR	34	336	0
NMSLR	34	336	0	96	96	6
NMTTP	35	96	0	C	1	M1
EXHLD	35	96	3	192
NMTAP	35	288	7
BRTAP	36	0	0
BRTAP	36	0	7
NMTAP	36	48	2
NMTAP	36	72	3
NMTAP	36	96	1
NMSTR	36	144	0
NMSI_	36	144	0	96	48	4
NMTAP	36	192	7
NMTAP	36	240	0
NMSTR	36	240	6
NMSCR	36	240	6	96	96	3
NMTAP	36	336	3
NMTAP	36	336	6
NMTAP	37	96	4
NMTAP	37	96	5
NMTAP	37	144	4
NMTAP	37	144	5
NMTAP	37	192	0
NMTAP	37	192	6
NMTAP	37	240	2
NMTAP	37	240	4
NMSTR	37	288	1
NMSI_	37	288	1	96	48	4
NMSTR	37	288	5
NMSI_	37	288	5	96	48	0
NMTAP	38	0	1
NMTAP	38	0	5
NMTAP	38	96	3
NMTAP	38	96	7
NMTAP	38	144	2
NMTAP	38	144	6
NMSTR	38	192	1
NMSCL	38	192	1	96	48	6
NMTAP	38	240	1
NMSTR	38	288	3
NMSI_	38	288	3	96	48	7
NMTAP	38	336	3
NMSTR	39	0	1
NMSCR	39	0	1	96	48	4
NMTAP	39	48	1
NMTAP	39	96	6
NMTAP	39	144	6
NMTAP	39	192	3
NMTAP	39	192	5
NMTAP	39	240	3
NMTAP	39	240	5
EXTAP	39	288	1
EXTAP	39	288	7
NMTAP	40	0	0
NMTAP	40	0	4
NMTAP	40	48	2
NMTAP	40	72	3
NMTAP	40	96	1
NMTAP	40	144	1
NMSTR	40	192	1
NMSI_	40	192	1	96	48	5
NMTAP	40	216	0
NMTAP	40	240	2
EXTAP	40	288	7
NMTAP	41	0	6
NMTAP	41	0	7
NMTAP	41	48	5
NMTAP	41	72	4
NMTAP	41	96	6
NMTAP	41	144	6
NMSTR	41	192	6
NMSI_	41	192	6	96	48	2
NMTAP	41	216	7
NMTAP	41	240	5
EXTAP	41	288	0
NMSTR	42	0	1
NMSCR	42	0	1	96	96	3
NMTAP	42	96	0
NMTAP	42	144	0
CNSI_	42	192	3	0	48	5
NMHLD	42	192	7	48
NMTAP	42	264	7
NMTAP	42	336	0
NMTAP	42	336	6
NMTAP	43	0	2
NMTAP	43	0	3
NMTAP	43	48	4
NMTAP	43	48	5
NMTAP	43	96	6
NMTAP	43	96	7
EXTAP	43	144	1
EXHLD	43	144	4	96
NMTAP	43	240	0
BRSTR	43	288	0
NMSI_	43	288	0	96	48	4
NMTAP	43	300	1
NMTAP	43	312	2
NMTAP	43	324	3
NMTAP	43	336	4
NMTAP	43	348	5
NMTAP	43	360	6
NMTAP	43	372	7
EXTAP	44	0	0
BRTAP	44	96	1
BRTAP	44	96	7
NMTAP	44	192	6
NMTAP	44	216	4
NMTAP	44	240	5
NMTAP	44	288	2
NMTAP	44	288	4
NMTAP	44	336	0
NMHLD	45	0	3	96
NMTAP	45	0	5
NMSTR	45	96	6
NMSI_	45	96	6	96	48	1
NMTAP	45	144	6
NMSTR	45	192	4
NMSUL	45	192	4	96	48	0
NMTAP	45	240	4
NMTAP	45	288	7
NMTAP	45	336	6
NMSTR	46	0	5
NMSLR	46	0	5	96	96	3
NMTAP	46	48	5
NMTAP	46	96	0
NMTAP	46	144	1
NMHLD	46	192	2	96
NMTAP	46	288	3
NMTAP	46	336	1
NMTAP	46	336	4
NMTAP	47	0	6
NMTAP	47	0	7
NMTAP	47	48	5
NMTAP	47	96	0
NMTAP	47	96	1
NMTAP	47	144	2
NMTAP	47	192	4
NMTAP	47	192	5
NMTAP	47	240	6
NMTAP	47	288	0
NMSTR	47	288	1
BRSCR	47	288	1	96	48	4
EXTAP	48	0	1
EXTAP	48	0	7
NMTAP	48	96	6
NMTAP	48	120	7
NMTAP	48	144	6
NMTAP	48	192	0
NMTAP	48	192	5
NMTAP	48	240	1
NMTAP	48	240	4
NMTAP	48	288	2
NMTAP	48	312	3
NMTAP	48	336	2
NMTAP	48	360	3
BRTAP	49	0	1
BRTAP	49	0	4
NMTAP	49	96	1
NMTAP	49	120	0
NMTAP	49	144	1
NMTAP	49	192	2
NMTAP	49	192	7
NMTAP	49	240	3
NMTAP	49	240	6
NMTAP	49	288	5
NMTAP	49	312	4
NMTAP	49	336	5
NMTAP	49	360	4
NMTAP	50	0	6
NMTAP	50	48	5
NMTAP	50	48	7
NMTAP	50	96	1
NMTAP	50	144	0
NMTAP	50	144	2
NMTAP	50	192	5
NMTAP	50	240	4
NMTAP	50	240	6
NMTAP	50	288	2
NMTAP	50	336	1
NMTAP	50	336	3
NMTAP	51	0	0
NMTAP	51	24	1
NMTAP	51	48	2
NMTAP	51	72	3
NMTAP	51	96	4
NMTAP	51	120	5
NMTAP	51	144	6
NMTAP	51	168	7
NMTAP	51	192	0
EXTAP	51	192	6
NMTAP	51	216	5
NMTAP	51	240	4
NMTAP	51	264	3
NMTAP	51	288	2
NMTAP	51	312	1
NMTAP	51	336	0
NMTAP	51	360	7
BXTAP	52	0	3
BXTAP	52	0	6
NMTAP	52	96	2
NMTAP	52	96	5
NMTAP	52	144	2
NMTAP	52	144	5
NMTAP	52	192	1
NMSTR	52	192	4
NMSI_	52	192	4	96	48	0
NMTAP	52	240	2
NMTAP	52	240	3
NMTAP	52	288	1
NMTAP	52	288	4
NMTAP	53	0	2
NMTAP	53	0	7
NMTAP	53	48	2
NMTAP	53	48	7
NMTAP	53	96	1
NMTAP	53	96	6
NMTAP	53	144	1
NMTAP	53	144	6
NMSTR	53	192	0
NMSI_	53	192	0	96	48	3
NMTAP	53	192	5
NMTAP	53	240	6
NMTAP	53	240	7
NMTAP	53	288	0
NMTAP	53	288	5
NMTAP	54	0	6
NMTAP	54	24	7
NMTAP	54	48	6
NMTAP	54	72	7
NMTAP	54	96	6
NMTAP	54	120	7
NMTAP	54	144	6
NMTAP	54	168	7
NMHLD	54	192	5	96
EXSTR	54	240	0
NMSCL	54	240	0	96	144	3
EXTAP	54	256	1
EXTAP	54	272	2
EXTAP	54	288	3
BXTAP	54	336	0
NMTTP	54	336	3	B	0	M1
NMTTP	54	336	4	E	1	M1
CNSI_	55	96	3	0	96	1
CNSI_	55	192	1	0	96	5
BRHLD	56	0	0	384
NMTTP	57	0	7	E	0	M1
NMTTP	57	48	6	E	0	M1
NMTTP	57	96	5	E	0	M1
NMTTP	57	144	4	E	0	M1
NMTTP	57	192	3	E	0	M1
NMTTP	57	240	2	E	0	M1
NMTTP	57	288	1	E	0	M1
NMTTP	57	336	0	E	0	M1
NMTTP	58	0	6	E	0	M1
NMTTP	58	24	5	B	0	M1
NMTTP	58	48	4	B	0	M1
NMTTP	58	96	0	B	0	M1
NMTTP	58	96	1	E	0	M1
NMTTP	58	144	2	E	0	M1
NMTTP	58	168	2	B	0	M1
NMTTP	58	192	3	B	0	M1
NMTTP	58	240	7	B	0	M1
NMTTP	58	240	7	E	0	M1
NMTTP	58	288	5	A	0	M1
NMTTP	58	312	5	D	0	M1
NMTTP	58	336	4	A	0	M1
NMTTP	58	360	4	D	0	M1
NMTTP	59	0	1	A	0	M1
NMTTP	59	24	2	E	0	M1
NMTTP	59	48	3	E	0	M1
NMTTP	59	72	3	A	0	M1
NMTTP	59	96	7	A	0	M1
NMTTP	59	120	7	E	0	M1
NMTTP	59	144	6	E	0	M1
NMTTP	59	168	5	A	0	M1
NMTTP	59	192	0	B	0	M1
NMTTP	59	216	0	C	0	M1
NMTTP	59	240	4	B	0	M1
NMTTP	59	264	4	A	0	M1
EXTAP	59	288	7
NMSTR	60	0	7
NMSCL	60	0	7	96	96	4
NMSTR	60	192	0
NMSCR	60	192	0	96	96	2
CNSI_	60	192	4	0	96	0
CNSI_	61	0	2	0	96	6
NMSTR	61	0	6
NMSCR	61	0	6	96	96	0
CNSI_	61	192	0	0	96	5
NMTAP	61	192	2
CNSI_	61	288	5	0	48	3
NMTTP	62	0	0	E	0	M1
NMTTP	62	24	1	E	0	M1
NMTTP	62	48	2	E	0	M1
NMTTP	62	72	3	E	0	M1
NMTTP	62	96	4	E	0	M1
NMTTP	62	120	5	E	0	M1
NMTTP	62	144	6	E	0	M1
NMTTP	62	168	7	E	0	M1
NMTTP	62	192	0	E	0	M1
NMTTP	62	216	1	E	0	M1
NMTTP	62	240	2	E	0	M1
NMTTP	62	264	3	E	0	M1
NMTTP	62	288	0	C	0	M1
NMTTP	62	288	4	E	0	M1
EXTAP	63	0	0
EXTAP	63	0	1
EXSTR	63	48	2
NMSLL	63	48	2	96	96	3
EXSTR	63	48	6
NMSLL	63	48	6	96	96	7
BRTAP	63	288	1
BRTAP	63	288	5
NMHLD	64	0	1	48
NMTAP	64	48	0
NMHLD	64	72	2	48
NMTAP	64	120	7
NMHLD	64	144	3	48
NMTAP	64	192	6
NMHLD	64	216	4	48
NMTAP	64	264	5
NMTAP	64	288	4
NMTAP	64	336	3
NMTAP	64	336	5
NMTAP	65	0	2
NMTAP	65	0	6
NMTAP	65	48	1
NMTAP	65	72	0
NMTAP	65	96	1
NMTAP	65	144	2
NMTAP	65	144	7
NMTAP	65	192	6
NMTAP	65	216	4
NMTAP	65	240	5
NMTAP	65	264	4
NMTAP	65	288	6
NMTAP	65	312	4
NMTAP	65	336	5
NMTAP	65	360	4
NMHLD	66	0	6	48
NMTAP	66	48	7
NMHLD	66	72	5	48
NMTAP	66	120	0
NMHLD	66	144	4	48
NMTAP	66	192	1
NMHLD	66	216	3	48
NMTAP	66	264	2
NMTAP	66	288	3
NMTAP	66	336	2
NMTAP	66	336	4
NMTAP	67	0	1
NMTAP	67	0	5
NMTAP	67	48	6
NMTAP	67	72	7
NMTAP	67	96	5
NMTAP	67	144	2
NMTAP	67	168	3
NMTAP	67	216	0
NMTAP	67	240	7
BRTAP	67	288	2
BRTAP	67	288	6
NMTAP	68	0	5
NMTAP	68	24	4
NMTAP	68	48	5
NMTAP	68	72	4
NMTAP	68	96	6
NMTAP	68	144	1
NMTAP	68	168	0
NMTAP	68	192	1
NMTAP	68	216	0
NMHLD	68	240	2	48
NMTAP	68	288	7
NMTAP	68	312	1
NMTAP	68	360	1
NMTAP	69	0	4
NMTAP	69	48	4
NMTAP	69	72	2
NMTAP	69	120	2
NMTAP	69	144	6
NMTAP	69	192	6
NMTAP	69	216	4
NMTAP	69	264	4
NMHLD	69	288	5	48
EXTAP	69	336	3
EXSTR	69	360	3
NMSI_	69	360	3	96	48	0
BXTAP	70	48	7
BXTAP	70	96	6
NMTAP	70	192	1
NMSTR	70	192	5
NMSCR	70	192	5	96	48	0
BXTAP	70	288	3
EXTAP	70	360	2
EXTAP	71	0	2
EXTAP	71	72	0
EXTAP	71	72	1
EXTAP	71	144	0
EXTAP	71	144	1
NMTAP	71	192	1
NMTAP	71	216	0
NMTAP	71	240	2
NMTAP	71	264	7
NMTAP	71	288	3
NMTAP	71	312	6
NMTAP	71	336	4
NMTAP	71	360	5
BRSTR	72	0	4
NMSCL	72	0	4	96	48	1
NMTAP	72	72	5
NMHLD	72	144	6	72
NMTAP	72	216	7
NMTAP	72	288	6
NMTAP	72	312	7
NMTAP	72	336	6
NMTAP	72	360	7
NMHLD	73	0	5	48
NMTAP	73	48	2
NMTAP	73	72	3
NMTAP	73	96	2
NMTAP	73	120	3
NMHLD	73	144	1	48
BRTAP	73	192	7
EXTAP	73	240	7
EXTAP	73	256	6
EXTAP	73	272	5
BXTAP	73	288	2
BXTAP	73	288	4
BRTAP	74	0	1
BRSTR	74	0	3
NMSCR	74	0	3	96	48	6
NMTAP	74	72	0
NMHLD	74	144	1	72
NMTAP	74	216	0
NMTAP	74	288	1
NMTAP	74	312	0
NMTAP	74	336	1
NMTAP	74	360	0
EXTAP	75	0	2
EXTAP	75	0	7
NMTAP	75	48	6
NMHLD	75	72	6	48
NMTAP	75	120	4
NMHLD	75	144	4	48
NMTAP	75	192	5
NMHLD	75	216	5	48
NMTAP	75	264	7
BRTAP	75	288	7
NMTAP	76	0	0
NMTAP	76	0	6
NMTAP	76	24	1
NMTAP	76	48	2
NMTAP	76	72	3
NMTAP	76	96	0
NMTAP	76	120	1
NMTAP	76	144	2
NMTAP	76	168	3
NMTAP	76	192	7
NMTAP	76	216	6
NMTAP	76	240	5
NMTAP	76	264	4
NMTAP	76	288	7
NMTAP	76	312	6
NMTAP	76	336	5
NMTAP	76	360	4
NMTAP	77	0	1
NMTAP	77	24	0
NMTAP	77	48	1
NMTAP	77	72	0
NMTAP	77	96	2
NMTAP	77	120	7
NMTAP	77	144	2
NMTAP	77	168	7
NMHLD	77	192	3	48
NMTTP	77	240	6	E	0	M1
NMTTP	77	256	5	B	0	M1
NMTTP	77	272	4	B	0	M1
NMTTP	77	288	4	E	1	M1
BRTAP	78	0	0
BRTAP	78	0	6
NMTAP	78	48	1
NMTAP	78	72	3
NMTAP	78	96	2
NMTAP	78	120	3
NMTAP	78	144	0
NMTAP	78	192	6
NMTAP	78	216	4
NMTAP	78	240	5
NMTAP	78	264	4
BRTAP	78	288	7
BRTAP	78	336	0
BRSTR	78	336	6
NMSLL	78	336	6	96	96	0
NMTTP	79	96	0	C	1	M1
NMHLD	79	96	3	288
EXHLD	80	0	0	444
EXTAP	80	288	4
EXHLD	80	336	4	108
BXTAP	81	72	3
BXTAP	81	72	7
BXTAP	81	84	2
BXTAP	81	84	6
BXSTR	81	96	1
NMSI_	81	96	1	96	48	4
BXSTR	81	96	5
NMSI_	81	96	5	96	48	0
NMTAP	81	192	1
NMTAP	81	192	5
NMTAP	81	288	3
NMTAP	81	288	7
NMTAP	81	336	3
NMTAP	81	336	7
NMHLD	82	0	1	96
NMTAP	82	0	5
NMSTR	82	96	6
NMSCR	82	96	6	96	48	1
NMTAP	82	144	6
NMSTR	82	192	4
NMSI_	82	192	4	96	48	0
NMTAP	82	240	4
NMSTR	82	288	6
NMSCL	82	288	6	96	48	3
NMTAP	82	336	6
NMSTR	83	0	1
NMSI_	83	0	1	96	48	5
NMTAP	83	48	1
NMSTR	83	96	0
NMSI_	83	96	0	96	48	4
NMTAP	83	144	0
NMSTR	83	192	7
NMSCR	83	192	7	96	48	2
NMTAP	83	240	7
BRTAP	83	288	5
NMTAP	84	0	0
NMTAP	84	0	7
NMTAP	84	48	1
NMTAP	84	72	0
NMTAP	84	96	2
NMTAP	84	144	2
NMSTR	84	192	2
NMSI_	84	192	2	96	48	6
NMTAP	84	216	3
NMTAP	84	240	1
EXTAP	84	288	4
NMTAP	85	0	0
NMTAP	85	0	7
NMTAP	85	48	6
NMTAP	85	72	7
NMTAP	85	96	5
NMTAP	85	144	5
NMSTR	85	192	5
NMSI_	85	192	5	96	48	1
NMTAP	85	216	4
NMTAP	85	240	6
EXTAP	85	288	3
NMSTR	86	0	2
NMSCL	86	0	2	96	96	0
NMTAP	86	96	3
NMTAP	86	144	3
CNSI_	86	192	0	0	48	6
NMHLD	86	192	4	48
NMTAP	86	264	4
NMTAP	86	336	6
NMTAP	86	336	7
NMTAP	87	0	0
NMTAP	87	0	1
NMSTR	87	48	2
NMSCR	87	48	2	96	48	5
NMHLD	87	48	7	96
EXTAP	87	144	2
EXTAP	87	240	7
EXSTR	87	288	7
NMSV_	87	288	7	96	48	2
NMSV_	87	288	7	96	48	4
NMTAP	87	300	6
NMTAP	87	312	5
NMTAP	87	324	4
NMTAP	87	336	3
NMTAP	87	348	2
NMTAP	87	360	1
NMTAP	87	372	0
EXTAP	88	0	7
BRTAP	88	96	0
BRTAP	88	96	6
NMTAP	88	192	5
NMTAP	88	216	4
NMTAP	88	240	6
NMTAP	88	288	0
NMTAP	88	288	7
NMTAP	88	336	1
NMSTR	89	0	2
NMSI_	89	0	2	96	48	7
NMTAP	89	0	3
NMTAP	89	48	1
NMTAP	89	96	2
NMTAP	89	96	4
NMTAP	89	144	6
NMTAP	89	192	3
NMSTR	89	192	5
NMSCR	89	192	5	96	48	0
NMTAP	89	240	4
NMTAP	89	288	2
NMTAP	89	288	5
NMSTR	90	0	1
NMSLR	90	0	1	96	96	7
NMTAP	90	96	4
NMTAP	90	144	5
NMSTR	90	192	6
NMSLR	90	192	6	96	96	4
NMTAP	90	288	4
NMTAP	90	336	3
NMSTR	91	0	2
NMSI_	91	0	2	96	48	7
NMSTR	91	48	3
NMSI_	91	48	3	96	48	6
NMTAP	91	96	2
NMTAP	91	144	3
NMSTR	91	192	0
NMSCL	91	192	0	96	48	5
NMSCR	91	192	0	96	48	3
BRTAP	91	288	0
BRTAP	92	0	1
BRTAP	92	0	7
NMTAP	92	96	5
NMTAP	92	120	4
NMTAP	92	144	5
NMTAP	92	192	3
NMTAP	92	192	6
NMTAP	92	240	2
NMTAP	92	240	7
NMTAP	92	288	1
NMTAP	92	312	0
NMTAP	92	336	1
NMTAP	92	360	0
NMHLD	93	0	2	96
NMTAP	93	96	3
NMTAP	93	120	2
NMTAP	93	144	3
NMTAP	93	192	1
NMTAP	93	192	4
NMTAP	93	240	0
NMTAP	93	240	5
NMTAP	93	288	6
NMTAP	93	312	7
NMTAP	93	336	6
NMTAP	93	360	7
NMTAP	94	0	5
NMTAP	94	48	4
NMTAP	94	48	6
NMTAP	94	96	2
NMTAP	94	144	1
NMTAP	94	144	3
NMTAP	94	192	6
NMTAP	94	240	5
NMTAP	94	240	7
NMTAP	94	288	1
NMTAP	94	336	0
NMTAP	94	336	2
NMTAP	95	0	3
NMTAP	95	0	7
NMTAP	95	24	6
NMTAP	95	48	5
NMTAP	95	72	4
NMTAP	95	96	1
NMTAP	95	120	2
NMTAP	95	144	3
NMTAP	95	168	4
NMTAP	95	192	7
NMTAP	95	216	6
NMTAP	95	240	5
NMTAP	95	264	4
NMTAP	95	288	3
NMTAP	95	312	2
NMTAP	95	336	1
NMTAP	95	360	0
BXTAP	96	0	1
BXTAP	96	0	7
NMTAP	96	96	4
NMTAP	96	96	5
NMTAP	96	144	3
NMTAP	96	144	6
NMSTR	96	192	2
NMSI_	96	192	2	96	48	7
NMSTR	96	192	3
NMSI_	96	192	3	96	48	7
NMTAP	96	240	1
NMTAP	96	240	4
NMTAP	96	288	2
NMTAP	96	288	3
NMTAP	97	0	4
NMTAP	97	0	5
NMTAP	97	48	3
NMTAP	97	48	6
NMTAP	97	96	2
NMTAP	97	96	3
NMTAP	97	144	1
NMTAP	97	144	4
NMSTR	97	192	4
NMSI_	97	192	4	96	48	0
NMSTR	97	192	5
NMSI_	97	192	5	96	48	0
NMTAP	97	240	3
NMTAP	97	240	6
NMTAP	97	288	4
NMTAP	97	288	5
NMTAP	98	0	1
NMTAP	98	24	7
NMTAP	98	48	1
NMTAP	98	72	7
NMTAP	98	96	2
NMTAP	98	120	6
NMTAP	98	144	2
NMTAP	98	168	6
NMHLD	98	192	3	48
EXSTR	98	240	7
NMSCR	98	240	7	96	144	4
EXTAP	98	256	6
EXTAP	98	272	5
EXTAP	98	288	4
NMTTP	98	336	4	B	1	M1
NMTTP	98	336	5	B	0	M1
BXTAP	98	336	7
CNSI_	99	96	4	0	96	6
CNSI_	99	192	6	0	96	2
BRTAP	100	0	1
NMTAP	100	24	0
NMTAP	100	48	2
NMTAP	100	72	7
NMHLD	100	96	4	48
BRTAP	100	144	6
NMTAP	100	168	7
NMTAP	100	192	5
NMTAP	100	216	0
NMHLD	100	240	3	48
BRTAP	100	288	2
NMTAP	100	312	4
NMTAP	100	336	0
NMTAP	100	360	6
NMHLD	101	0	4	48
BRTAP	101	48	5
NMTAP	101	72	3
NMTAP	101	96	6
NMTAP	101	120	2
NMTAP	101	144	4
NMTAP	101	168	0
NMTAP	101	192	1
NMTAP	101	192	6
BRSTR	101	240	0
BRSI_	101	240	0	96	48	4
BRSTR	101	240	7
BRSI_	101	240	7	96	48	3
EXTAP	101	256	1
EXTAP	101	256	6
EXTAP	101	272	2
EXTAP	101	272	5
EXTAP	101	288	3
EXTAP	101	288	4
NMTTP	101	336	0	C	1	M1
NMTTP	101	336	3	B	0	M1
NMTTP	101	336	3	E	0	M1
NMTTP	101	336	4	B	0	M1
NMTTP	101	336	5	E	0	M1

T_REC_TAP	570
T_REC_BRK	38
T_REC_XTP	56
T_REC_BXX	16
T_REC_HLD	47
T_REC_XHO	4
T_REC_BHO	1
T_REC_BXH	0
T_REC_STR	66
T_REC_BST	7
T_REC_XST	6
T_REC_XBS	2
T_REC_TTP	68
T_REC_THO	0
T_REC_SLD	78
T_REC_BSL	5
T_REC_ALL	964
T_NUM_TAP	766
T_NUM_BRK	69
T_NUM_HLD	51
T_NUM_SLD	78
T_NUM_ALL	964
T_JUDGE_TAP	829
T_JUDGE_HLD	121
T_JUDGE_SLD	83
T_JUDGE_ALL	1033
TTM_EACHPAIRS	143
TTM_SCR_TAP	383000
TTM_SCR_BRK	179400
TTM_SCR_HLD	51000
TTM_SCR_SLD	117000
TTM_SCR_ALL	730400
TTM_SCR_S	701800
TTM_SCR_SS	723500
TTM_RAT_ACV	10095

