VERSION	0.00.00	1.04.00
FES_MODE	0
BPM_DEF	181.000	181.000	181.000	181.000
MET_DEF	4	4
RESOLUTION	384
CLK_DEF	384
COMPATIBLE_CODE	MA2

BPM	0	0	181.000
MET	0	0	4	4

NMSTR	2	0	1
NMSXR	2	0	1	96	480	4
NMSTR	4	0	6
NMSXL	4	0	6	96	480	3
NMSTR	6	0	2
NMSXL	6	0	2	96	480	7
NMSTR	8	0	5
NMSCL	8	0	5	96	192	2
NMHLD	9	0	0	384
EXSTR	10	0	7
NMSCL	10	0	7	96	288	3
NMHLD	11	0	1	192
NMTAP	11	192	3
EXSTR	12	0	0
NMSCR	12	0	0	96	288	4
NMHLD	13	0	6	192
NMTAP	13	192	4
NMSTR	14	0	7
NMSI_	14	0	7	96	192	3
NMSTR	15	0	1
NMSI_	15	0	1	96	192	5
NMTAP	16	0	6
NMTAP	16	96	6
NMTAP	16	192	7
NMTAP	16	288	7
NMTAP	17	0	1
NMTAP	17	48	1
NMTAP	17	96	6
NMTAP	17	144	6
NMTAP	17	192	0
NMTAP	17	216	7
NMTAP	17	240	0
NMTAP	17	264	7
BXTAP	17	288	0
NMHLD	18	0	1	96
NMTAP	18	96	3
NMHLD	18	144	3	96
NMHLD	18	240	4	96
NMTAP	18	336	6
NMTAP	19	0	6
NMTAP	19	96	4
NMTAP	19	96	5
NMTAP	19	144	4
NMTAP	19	144	5
NMTAP	19	240	6
NMTAP	19	240	7
NMSTR	19	288	6
NMSI_	19	288	6	96	48	2
NMSTR	19	288	7
NMSI_	19	288	7	96	48	3
NMTAP	20	96	1
NMHLD	20	144	1	96
NMSTR	20	240	0
NMSCR	20	240	0	96	144	5
EXTAP	21	144	0
EXTAP	21	192	0
NMTAP	21	288	2
NMTAP	21	288	4
NMHLD	22	0	1	96
NMTAP	22	96	3
NMTAP	22	144	3
NMTAP	22	240	0
NMTAP	22	240	1
NMTAP	22	336	7
NMTAP	23	0	7
NMTAP	23	96	4
NMTAP	23	96	6
NMTAP	23	144	4
NMTAP	23	144	6
NMTAP	23	240	0
NMTAP	23	240	7
NMTAP	23	336	1
NMTAP	23	336	3
NMTAP	24	0	1
NMTAP	24	0	3
NMTAP	24	96	3
NMTAP	24	96	4
NMTAP	24	192	4
NMTAP	24	192	6
NMSTR	24	288	7
NMSCL	24	288	7	96	240	0
NMTTP	25	0	0	C	1	M1
NMHLD	26	0	1	144
NMTAP	26	144	3
NMTAP	26	192	3
NMTAP	26	288	0
NMTAP	26	288	7
NMHLD	27	0	6	144
NMTAP	27	144	4
NMTAP	27	192	4
NMTAP	27	288	0
NMTAP	27	288	7
NMHLD	28	0	2	144
NMTAP	28	144	3
NMTAP	28	192	3
NMTAP	28	288	0
NMTAP	28	288	7
NMHLD	29	0	5	144
NMTAP	29	144	4
NMTAP	29	192	4
NMTAP	29	288	2
NMTAP	29	288	6
NMTAP	30	0	1
NMTAP	30	0	3
NMTAP	30	96	0
NMTAP	30	192	4
NMTAP	30	192	6
NMTAP	30	288	7
NMTAP	31	0	2
NMTAP	31	0	4
NMSTR	31	96	0
NMSLR	31	96	0	96	144	4
NMTAP	32	0	6
NMTAP	32	48	6
NMTAP	32	96	4
NMTAP	32	96	5
NMTAP	32	192	3
NMTAP	32	240	3
NMTAP	32	288	2
NMTAP	32	288	4
NMSTR	33	0	1
NMSI_	33	0	1	96	48	5
NMSTR	33	192	6
NMSI_	33	192	6	96	48	2
BRSTR	34	0	0
NMSCR	34	0	0	96	192	5
EXHLD	34	336	7	144
NMTTP	35	96	0	C	1	M1
NMTTP	35	96	3	B	0	M1
NMTTP	35	96	4	B	0	M1
NMTTP	35	96	4	E	0	M1
BRTAP	36	0	0
BRTAP	36	0	5
NMTAP	36	96	6
NMTAP	36	96	7
NMTAP	36	144	6
NMTAP	36	144	7
NMTAP	36	240	4
NMTAP	36	240	5
NMTAP	36	336	2
NMTAP	36	336	3
NMTAP	37	0	2
NMTAP	37	0	3
NMTAP	37	96	1
NMTAP	37	144	1
NMTAP	37	192	0
NMTAP	37	288	2
NMTAP	37	288	7
NMTAP	38	0	3
NMTAP	38	0	6
NMSTR	38	96	4
NMSUR	38	96	4	96	192	3
NMSTR	38	96	5
NMSCR	38	96	5	96	192	2
NMTAP	39	192	1
NMTAP	39	240	1
NMTAP	39	288	3
NMTAP	39	336	3
NMTAP	40	0	0
NMTAP	40	96	6
NMTAP	40	144	6
NMTAP	40	192	4
NMTAP	40	240	4
NMTAP	40	288	7
NMSTR	40	336	7
NMSI_	40	336	7	96	48	2
CNSI_	41	96	2	0	48	4
EXTAP	41	240	3
EXTAP	41	240	5
EXTAP	41	288	3
EXTAP	41	288	5
NMTAP	42	0	4
NMTAP	42	0	6
NMTAP	42	48	4
NMTAP	42	48	6
NMTAP	42	144	7
NMHLD	42	192	7	72
NMHLD	42	264	5	72
NMTAP	42	336	4
NMTAP	43	0	4
NMTAP	43	96	2
NMTAP	43	96	3
NMTAP	43	144	2
NMTAP	43	144	3
NMTAP	43	192	1
NMTAP	43	192	4
NMSTR	43	288	5
BRSI_	43	288	5	96	48	2
BXTAP	44	96	0
BXTAP	44	96	1
EXTAP	44	144	0
EXTAP	44	144	1
NMTAP	44	240	2
NMTAP	44	240	3
NMTAP	44	336	4
NMTAP	44	336	5
NMTAP	45	0	4
NMTAP	45	0	5
NMTAP	45	96	6
NMTAP	45	144	6
NMTAP	45	192	7
NMTAP	45	288	0
NMTAP	45	288	5
NMTAP	46	0	1
NMTAP	46	0	4
NMSTR	46	96	2
NMSCL	46	96	2	96	192	5
NMSTR	46	96	3
NMSUL	46	96	3	96	192	4
NMTAP	47	192	6
NMTAP	47	240	6
NMTAP	47	288	4
NMTAP	47	336	4
NMTAP	48	0	7
NMTAP	48	96	1
NMTAP	48	144	1
NMTAP	48	192	3
NMTAP	48	240	3
NMTAP	48	288	0
NMSTR	48	336	0
NMSI_	48	336	0	96	48	4
NMHLD	49	144	5	96
NMTAP	49	240	3
NMTAP	49	288	3
NMTAP	49	336	6
NMTAP	50	0	6
NMTAP	50	48	4
NMTAP	50	96	4
NMHLD	50	144	7	96
NMSTR	50	240	5
NMSCL	50	240	5	96	192	0
NMHLD	51	144	6	96
NMTAP	51	240	7
NMTAP	51	288	7
NMTAP	52	0	6
NMTAP	52	0	7
NMTAP	52	48	6
NMTAP	52	48	7
NMTAP	52	96	0
NMTAP	52	96	5
NMTAP	52	144	0
NMTAP	52	144	5
NMTAP	52	192	1
NMTAP	52	192	4
NMTAP	52	240	1
NMTAP	52	240	4
NMTAP	52	288	2
NMTAP	52	288	3
NMTAP	53	0	0
NMTAP	53	0	1
NMTAP	53	48	0
NMTAP	53	48	1
NMTAP	53	96	2
NMTAP	53	96	7
NMTAP	53	144	2
NMTAP	53	144	7
NMTAP	53	192	3
NMTAP	53	192	6
NMTAP	53	240	3
NMTAP	53	240	6
NMTAP	53	288	4
NMTAP	53	288	5
NMTAP	54	0	6
NMTAP	54	48	6
NMTAP	54	96	0
NMSTR	54	144	0
NMSI_	54	144	0	96	48	4
NMTAP	54	192	7
NMSTR	54	240	7
NMSCL	54	240	7	96	288	0
EXHLD	54	336	2	432
BRTAP	56	0	7
NMHLD	57	0	6	288
NMTTP	57	288	5	E	0	M1
NMHLD	58	0	4	288
NMTTP	58	288	4	E	0	M1
NMHLD	59	0	3	288
NMTTP	59	288	2	E	0	M1
NMHLD	60	0	1	288
NMTTP	60	288	7	E	0	M1
NMHLD	61	0	7	672
NMTTP	61	288	1	E	0	M1
NMHLD	62	0	0	288
EXTAP	63	0	1
EXTAP	63	0	6
EXSTR	63	48	1
NMSCR	63	48	1	96	48	3
EXSTR	63	48	6
NMSCL	63	48	6	96	48	4
NMTTP	63	288	0	A	0	M1
NMTTP	63	288	0	D	1	M1
NMTTP	63	288	1	E	0	M1
NMTTP	63	288	7	E	0	M1
NMTTP	63	288	7	A	0	M1
NMTAP	64	0	5
NMTAP	64	48	5
NMTAP	64	96	4
NMTAP	64	144	6
NMTAP	64	192	2
NMTAP	64	240	2
NMTAP	64	288	3
NMTAP	64	336	1
NMTAP	65	0	5
NMTAP	65	48	5
NMSTR	65	96	0
NMSI_	65	96	0	96	48	4
NMSTR	65	192	6
NMSI_	65	192	6	96	48	3
NMTAP	65	288	1
NMTAP	66	0	2
NMTAP	66	48	2
NMTAP	66	96	3
NMTAP	66	144	1
NMTAP	66	192	5
NMTAP	66	240	5
NMTAP	66	288	4
NMTAP	66	336	6
NMTAP	67	0	2
NMTAP	67	48	2
NMTAP	67	96	7
NMHLD	67	144	7	72
NMHLD	67	216	5	72
NMTAP	67	288	4
NMHLD	68	0	3	96
NMHLD	68	0	6	96
NMHLD	68	144	1	96
NMHLD	68	144	4	96
NMTAP	68	288	5
NMSTR	68	336	5
NMSUL	68	336	5	96	192	3
NMSTR	69	288	0
NMSLR	69	288	0	96	144	4
EXTAP	70	192	6
EXTAP	70	288	3
EXTAP	70	288	5
NMHLD	71	0	1	72
NMHLD	71	72	2	72
NMTAP	71	144	3
NMHLD	71	192	6	72
NMHLD	71	264	5	72
NMTAP	71	336	4
NMTAP	72	0	2
NMTAP	72	48	2
NMTAP	72	96	3
NMTAP	72	144	1
NMTAP	72	192	5
NMTAP	72	240	5
NMTAP	72	288	4
NMTAP	72	336	6
NMTAP	73	0	2
NMTAP	73	48	2
NMSTR	73	96	7
NMSI_	73	96	7	96	48	3
NMSTR	73	192	1
NMSI_	73	192	1	96	48	4
NMTAP	73	288	6
NMTAP	74	0	5
NMTAP	74	48	5
NMTAP	74	96	4
NMTAP	74	144	6
NMTAP	74	192	2
NMTAP	74	240	2
NMTAP	74	288	2
NMTAP	74	288	3
BXTAP	75	0	1
BXTAP	75	0	4
BXTAP	75	72	1
BXTAP	75	72	4
BXTAP	75	144	2
BXTAP	75	144	5
BXTAP	75	216	2
BXTAP	75	216	5
NMTAP	75	288	6
NMTAP	75	336	6
NMTAP	76	0	4
NMTAP	76	48	4
NMTAP	76	96	5
NMTAP	76	144	5
NMTAP	76	192	1
NMTAP	76	240	1
NMTAP	76	288	3
NMTAP	76	336	3
NMSTR	77	0	0
NMSI_	77	0	0	96	48	4
NMSTR	77	96	7
NMSI_	77	96	7	96	48	5
NMSTR	77	192	1
NMSI_	77	192	1	96	48	3
EXTAP	77	288	7
NMTAP	78	0	4
NMTAP	78	0	6
NMTAP	78	48	4
NMTAP	78	48	6
NMTAP	78	144	1
NMTAP	78	144	3
NMTAP	78	192	1
NMTAP	78	192	3
NMTAP	78	288	0
NMTAP	78	288	7
NMHLD	78	336	0	96
NMHLD	78	336	7	96
BRTAP	79	96	1
BRTAP	79	96	6
NMHLD	80	0	5	288
NMTAP	80	288	0
NMTAP	80	336	0
BRTAP	81	48	2
BRTAP	81	48	7
BRTAP	81	96	2
BRTAP	81	96	7
NMTAP	81	192	4
NMTAP	81	192	6
NMTAP	81	288	1
NMTAP	81	288	3
NMTAP	82	0	0
NMTAP	82	0	1
NMSTR	82	96	0
NMSUR	82	96	0	96	192	7
NMSTR	82	96	1
NMSCR	82	96	1	96	192	6
NMTAP	83	192	7
NMTAP	83	240	7
NMTAP	83	288	4
NMTAP	83	336	4
NMTAP	84	0	5
NMTAP	84	96	1
NMTAP	84	144	1
NMTAP	84	192	3
NMTAP	84	240	3
NMTAP	84	288	0
NMSTR	84	336	0
NMSI_	84	336	0	96	48	5
CNSI_	85	96	5	0	48	3
EXTAP	85	240	2
EXTAP	85	240	4
EXTAP	85	288	2
EXTAP	85	288	4
NMTAP	86	0	1
NMTAP	86	0	3
NMTAP	86	48	1
NMTAP	86	48	3
NMTAP	86	144	0
NMHLD	86	192	0	72
NMHLD	86	264	2	72
NMTAP	86	336	3
NMTAP	87	0	3
NMTAP	87	96	4
NMTAP	87	96	5
NMTAP	87	144	4
NMTAP	87	144	5
NMTAP	87	192	3
NMTAP	87	192	6
NMSTR	87	288	2
BRSI_	87	288	2	96	48	5
BXTAP	88	96	6
BXTAP	88	96	7
EXTAP	88	144	6
EXTAP	88	144	7
NMTAP	88	240	4
NMTAP	88	240	5
NMTAP	88	336	2
NMTAP	88	336	3
NMTAP	89	0	2
NMTAP	89	0	3
NMTAP	89	96	1
NMTAP	89	144	1
NMTAP	89	192	0
NMTAP	89	288	2
NMTAP	89	288	7
NMTAP	90	0	4
NMTAP	90	0	5
NMSTR	90	96	6
NMSCL	90	96	6	96	192	1
NMSTR	90	96	7
NMSUL	90	96	7	96	192	0
NMTAP	91	192	0
NMTAP	91	240	0
NMTAP	91	288	3
NMTAP	91	336	3
NMTAP	92	0	2
NMTAP	92	96	6
NMTAP	92	144	6
NMTAP	92	192	4
NMTAP	92	240	4
NMTAP	92	288	7
NMSTR	92	336	7
NMSI_	92	336	7	96	48	3
NMHLD	93	144	2	96
NMTAP	93	240	4
NMTAP	93	288	4
NMTAP	93	336	1
NMTAP	94	0	1
NMTAP	94	48	3
NMTAP	94	96	3
NMHLD	94	144	2	96
NMHLD	94	240	0	96
NMHLD	94	336	7	96
NMHLD	95	48	5	96
NMTAP	95	144	3
NMTAP	95	240	2
NMTAP	95	240	4
NMTAP	95	288	2
NMTAP	95	288	4
NMTAP	96	0	5
NMTAP	96	48	5
NMTAP	96	96	0
NMTAP	96	144	0
NMTAP	96	192	7
NMTAP	96	240	7
NMTAP	96	288	1
NMTAP	96	336	1
NMTAP	97	0	0
NMTAP	97	48	0
NMTAP	97	96	3
NMTAP	97	144	3
NMTAP	97	192	5
NMTAP	97	240	5
NMTAP	97	288	4
NMSTR	98	0	2
NMSCR	98	0	2	96	96	5
NMSTR	98	0	6
NMSCR	98	0	6	96	96	1
BRTAP	98	288	3
BRTAP	98	288	7
BRTAP	98	336	3
BRTAP	98	336	7
NMTAP	99	48	1
NMTAP	99	48	5
NMTAP	99	96	1
NMTAP	99	96	5
NMTAP	99	192	3
NMTAP	99	192	6
NMTAP	99	288	1
NMTAP	99	288	4
NMTAP	100	0	2
NMTAP	100	24	3
NMTAP	100	48	2
NMTAP	100	72	3
NMTAP	100	96	2
NMTAP	100	144	5
NMTAP	100	168	4
NMTAP	100	192	5
NMTAP	100	216	4
NMTAP	100	240	5
NMTAP	100	288	1
NMTAP	100	312	3
NMTAP	100	336	1
NMTAP	100	360	3
NMTAP	101	0	1
NMTAP	101	48	6
NMTAP	101	72	4
NMTAP	101	96	6
NMTAP	101	120	4
EXHLD	101	144	7	1392
EXSTR	101	240	0
NMSXL	101	240	0	96	1200	4

T_REC_TAP	353
T_REC_BRK	13
T_REC_XTP	20
T_REC_BXX	13
T_REC_HLD	43
T_REC_XHO	3
T_REC_BHO	0
T_REC_BXH	0
T_REC_STR	41
T_REC_BST	1
T_REC_XST	5
T_REC_XBS	0
T_REC_TTP	15
T_REC_THO	0
T_REC_SLD	45
T_REC_BSL	2
T_REC_ALL	554
T_NUM_TAP	434
T_NUM_BRK	29
T_NUM_HLD	46
T_NUM_SLD	45
T_NUM_ALL	554
T_JUDGE_TAP	461
T_JUDGE_HLD	177
T_JUDGE_SLD	47
T_JUDGE_ALL	685
TTM_EACHPAIRS	107
TTM_SCR_TAP	217000
TTM_SCR_BRK	75400
TTM_SCR_HLD	46000
TTM_SCR_SLD	67500
TTM_SCR_ALL	405900
TTM_SCR_S	390950
TTM_SCR_SS	403000
TTM_RAT_ACV	10071

