VERSION	0.00.00	1.04.00
FES_MODE	0
BPM_DEF	181.000	181.000	181.000	181.000
MET_DEF	4	4
RESOLUTION	384
CLK_DEF	384
COMPATIBLE_CODE	MA2

BPM	0	0	181.000
MET	0	0	4	4

NMHLD	2	0	2	384
NMHLD	3	0	3	384
NMHLD	4	0	4	384
NMTAP	5	0	5
NMHLD	6	0	5	384
NMHLD	7	0	4	384
NMHLD	8	0	3	384
NMTAP	9	0	2
NMTAP	10	0	1
NMTAP	10	96	1
NMTAP	10	192	0
NMTAP	10	192	1
NMTAP	11	0	2
NMTAP	11	96	2
NMTAP	11	192	2
NMTAP	11	192	3
NMTAP	12	0	4
NMTAP	12	96	4
NMTAP	12	192	4
NMTAP	12	192	5
NMTAP	13	0	6
NMTAP	13	0	7
NMTAP	13	96	6
NMTAP	13	96	7
NMTAP	13	192	6
NMTAP	13	192	7
NMTAP	14	0	6
NMTAP	14	96	6
NMTAP	14	192	6
NMTAP	14	192	7
NMTAP	15	0	5
NMTAP	15	96	5
NMTAP	15	192	4
NMTAP	15	192	5
NMTAP	16	0	3
NMTAP	16	96	3
NMTAP	16	192	2
NMTAP	16	192	3
NMTAP	17	0	0
NMTAP	17	0	1
NMTAP	17	96	0
NMTAP	17	96	1
NMTAP	17	192	0
NMTAP	17	192	1
NMTAP	18	0	2
NMTAP	18	96	2
NMTAP	18	192	1
NMTAP	18	288	1
NMTAP	19	0	0
NMTAP	19	96	0
NMTAP	19	192	6
NMTAP	19	192	7
NMTAP	20	0	5
NMTAP	20	96	5
NMTAP	20	192	6
NMTAP	20	288	6
NMTAP	21	0	7
NMTAP	21	96	7
NMTAP	21	192	0
NMTAP	21	192	1
NMTAP	22	0	1
NMTAP	22	96	1
NMTAP	22	192	2
NMTAP	22	288	2
NMTAP	23	0	3
NMTAP	23	96	3
NMTAP	23	192	4
NMTAP	23	192	5
NMTAP	24	0	6
NMTAP	24	96	6
NMTAP	24	192	5
NMTAP	24	288	5
NMTAP	25	0	4
NMTAP	25	96	4
NMTAP	25	192	2
NMTAP	25	192	3
NMHLD	26	0	1	192
NMTAP	26	192	0
NMHLD	27	0	2	192
NMTAP	27	192	3
NMHLD	28	0	5	192
NMTAP	28	192	4
NMHLD	29	0	6	192
NMTAP	29	192	7
NMTTP	30	0	6	B	0	L1
NMTTP	30	96	5	B	0	L1
NMTTP	30	192	4	B	0	L1
NMTTP	31	0	1	B	0	L1
NMTTP	31	96	2	B	0	L1
NMTTP	31	192	3	B	0	L1
NMTTP	32	0	6	B	0	L1
NMTTP	32	96	5	B	0	L1
NMTTP	32	192	4	B	0	L1
NMTTP	32	288	3	B	0	L1
NMTTP	33	0	0	C	0	L1
NMTTP	34	0	1	B	0	L1
NMTTP	34	96	2	B	0	L1
NMTTP	34	192	3	B	0	L1
NMTTP	34	288	4	B	0	L1
NMTTP	35	0	0	C	0	L1
BXTAP	36	0	6
NMTAP	36	96	6
NMTAP	36	192	6
NMTAP	36	192	7
NMTAP	36	288	6
NMTAP	36	288	7
NMTAP	37	0	0
NMTAP	37	96	0
NMTAP	37	192	0
NMTAP	37	192	1
NMTAP	38	0	2
NMTAP	38	96	2
NMTAP	38	192	0
NMTAP	38	192	1
NMTAP	38	288	0
NMTAP	38	288	1
NMTAP	39	0	7
NMTAP	39	96	7
NMTAP	39	192	6
NMTAP	39	192	7
NMTAP	40	0	6
NMTAP	40	96	6
NMTAP	40	192	4
NMTAP	40	192	5
NMTAP	40	288	4
NMTAP	40	288	5
NMTAP	41	0	3
NMTAP	41	96	3
NMTAP	41	192	2
NMTAP	41	192	3
NMTAP	42	0	1
NMTAP	42	96	1
NMTAP	42	192	2
NMTAP	42	192	3
NMTAP	42	288	2
NMTAP	42	288	3
NMTAP	43	0	4
NMTAP	43	96	4
NMTAP	43	192	4
NMTAP	43	192	5
NMTAP	44	0	6
BXTAP	44	96	6
NMTAP	44	192	6
NMTAP	44	288	6
NMTAP	44	288	7
NMTAP	45	0	5
NMTAP	45	96	5
NMTAP	45	192	5
NMTAP	45	288	4
NMTAP	45	288	5
NMTAP	46	0	3
NMTAP	46	96	3
NMTAP	46	192	3
NMTAP	46	288	2
NMTAP	46	288	3
NMTAP	47	0	1
NMTAP	47	96	1
NMTAP	47	192	0
NMTAP	47	192	1
NMTAP	48	0	1
NMTAP	48	96	1
NMTAP	48	192	1
NMTAP	48	288	0
NMTAP	48	288	1
NMTAP	49	0	2
NMTAP	49	96	2
NMTAP	49	192	2
NMTAP	49	288	2
NMTAP	49	288	3
NMTAP	50	0	4
NMTAP	50	96	4
NMTAP	50	192	4
NMTAP	50	288	4
NMTAP	50	288	5
NMTAP	51	0	6
NMTAP	51	96	6
NMTAP	51	192	6
NMTAP	51	192	7
NMTAP	52	0	6
NMTAP	52	96	6
NMTAP	52	192	5
NMTAP	52	288	5
NMTAP	53	0	4
NMTAP	53	96	4
NMTAP	53	192	3
NMTAP	53	288	3
NMTAP	54	0	2
NMTAP	54	96	2
NMTAP	54	192	1
NMTAP	54	288	1
NMTAP	55	0	0
NMTAP	55	0	7
NMSTR	56	0	1
NMSUR	56	0	1	96	480	4
NMSTR	58	0	6
NMSUL	58	0	6	96	480	3
NMSTR	60	0	1
NMSXR	60	0	1	96	480	4
NMSTR	62	0	6
NMSXL	62	0	6	96	480	3
BRTAP	64	0	2
NMTAP	64	96	2
NMTAP	64	192	2
NMTAP	64	288	2
NMTAP	65	0	1
NMTAP	65	96	1
NMTAP	65	192	1
NMTAP	65	288	1
NMTAP	66	0	0
NMTAP	66	96	0
NMTAP	66	192	0
NMTAP	66	288	0
NMTAP	67	0	6
NMTAP	67	0	7
NMTAP	67	192	6
NMTAP	67	192	7
NMTAP	68	0	5
NMTAP	68	96	5
NMTAP	68	192	5
NMTAP	68	288	5
NMTAP	69	0	6
NMTAP	69	96	6
NMTAP	69	192	6
NMTAP	69	288	6
NMTAP	70	0	7
NMTAP	70	96	7
NMTAP	70	192	7
NMTAP	70	288	7
NMTAP	71	0	0
NMTAP	71	0	1
NMTAP	71	192	0
NMTAP	71	192	1
NMTAP	72	0	2
NMTAP	72	96	2
NMTAP	72	192	1
NMTAP	72	288	1
NMTAP	73	0	0
NMTAP	73	48	0
NMTAP	73	96	0
NMTAP	73	192	6
NMTAP	73	192	7
NMTAP	74	0	5
NMTAP	74	96	5
NMTAP	74	192	6
NMTAP	74	288	6
NMTAP	75	0	7
NMTAP	75	48	7
NMTAP	75	96	7
NMTAP	75	192	0
NMTAP	75	192	1
NMTAP	76	0	1
NMTAP	76	96	1
NMTAP	76	192	2
NMTAP	76	288	2
NMTAP	77	0	3
NMTAP	77	48	3
NMTAP	77	96	3
NMTAP	77	192	4
NMTAP	77	192	5
NMTAP	78	0	6
NMTAP	78	96	6
NMTAP	78	192	5
NMTAP	78	288	5
NMTAP	79	0	4
NMTAP	79	48	4
NMTAP	79	96	4
NMTAP	79	192	2
NMTAP	79	192	3
NMSTR	80	0	3
NMSI_	80	0	3	96	288	0
NMSTR	80	0	4
NMSI_	80	0	4	96	288	7
NMTAP	81	192	0
NMTAP	81	192	7
BXTAP	82	0	6
NMTAP	82	48	6
NMTAP	82	96	6
NMTAP	82	192	6
NMTAP	82	192	7
NMTAP	82	288	6
NMTAP	82	288	7
NMTAP	83	0	0
NMTAP	83	48	0
NMTAP	83	96	0
NMTAP	83	192	0
NMTAP	83	192	1
NMTAP	84	0	1
NMTAP	84	48	1
NMTAP	84	96	1
NMTAP	84	192	2
NMTAP	84	192	3
NMTAP	84	288	2
NMTAP	84	288	3
NMTAP	85	0	4
NMTAP	85	48	4
NMTAP	85	96	4
NMTAP	85	192	4
NMTAP	85	192	5
NMTAP	86	0	6
NMTAP	86	48	6
NMTAP	86	96	6
NMTAP	86	192	4
NMTAP	86	192	5
NMTAP	86	288	4
NMTAP	86	288	5
NMTAP	87	0	3
NMTAP	87	48	3
NMTAP	87	96	3
NMTAP	87	192	2
NMTAP	87	192	3
NMTAP	88	0	2
NMTAP	88	48	2
NMTAP	88	96	2
NMTAP	88	192	0
NMTAP	88	192	1
NMTAP	88	288	0
NMTAP	88	288	1
NMTAP	89	0	7
NMTAP	89	48	7
NMTAP	89	96	7
NMTAP	89	192	6
NMTAP	89	192	7
NMTAP	89	288	6
NMTAP	89	288	7
NMTAP	90	0	5
NMTAP	90	48	5
NMTAP	90	96	5
NMTAP	90	192	6
NMTAP	90	192	7
NMTAP	90	288	6
NMTAP	90	288	7
NMTAP	91	0	0
NMTAP	91	48	0
NMTAP	91	96	0
NMTAP	91	192	0
NMTAP	91	192	1
NMTAP	92	0	1
NMTAP	92	48	1
NMTAP	92	96	1
NMTAP	92	192	2
NMTAP	92	192	3
NMTAP	92	288	2
NMTAP	92	288	3
NMTAP	93	0	4
NMTAP	93	48	4
NMTAP	93	96	4
NMTAP	93	192	4
NMTAP	93	192	5
NMTAP	93	288	4
NMTAP	93	288	5
NMTAP	94	0	6
NMTAP	94	48	6
NMTAP	94	96	6
NMTAP	94	192	4
NMTAP	94	192	5
NMTAP	94	288	4
NMTAP	94	288	5
NMTAP	95	0	3
NMTAP	95	48	3
NMTAP	95	96	3
NMTAP	95	192	2
NMTAP	95	192	3
NMTAP	96	0	2
NMTAP	96	48	2
NMTAP	96	96	2
NMTAP	96	192	1
NMTAP	96	240	1
NMTAP	96	288	1
NMTAP	97	0	0
NMTAP	97	48	0
NMTAP	97	96	0
NMTAP	97	192	6
NMTAP	97	192	7
NMTAP	98	0	5
NMTAP	98	48	5
NMTAP	98	96	5
NMTAP	98	192	6
NMTAP	98	240	6
NMTAP	98	288	6
NMTAP	99	0	7
NMTAP	99	48	7
NMTAP	99	96	7
NMTAP	99	192	0
NMTAP	99	192	1
NMTAP	100	0	6
NMTAP	100	0	7
NMTAP	100	96	6
NMTAP	100	96	7
NMTAP	100	192	6
NMTAP	100	192	7
NMTAP	101	0	0
NMTAP	101	0	7
NMTAP	101	96	0
NMTAP	101	96	7
NMHLD	101	192	0	144
NMHLD	101	192	7	144

T_REC_TAP	352
T_REC_BRK	1
T_REC_XTP	0
T_REC_BXX	3
T_REC_HLD	12
T_REC_XHO	0
T_REC_BHO	0
T_REC_BXH	0
T_REC_STR	6
T_REC_BST	0
T_REC_XST	0
T_REC_XBS	0
T_REC_TTP	16
T_REC_THO	0
T_REC_SLD	6
T_REC_BSL	0
T_REC_ALL	396
T_NUM_TAP	374
T_NUM_BRK	4
T_NUM_HLD	12
T_NUM_SLD	6
T_NUM_ALL	396
T_JUDGE_TAP	378
T_JUDGE_HLD	70
T_JUDGE_SLD	6
T_JUDGE_ALL	454
TTM_EACHPAIRS	78
TTM_SCR_TAP	187000
TTM_SCR_BRK	10400
TTM_SCR_HLD	12000
TTM_SCR_SLD	9000
TTM_SCR_ALL	218400
TTM_SCR_S	211500
TTM_SCR_SS	218000
TTM_RAT_ACV	10018

