VERSION	0.00.00	1.04.00
FES_MODE	0
BPM_DEF	165.000	165.000	165.000	165.000
MET_DEF	4	4
RESOLUTION	384
CLK_DEF	384
COMPATIBLE_CODE	MA2

BPM	0	0	165.000
MET	0	0	4	4

NMTAP	1	288	2
NMTAP	1	288	4
NMTAP	2	0	1
NMTAP	2	0	5
NMTAP	2	48	6
NMTAP	2	72	7
NMTAP	2	120	7
NMTAP	2	144	6
NMTAP	2	192	0
NMTAP	2	192	5
NMTAP	2	240	1
NMTAP	2	288	2
NMTAP	2	288	4
NMTAP	2	336	5
NMSTR	3	0	2
NMSI_	3	0	2	96	48	7
NMSTR	3	0	6
NMSI_	3	0	6	96	48	3
NMTAP	3	192	0
NMTAP	3	192	4
NMTAP	3	288	3
NMTAP	3	288	5
NMTAP	4	0	2
NMTAP	4	0	6
NMTAP	4	48	1
NMTAP	4	72	0
NMTAP	4	120	0
NMTAP	4	144	1
NMTAP	4	192	2
NMTAP	4	192	7
NMTAP	4	240	6
NMSTR	4	288	5
NMSCR	4	288	5	96	96	1
NMTAP	4	336	3
NMSTR	5	0	1
NMSCL	5	0	1	96	96	5
EXTAP	5	72	2
EXTAP	5	144	3
EXTAP	5	192	3
NMSTR	5	288	0
NMSI_	5	288	0	96	48	4
NMSTR	5	288	1
NMSI_	5	288	1	96	48	4
NMTAP	6	0	0
NMTAP	6	0	1
NMSTR	6	96	6
NMSI_	6	96	6	96	48	3
NMSTR	6	96	7
NMSI_	6	96	7	96	48	3
NMTAP	6	192	6
NMTAP	6	192	7
NMTAP	6	288	0
NMTAP	6	288	1
NMTAP	7	0	2
NMTAP	7	0	7
NMTAP	7	48	2
NMTAP	7	48	7
NMTAP	7	96	4
NMTAP	7	96	5
NMTAP	7	144	4
NMTAP	7	144	5
NMTAP	7	192	3
NMTAP	7	192	6
NMTAP	7	288	1
NMTAP	7	288	4
NMTAP	7	336	1
NMTAP	7	336	4
NMSTR	8	0	2
NMSXL	8	0	2	96	96	3
NMSLL	8	0	2	96	96	3
NMTAP	8	0	3
NMTAP	8	288	2
NMTAP	8	288	4
NMTAP	9	0	3
NMTAP	9	0	6
NMTAP	9	48	3
NMTAP	9	48	6
NMSTR	9	96	4
BRSXL	9	96	4	96	96	4
BRSXR	9	96	4	96	96	4
NMTAP	9	96	5
NMSTR	10	0	1
NMSI_	10	0	1	96	48	4
NMTAP	10	72	0
NMTAP	10	96	0
NMTAP	10	144	7
NMSTR	10	192	6
NMSI_	10	192	6	96	48	3
NMTAP	10	264	7
NMTAP	10	288	7
NMTAP	10	336	0
NMTAP	11	0	1
NMTAP	11	48	2
NMTAP	11	96	3
NMTAP	11	144	2
NMTAP	11	144	4
NMTAP	11	192	2
NMSTR	11	192	4
NMSI_	11	192	4	96	48	0
NMTAP	11	288	4
NMTAP	11	288	5
NMSTR	12	0	6
NMSI_	12	0	6	96	48	3
NMTAP	12	72	7
NMTAP	12	96	7
NMTAP	12	144	0
NMSTR	12	192	1
NMSI_	12	192	1	96	48	4
NMTAP	12	264	0
NMTAP	12	288	0
NMTAP	12	336	7
NMTAP	13	0	6
NMTAP	13	48	5
NMTAP	13	96	4
NMTAP	13	144	3
NMTAP	13	144	5
NMTAP	13	192	3
NMTAP	13	192	5
NMTAP	13	288	0
NMTAP	13	288	6
NMTAP	14	0	1
NMTAP	14	0	5
NMTAP	14	96	3
NMTAP	14	120	4
NMTAP	14	144	2
NMTAP	14	192	1
NMTAP	14	192	4
NMTAP	14	264	0
NMTAP	14	264	7
NMTAP	14	336	3
NMTAP	14	336	6
NMTAP	15	0	5
NMTAP	15	32	4
NMTAP	15	64	6
NMTAP	15	96	2
NMTAP	15	128	3
NMTAP	15	160	1
NMTAP	15	192	0
NMTAP	15	192	4
NMTAP	15	288	2
NMTAP	15	288	6
NMTAP	16	0	6
NMTAP	16	24	5
NMTAP	16	48	4
NMTAP	16	72	3
NMTAP	16	96	6
NMTAP	16	120	5
NMTAP	16	144	4
NMTAP	16	168	3
NMTAP	16	192	6
NMTAP	16	216	5
NMTAP	16	240	4
NMTAP	16	264	3
NMTAP	16	288	7
NMTAP	17	0	1
NMTAP	17	0	7
NMTAP	17	48	6
NMTAP	17	96	3
NMSTR	17	96	5
NMSCL	17	96	5	96	48	2
BRTAP	17	192	0
NMTAP	18	0	3
NMHLD	18	0	6	96
NMTAP	18	96	4
NMTAP	18	144	4
NMTAP	18	192	5
NMTAP	18	288	0
NMTAP	18	288	6
NMSTR	19	0	6
NMSCL	19	0	6	96	96	1
EXSTR	19	0	7
BRSXL	19	0	7	96	96	0
NMTAP	19	48	6
NMTAP	19	48	7
EXTAP	19	288	0
EXTAP	19	288	1
NMHLD	20	0	1	96
NMTAP	20	0	4
NMTAP	20	96	3
NMTAP	20	144	3
NMTAP	20	192	2
NMTAP	20	288	1
NMTAP	20	288	3
NMSTR	21	0	2
BRSCL	21	0	2	96	96	5
EXSTR	21	0	3
NMSXL	21	0	3	96	96	4
NMTAP	21	48	2
NMTAP	21	48	3
EXTAP	21	288	6
EXTAP	21	288	7
NMSTR	22	0	5
NMSI_	22	0	5	96	48	0
NMSI_	22	0	5	96	48	7
NMSTR	22	192	2
NMSI_	22	192	2	96	48	0
NMSI_	22	192	2	96	48	7
NMHLD	23	0	5	96
NMHLD	23	96	7	96
NMTAP	23	192	0
NMTAP	23	288	1
NMTAP	23	288	3
NMTAP	24	0	1
NMTAP	24	24	3
NMTAP	24	48	2
NMTAP	24	96	2
NMTAP	24	144	1
NMTAP	24	144	3
NMTAP	24	192	4
NMTAP	24	240	5
NMTAP	24	288	3
NMSTR	24	288	6
NMSI_	24	288	6	96	96	2
EXSTR	25	0	2
NMSXR	25	0	2	96	192	5
EXTAP	25	48	1
EXTAP	25	96	0
EXHLD	25	144	0	144
NMTAP	26	0	3
NMTAP	26	0	6
NMTAP	26	48	5
NMTAP	26	72	4
NMTAP	26	96	5
NMTAP	26	120	4
NMTAP	26	144	6
NMTAP	26	192	2
NMTAP	26	216	3
NMTAP	26	240	2
NMTAP	26	264	3
NMTAP	26	288	1
NMTAP	26	336	5
NMTAP	26	360	4
NMTAP	27	0	6
NMTAP	27	48	2
NMTAP	27	72	3
NMTAP	27	96	2
NMTAP	27	120	3
NMTAP	27	144	1
NMTAP	27	192	6
NMTAP	27	216	4
NMTAP	27	240	6
NMTAP	27	264	4
NMTAP	27	288	5
EXTAP	27	336	2
NMTAP	28	0	1
NMTAP	28	0	4
NMTAP	28	48	2
NMTAP	28	72	3
NMTAP	28	96	2
NMTAP	28	120	3
NMTAP	28	144	1
NMTAP	28	192	5
NMTAP	28	216	4
NMTAP	28	240	5
NMTAP	28	264	4
NMTAP	28	288	6
NMTAP	28	336	2
NMTAP	28	360	3
NMTAP	29	0	1
NMTAP	29	48	5
NMTAP	29	72	4
NMTAP	29	96	5
NMTAP	29	120	4
NMTAP	29	144	6
NMTAP	29	192	2
NMTAP	29	216	3
NMTAP	29	240	2
NMTAP	29	264	3
NMSTR	29	288	1
NMSI_	29	288	1	96	48	3
NMSI_	29	288	1	96	48	4
NMTAP	29	336	1
NMSTR	30	96	6
NMSI_	30	96	6	96	48	3
NMSI_	30	96	6	96	48	4
NMTAP	30	144	6
NMTAP	30	288	1
NMTAP	30	336	1
NMHLD	31	0	2	48
NMHLD	31	0	3	48
NMHLD	31	96	0	48
NMHLD	31	96	1	48
NMHLD	31	192	6	48
NMHLD	31	192	7	48
NMHLD	31	288	4	48
NMHLD	31	288	5	48
NMTAP	32	0	6
NMTAP	32	48	1
NMTAP	32	48	7
NMTAP	32	96	2
NMTAP	32	96	4
NMTAP	32	144	3
NMTAP	32	144	5
NMSTR	32	192	6
NMSI_	32	192	6	96	48	2
NMTAP	32	240	6
NMTAP	32	288	0
NMTAP	32	336	0
NMTAP	33	0	3
NMTAP	33	48	2
NMTAP	33	48	5
NMSTR	33	96	7
NMSCL	33	96	7	96	96	3
BRTAP	33	192	0
BRTAP	33	192	7
NMSTR	33	288	2
BRSCL	33	288	2	96	384	5
NMTTP	34	0	0	C	1	M1
NMTTP	35	0	4	E	0	M1
CNSCR	35	0	5	0	384	2
NMSTR	36	0	5
BRSSR	36	0	5	96	288	1
NMHLD	37	0	0	192
NMTAP	37	192	2
NMTAP	37	240	3
NMTAP	37	288	1
NMTAP	37	288	4
NMTAP	38	0	1
NMTAP	38	0	4
NMTAP	38	48	2
NMTAP	38	72	2
NMTAP	38	96	3
NMTAP	38	144	5
NMTAP	38	168	5
NMTAP	38	192	4
NMTAP	38	240	1
NMTAP	38	264	1
NMTAP	38	288	3
NMTAP	38	336	6
NMTAP	38	360	6
NMTAP	39	0	4
NMTAP	39	48	2
NMTAP	39	72	2
NMTAP	39	96	3
NMTAP	39	144	5
NMTAP	39	168	5
NMTAP	39	192	4
NMTAP	39	240	3
BRTAP	39	288	2
BRTAP	39	288	4
NMTAP	40	0	2
NMTAP	40	24	5
NMTAP	40	48	3
NMTAP	40	72	4
NMTAP	40	96	2
NMTAP	40	120	5
NMTAP	40	144	3
NMTAP	40	168	4
NMTAP	40	192	2
NMTAP	40	216	5
BRTAP	40	240	0
BRTAP	40	264	7
EXHLD	40	288	3	48
EXHLD	40	288	4	48
NMTAP	41	0	1
NMTAP	41	0	3
NMTAP	41	72	4
NMTAP	41	72	6
NMTAP	41	144	2
NMTAP	41	144	5
NMTAP	41	192	1
NMTAP	41	208	2
NMTAP	41	224	3
NMTAP	41	240	6
NMTAP	41	256	5
NMTAP	41	272	4
NMTAP	41	288	1
NMTAP	41	304	2
NMTAP	41	320	3
NMTAP	41	336	6
NMTAP	41	352	5
NMTAP	41	368	4
BRTAP	42	0	0
NMTAP	42	48	6
NMTAP	42	72	7
NMTAP	42	120	1
NMTAP	42	144	0
NMTAP	42	192	2
NMTAP	42	192	7
NMTAP	42	240	6
NMSTR	42	288	3
NMSI_	42	288	3	96	48	6
NMTAP	42	288	5
NMTAP	42	336	4
NMSTR	43	0	2
NMSI_	43	0	2	96	48	7
NMTAP	43	0	3
NMSTR	43	96	0
NMSCR	43	96	0	96	96	5
NMTAP	43	96	2
NMTAP	43	192	0
NMTAP	43	192	3
NMTAP	43	288	7
NMTAP	43	336	7
NMTAP	44	0	3
NMTAP	44	0	6
NMTAP	44	48	5
NMTAP	44	72	4
NMTAP	44	120	2
NMTAP	44	144	3
NMTAP	44	192	1
NMTAP	44	192	4
NMTAP	44	240	0
NMSTR	44	288	6
NMSCR	44	288	6	96	96	2
NMTAP	44	336	4
NMSTR	45	0	2
NMSCL	45	0	2	96	96	6
EXTAP	45	72	3
EXTAP	45	144	4
EXTAP	45	192	4
NMSTR	45	288	0
NMSI_	45	288	0	96	48	4
NMSTR	45	288	1
NMSI_	45	288	1	96	48	3
NMTAP	45	336	2
NMSTR	46	96	6
NMSI_	46	96	6	96	48	4
NMSTR	46	96	7
NMSI_	46	96	7	96	48	3
NMTAP	46	144	5
NMSTR	46	288	0
NMSCR	46	288	0	96	96	4
NMTAP	46	336	0
NMSTR	47	0	4
NMSCR	47	0	4	96	96	0
NMTAP	47	96	0
NMTAP	47	192	4
NMHLD	47	288	1	96
NMTAP	47	288	5
NMTAP	47	336	4
NMSTR	48	0	3
NMSI_	48	0	3	96	48	0
NMSTR	48	96	2
NMSXL	48	96	2	96	96	3
CNSI_	48	144	0	0	48	2
EXTAP	48	288	0
NMSTR	49	0	2
NMSXR	49	0	2	96	144	3
NMSTR	49	0	4
NMSXL	49	0	4	96	144	3
NMTAP	49	48	2
NMTAP	49	48	4
EXTAP	49	288	1
EXTAP	49	288	5
EXTAP	50	0	5
NMTAP	50	24	2
NMTAP	50	48	7
NMTAP	50	72	2
EXTAP	50	96	5
NMTAP	50	120	2
NMTAP	50	144	7
NMTAP	50	168	2
EXTAP	50	192	5
NMTAP	50	216	3
NMTAP	50	240	7
NMTAP	50	264	3
EXTAP	50	288	5
NMTAP	50	312	3
NMTAP	50	336	7
NMTAP	50	360	3
EXTAP	51	0	5
NMTAP	51	24	4
NMTAP	51	48	7
NMTAP	51	72	4
EXTAP	51	96	5
NMTAP	51	120	4
NMTAP	51	144	7
NMTAP	51	168	4
EXTAP	51	192	5
NMTAP	51	216	4
NMTAP	51	240	7
NMTAP	51	288	4
NMTAP	51	288	6
NMTAP	51	336	3
NMTAP	51	336	4
EXTAP	52	0	2
NMTAP	52	24	5
NMTAP	52	48	0
NMTAP	52	72	5
EXTAP	52	96	2
NMTAP	52	120	5
NMTAP	52	144	0
NMTAP	52	168	5
EXTAP	52	192	2
NMTAP	52	216	4
NMTAP	52	240	0
NMTAP	52	264	4
EXTAP	52	288	2
NMTAP	52	312	4
NMTAP	52	336	0
NMTAP	52	360	4
EXTAP	53	0	2
NMTAP	53	24	3
NMTAP	53	48	0
NMTAP	53	72	3
EXTAP	53	96	2
NMTAP	53	120	3
NMTAP	53	144	0
NMTAP	53	168	3
EXTAP	53	192	2
NMTAP	53	216	3
NMTAP	53	240	0
NMTAP	53	288	1
NMTAP	53	288	3
NMTAP	53	336	3
NMTAP	53	336	4
NMSTR	54	0	5
NMSCR	54	0	5	96	48	0
NMTAP	54	96	4
NMSTR	54	192	2
NMSCL	54	192	2	96	48	7
NMTAP	54	288	3
NMTAP	55	0	5
NMTAP	55	48	5
NMTAP	55	96	2
NMTAP	55	96	4
NMTAP	55	144	2
NMTAP	55	144	4
NMTAP	55	192	6
NMTAP	55	208	5
NMTAP	55	224	4
NMTAP	55	240	1
NMTAP	55	256	2
NMTAP	55	272	3
BRTAP	55	288	7
NMTAP	56	0	3
NMTAP	56	24	4
NMTAP	56	48	3
NMTAP	56	72	4
NMSTR	56	96	2
NMSXL	56	96	2	96	96	3
NMSLL	56	96	2	96	96	3
NMTAP	56	120	3
NMTAP	56	144	2
NMTAP	56	168	3
NMSTR	57	0	4
NMSXR	57	0	4	96	96	4
NMTAP	57	48	4
NMSTR	57	96	4
NMSXL	57	96	4	96	96	4
BRSTR	57	288	0
NMSCR	57	288	0	96	96	6
NMHLD	58	0	5	96
NMHLD	58	192	6	48
NMHLD	58	192	7	48
NMHLD	58	264	0	48
NMHLD	58	264	5	48
NMTAP	58	336	2
NMTAP	58	336	3
NMTAP	59	0	1
NMTAP	59	24	0
NMTAP	59	48	1
NMTAP	59	72	0
NMTAP	59	96	2
NMTAP	59	120	7
NMTAP	59	144	2
NMTAP	59	168	7
NMTAP	59	192	3
NMTAP	59	264	4
NMTAP	59	264	6
NMTAP	59	336	2
NMTAP	59	336	4
NMTAP	60	0	1
NMTAP	60	24	3
NMTAP	60	48	2
NMTAP	60	96	0
NMTAP	60	96	7
NMTAP	60	144	6
NMTAP	60	168	4
NMTAP	60	192	5
NMTAP	60	216	4
NMTAP	60	240	5
NMTAP	60	264	4
NMSTR	60	288	6
NMSCR	60	288	6	96	96	1
NMTAP	60	312	4
NMTAP	60	336	6
NMTAP	60	360	4
NMSTR	61	96	3
NMSLL	61	96	3	96	96	7
NMTAP	61	144	3
NMTAP	61	192	4
CNSI_	61	288	7	0	48	5
EXTAP	62	0	1
EXTAP	62	0	7
NMTAP	62	96	6
NMTAP	62	120	4
NMTAP	62	144	5
NMTAP	62	192	2
NMTAP	62	192	3
NMTAP	62	264	3
NMTAP	62	264	5
NMTAP	62	336	2
NMTAP	62	336	6
NMTAP	63	0	1
NMTAP	63	32	0
NMTAP	63	64	2
NMSTR	63	96	6
NMSUL	63	96	6	96	48	2
NMTAP	63	128	7
NMTAP	63	160	5
EXTAP	63	288	0
NMTAP	64	0	0
NMTAP	64	24	1
NMTAP	64	48	2
NMTAP	64	72	3
NMTAP	64	96	7
NMTAP	64	120	6
NMTAP	64	144	5
NMTAP	64	168	4
NMTTP	64	192	1	A	0	M1
NMTTP	64	204	2	E	0	M1
NMTTP	64	216	3	E	0	M1
NMTTP	64	228	3	A	0	M1
NMTTP	64	240	6	A	0	M1
NMTTP	64	252	6	E	0	M1
NMTTP	64	264	5	E	0	M1
NMTTP	64	276	4	A	0	M1
BRTAP	64	288	0
NMTAP	65	0	1
NMTAP	65	0	7
NMTAP	65	48	3
NMTAP	65	48	5
NMSTR	65	96	2
NMSI_	65	96	2	96	48	7
NMSTR	65	96	6
NMSI_	65	96	6	96	48	3
EXTAP	65	192	2
EXTAP	65	192	6
BRSTR	65	288	0
NMSCR	65	288	0	96	576	7
NMSTR	68	0	7
NMSCL	68	0	7	96	288	4
NMSTR	69	0	0
NMSCR	69	0	0	96	288	3
NMHLD	70	0	6	192
NMHLD	70	192	4	192
NMHLD	71	0	3	192
NMHLD	71	192	1	192
NMHLD	72	0	7	384
NMHLD	72	192	0	192
BRTAP	74	288	1
BRTAP	74	288	7
BRTAP	74	336	3
BRTAP	74	336	5
BRTAP	75	0	2
BRTAP	75	0	6
NMSTR	75	48	5
NMSI_	75	48	5	96	48	7
NMSTR	75	72	3
NMSI_	75	72	3	96	48	1
NMTAP	75	120	5
NMTAP	75	144	3
EXTAP	75	240	0
NMTAP	75	288	1
NMSTR	75	288	7
NMSI_	75	288	7	96	48	3
NMTAP	75	336	2
NMTAP	75	336	6
NMTAP	76	0	3
NMSTR	76	0	7
NMSCL	76	0	7	96	48	4
NMSCR	76	0	7	96	48	2
NMSTR	76	96	7
NMSF_	76	96	7	96	48	3
NMTAP	76	288	2
NMTAP	76	288	4
NMTAP	76	336	1
NMTAP	76	336	5
NMTAP	77	0	1
NMTAP	77	0	5
NMTAP	77	48	6
NMTAP	77	72	7
NMTAP	77	120	1
NMTAP	77	144	0
NMTAP	77	192	2
NMTAP	77	192	6
NMTAP	77	240	2
NMTAP	77	240	6
NMSTR	77	288	3
BRSCL	77	288	3	96	96	5
NMTAP	77	336	4
NMSTR	78	0	5
BRSCR	78	0	5	96	96	3
EXTAP	78	72	3
EXTAP	78	144	4
EXTAP	78	192	4
NMSTR	78	288	4
NMSV_	78	288	4	96	48	1
NMSTR	78	288	5
NMSI_	78	288	5	96	48	0
NMTAP	78	336	6
NMTAP	79	0	4
NMTAP	79	0	5
NMSTR	79	96	2
NMSI_	79	96	2	96	48	7
NMSTR	79	96	3
NMSV_	79	96	3	96	48	6
NMTAP	79	144	1
NMTAP	79	192	2
NMTAP	79	192	3
NMTAP	79	288	4
NMTAP	79	288	5
NMTAP	79	336	4
NMTAP	79	336	5
NMTAP	80	0	3
NMTAP	80	0	6
NMTAP	80	48	2
NMSTR	80	96	1
NMSV_	80	96	1	96	48	4
NMSTR	80	96	7
NMSCL	80	96	7	96	48	4
NMTAP	80	144	1
NMTAP	80	144	7
NMSTR	80	288	2
NMSI_	80	288	2	96	48	0
NMTAP	80	288	6
NMSTR	81	0	2
NMSXL	81	0	2	96	96	0
NMTAP	81	192	7
NMSTR	81	288	1
BRSCR	81	288	1	96	24	2
NMSTR	81	288	7
BRSCL	81	288	7	96	24	6
NMSTR	82	0	1
BRSV_	82	0	1	96	48	4
NMSTR	82	0	7
BRSV_	82	0	7	96	48	4
CNSI_	82	24	2	0	24	4
CNSI_	82	24	6	0	24	4
NMTAP	82	96	1
NMTAP	82	96	7
BRTAP	82	192	1
BRTAP	82	192	7
NMSTR	82	288	0
NMSI_	82	288	0	96	48	6
NMSTR	83	0	0
NMSI_	83	0	0	96	48	2
NMTAP	83	0	3
NMSTR	83	96	0
NMSI_	83	96	0	96	48	6
NMTAP	83	96	4
NMTAP	83	144	4
NMSTR	83	192	0
NMSI_	83	192	0	96	48	2
NMTAP	83	192	4
NMSTR	83	288	0
NMSI_	83	288	0	96	48	6
NMTAP	83	288	3
NMTAP	83	336	3
NMSTR	84	0	0
NMSI_	84	0	0	96	48	2
NMTAP	84	0	3
NMTAP	84	96	0
NMTAP	84	96	4
NMTAP	84	144	5
NMTAP	84	192	3
NMTAP	84	192	6
NMSTR	84	288	7
NMSI_	84	288	7	96	48	1
NMTAP	85	0	4
NMSTR	85	0	7
NMSI_	85	0	7	96	48	5
NMTAP	85	96	3
NMSTR	85	96	7
NMSI_	85	96	7	96	48	1
NMTAP	85	144	3
NMTAP	85	192	3
NMSTR	85	192	7
NMSI_	85	192	7	96	48	5
NMTAP	85	288	4
NMSTR	85	288	7
NMSI_	85	288	7	96	48	1
NMTAP	85	336	4
NMTAP	86	0	4
NMTAP	86	0	7
NMTAP	86	96	3
NMTAP	86	96	7
NMTAP	86	192	1
NMTAP	86	208	2
NMTAP	86	224	3
NMTAP	86	240	6
NMTAP	86	256	5
NMTAP	86	272	4
NMTAP	86	288	1
NMTAP	86	304	2
NMTAP	86	320	3
NMTAP	86	336	6
NMTAP	86	352	5
NMTAP	86	368	4
BRTAP	87	0	0
NMTAP	87	96	1
NMTAP	87	120	0
NMTAP	87	144	1
NMTAP	87	192	2
NMTAP	87	192	7
NMTAP	87	264	4
NMTAP	87	264	6
NMTAP	87	336	1
NMTAP	87	336	3
BRTAP	88	0	2
NMTAP	88	32	1
NMTAP	88	64	0
BRTAP	88	96	7
NMTAP	88	128	6
NMTAP	88	160	5
BRSTR	88	192	4
NMSI_	88	192	4	96	48	0
NMTAP	88	288	4
NMTAP	88	288	7
NMTAP	89	0	1
NMTAP	89	24	0
NMTAP	89	48	1
NMTAP	89	72	0
NMTAP	89	96	2
NMTAP	89	120	7
NMTAP	89	144	2
NMTAP	89	168	7
NMTAP	89	192	3
NMTAP	89	204	2
NMTAP	89	216	1
NMTAP	89	228	0
NMTAP	89	240	7
NMTAP	89	252	6
NMTAP	89	264	5
NMTAP	89	276	4
NMTAP	89	288	3
NMTAP	90	0	2
NMTAP	90	0	5
NMTAP	90	48	2
NMTAP	90	48	5
BRSTR	90	96	1
NMSCR	90	96	1	96	48	4
BRSTR	90	96	4
NMSCR	90	96	4	96	48	7
BRTAP	90	192	1
BRTAP	90	192	4

T_REC_TAP	541
T_REC_BRK	23
T_REC_XTP	39
T_REC_BXX	0
T_REC_HLD	25
T_REC_XHO	3
T_REC_BHO	0
T_REC_BXH	0
T_REC_STR	84
T_REC_BST	5
T_REC_XST	3
T_REC_XBS	0
T_REC_TTP	10
T_REC_THO	0
T_REC_SLD	88
T_REC_BSL	12
T_REC_ALL	833
T_NUM_TAP	677
T_NUM_BRK	40
T_NUM_HLD	28
T_NUM_SLD	88
T_NUM_ALL	833
T_JUDGE_TAP	705
T_JUDGE_HLD	61
T_JUDGE_SLD	100
T_JUDGE_ALL	866
TTM_EACHPAIRS	150
TTM_SCR_TAP	338500
TTM_SCR_BRK	104000
TTM_SCR_HLD	28000
TTM_SCR_SLD	132000
TTM_SCR_ALL	602500
TTM_SCR_S	580550
TTM_SCR_SS	598500
TTM_RAT_ACV	10066

