VERSION	0.00.00	1.04.00
FES_MODE	0
BPM_DEF	165.000	165.000	165.000	165.000
MET_DEF	4	4
RESOLUTION	384
CLK_DEF	384
COMPATIBLE_CODE	MA2

BPM	0	0	165.000
MET	0	0	4	4

EXTAP	1	288	0
EXTAP	1	288	7
NMSTR	2	0	0
NMSI_	2	0	0	96	48	4
NMSTR	2	0	1
NMSI_	2	0	1	96	48	4
NMSTR	2	192	6
NMSI_	2	192	6	96	48	3
NMSTR	2	192	7
NMSI_	2	192	7	96	48	3
NMTAP	3	0	2
NMTAP	3	0	3
NMTAP	3	96	0
NMTAP	3	96	1
NMTAP	3	192	6
NMTAP	3	192	7
NMTAP	3	288	4
NMTAP	3	288	5
NMTAP	4	0	4
NMSTR	4	0	5
NMSI_	4	0	5	96	48	0
NMSTR	4	192	2
NMSI_	4	192	2	96	48	7
NMTAP	4	192	3
NMSTR	5	0	0
NMSV_	5	0	0	96	96	3
NMSTR	5	0	6
NMSV_	5	0	6	96	96	3
NMHLD	5	288	2	96
NMTAP	6	0	0
NMHLD	6	96	5	96
NMTAP	6	192	7
NMSTR	6	288	0
NMSCR	6	288	0	96	96	3
NMSTR	6	288	4
NMSCR	6	288	4	96	96	7
BRTAP	7	192	3
BRTAP	7	192	7
NMTAP	7	288	4
NMTAP	7	288	6
NMTAP	8	0	2
NMTAP	8	0	3
NMTAP	8	96	0
NMTAP	8	96	1
NMTAP	8	192	6
NMTAP	8	192	7
NMSTR	8	288	4
NMSXL	8	288	4	96	192	4
NMSXR	8	288	4	96	192	4
NMTAP	8	288	5
BRTAP	9	288	2
BRTAP	9	288	6
NMTAP	10	0	1
NMTAP	10	96	0
NMTAP	10	96	1
NMTAP	10	192	7
NMTAP	10	288	0
NMTAP	10	288	6
NMTAP	11	0	5
NMTAP	11	48	5
NMTAP	11	96	7
NMTAP	11	144	7
NMTAP	11	192	6
NMTAP	11	288	0
NMTAP	11	288	5
NMTAP	12	0	6
NMTAP	12	96	6
NMTAP	12	96	7
NMTAP	12	192	0
NMTAP	12	288	1
NMTAP	12	288	7
NMTAP	13	0	1
NMTAP	13	48	1
NMTAP	13	96	0
NMTAP	13	144	0
NMSTR	13	192	2
NMSCR	13	192	2	96	48	5
BRTAP	14	0	7
NMTAP	14	96	7
NMHLD	14	192	6	72
NMHLD	14	264	5	72
NMTAP	14	336	4
NMSTR	15	0	4
NMSI_	15	0	4	96	48	7
NMSTR	15	96	0
NMSI_	15	96	0	96	48	3
NMTAP	15	192	6
NMTAP	15	288	3
NMTAP	15	288	5
NMTAP	16	0	2
NMTAP	16	48	2
NMTAP	16	96	7
NMTAP	16	144	7
NMTAP	16	192	0
NMTAP	16	240	0
NMTAP	16	288	5
NMTAP	17	0	3
NMTAP	17	0	4
NMTAP	17	48	3
NMTAP	17	48	4
NMTAP	17	96	3
NMTAP	17	96	4
BRTAP	17	192	1
BRTAP	17	192	6
NMSTR	18	0	1
NMSI_	18	0	1	96	96	4
NMSTR	18	192	5
NMSCL	18	192	5	96	96	2
NMTAP	19	0	1
NMTAP	19	48	1
NMTAP	19	96	0
NMTAP	19	192	7
NMTAP	19	288	6
NMSTR	20	0	6
NMSI_	20	0	6	96	96	3
NMSTR	20	192	2
NMSCR	20	192	2	96	96	5
NMTAP	21	0	6
NMTAP	21	48	6
NMTAP	21	96	7
NMTAP	21	192	0
NMTAP	21	192	7
NMSTR	22	0	7
NMSCL	22	0	7	96	96	4
NMSTR	22	192	0
NMSCR	22	192	0	96	96	3
NMHLD	23	0	4	96
NMHLD	23	96	5	96
NMHLD	23	192	6	96
NMTAP	23	288	7
NMTAP	24	0	6
NMTAP	24	48	6
NMTAP	24	96	7
NMTAP	24	192	1
NMTAP	24	240	1
NMTAP	24	288	0
NMSTR	25	0	2
NMSCR	25	0	2	96	96	6
NMSUR	25	0	2	96	96	7
NMTAP	25	288	6
NMTAP	25	288	7
NMTAP	26	0	1
NMTAP	26	48	1
NMTAP	26	96	0
NMTAP	26	96	1
NMTAP	26	192	2
NMTAP	26	240	2
NMTAP	26	288	2
NMTAP	26	288	3
NMTAP	27	0	1
NMTAP	27	48	1
NMTAP	27	96	0
NMTAP	27	144	0
NMSTR	27	192	2
NMSI_	27	192	2	96	48	4
NMTAP	28	0	6
NMTAP	28	48	6
NMTAP	28	96	6
NMTAP	28	96	7
NMTAP	28	192	5
NMTAP	28	240	5
NMTAP	28	288	4
NMTAP	28	288	5
NMTAP	29	0	6
NMTAP	29	48	6
NMTAP	29	96	7
NMTAP	29	144	7
NMTAP	29	192	5
NMTAP	29	288	0
NMTAP	29	288	4
NMSTR	30	0	0
NMSCR	30	0	0	96	96	3
NMSTR	30	192	7
NMSCL	30	192	7	96	96	4
NMHLD	31	0	3	96
NMHLD	31	96	2	96
NMHLD	31	192	1	96
NMTAP	31	288	0
NMTAP	32	0	1
NMTAP	32	48	0
NMTAP	32	96	2
NMTAP	32	96	7
NMTAP	32	192	6
NMTAP	32	240	7
NMTAP	32	288	0
NMTAP	32	288	5
NMTAP	33	0	2
BRTAP	33	0	3
NMTAP	33	96	0
BRTAP	33	96	7
BRTAP	33	192	1
BRTAP	33	192	6
NMHLD	34	0	2	384
NMTTP	34	192	3	E	0	M1
NMHLD	35	0	5	384
NMTTP	35	192	5	E	0	M1
NMHLD	36	0	1	384
NMTTP	36	192	1	E	0	M1
NMHLD	37	0	6	192
NMTTP	37	192	0	E	1	M1
NMHLD	38	0	2	384
NMTTP	38	96	2	E	0	M1
NMTTP	38	192	3	E	0	M1
NMTTP	38	288	4	E	0	M1
NMHLD	39	0	5	384
NMTTP	39	96	6	E	0	M1
NMTTP	39	192	5	E	0	M1
NMTTP	39	288	4	E	0	M1
NMTAP	40	0	3
NMTAP	40	48	3
NMTAP	40	96	5
NMTAP	40	144	5
NMTAP	40	192	1
NMTAP	40	288	0
NMTAP	40	288	6
NMTTP	41	0	5	B	0	M1
NMTTP	41	0	5	E	0	M1
NMTTP	41	0	6	E	1	M1
NMTTP	41	72	2	B	0	M1
NMTTP	41	72	2	E	1	M1
NMTTP	41	72	3	E	0	M1
NMTTP	41	144	0	C	1	M1
EXTAP	41	288	0
EXTAP	41	288	7
NMHLD	42	0	6	144
NMSTR	42	72	7
NMSCR	42	72	7	96	96	4
EXTAP	42	240	7
EXTAP	42	288	7
NMTAP	43	0	4
NMTAP	43	0	5
NMTAP	43	48	6
NMTAP	43	96	0
NMTAP	43	96	7
NMTAP	43	192	2
NMTAP	43	192	3
NMTAP	43	240	1
NMTAP	43	288	0
NMTAP	43	288	7
NMHLD	44	0	1	144
NMSTR	44	72	0
NMSCL	44	72	0	96	96	3
NMTAP	44	240	2
NMSTR	44	288	2
NMSXL	44	288	2	96	192	5
NMSXR	44	288	2	96	192	7
NMSTR	45	288	0
NMSV_	45	288	0	96	48	3
NMSTR	45	288	6
NMSI_	45	288	6	96	48	3
NMSTR	46	96	1
NMSI_	46	96	1	96	48	4
NMSTR	46	96	7
NMSV_	46	96	7	96	48	4
NMTAP	46	288	5
NMTAP	46	336	5
NMTAP	47	0	3
NMTAP	47	48	3
NMTAP	47	96	4
BRTAP	47	192	2
BRTAP	47	192	6
NMTAP	47	288	1
NMTAP	47	336	1
NMHLD	48	0	1	96
NMHLD	48	96	7	96
NMHLD	48	192	5	96
NMSTR	48	288	3
NMSXL	48	288	3	96	192	3
NMSXR	48	288	3	96	192	3
BRTAP	49	288	1
BRTAP	49	288	5
NMTAP	50	0	0
NMTAP	50	48	0
NMTAP	50	96	3
NMTAP	50	144	3
NMTAP	50	192	2
NMTAP	50	240	2
NMTAP	50	288	5
NMTAP	50	336	5
NMTAP	51	0	4
NMTAP	51	48	4
NMTAP	51	96	7
NMTAP	51	144	7
NMTAP	51	192	1
NMTAP	51	288	2
NMTAP	51	288	6
NMTAP	52	0	7
NMTAP	52	48	7
NMTAP	52	96	4
NMTAP	52	144	4
NMTAP	52	192	5
NMTAP	52	240	5
NMTAP	52	288	2
NMTAP	52	336	2
NMTAP	53	0	3
NMTAP	53	48	3
NMTAP	53	96	0
NMTAP	53	144	0
NMTAP	53	192	7
NMSTR	53	288	0
NMSUL	53	288	0	96	48	3
NMSTR	53	288	6
NMSCL	53	288	6	96	48	3
NMSTR	54	96	1
NMSCR	54	96	1	96	48	4
NMSTR	54	96	7
NMSUR	54	96	7	96	48	4
NMTAP	54	288	6
NMTAP	54	336	6
NMTAP	55	0	4
NMTAP	55	48	4
NMTAP	55	96	5
BRTAP	55	192	3
BRTAP	55	192	7
NMTAP	55	288	1
NMTAP	55	336	1
NMTAP	56	0	0
NMTAP	56	0	2
NMTAP	56	96	6
NMTAP	56	144	6
NMTAP	56	192	5
NMTAP	56	192	7
NMSTR	56	288	3
NMSXR	56	288	3	96	192	4
NMSTR	56	288	4
NMSXL	56	288	4	96	192	3
NMTAP	57	288	2
NMTAP	57	288	5
BRTAP	58	0	0
BRTAP	58	0	7
NMHLD	58	192	1	72
NMHLD	58	264	0	72
NMTAP	58	336	2
NMTAP	59	0	7
NMTAP	59	48	7
NMTAP	59	96	0
NMTAP	59	144	0
NMHLD	59	192	6	72
NMHLD	59	264	7	72
NMTAP	59	336	5
NMTAP	60	0	0
NMTAP	60	48	0
NMTAP	60	96	3
NMTAP	60	144	2
NMTAP	60	192	5
NMTAP	60	240	5
NMTAP	60	288	4
NMTAP	60	336	7
NMSTR	61	0	1
NMSI_	61	0	1	96	48	5
NMSTR	61	96	7
NMSCL	61	96	7	96	72	4
CNSUL	61	264	4	0	120	3
BRTAP	62	0	0
NMTAP	62	96	0
NMHLD	62	192	1	72
NMHLD	62	264	2	72
NMTAP	62	336	3
NMSTR	63	0	3
NMSI_	63	0	3	96	48	0
NMSTR	63	96	7
NMSI_	63	96	7	96	48	4
NMTAP	63	192	1
NMTAP	63	288	2
NMTAP	63	288	4
NMTAP	64	0	5
NMTAP	64	48	6
NMTAP	64	96	7
NMTAP	64	144	0
NMTAP	64	192	1
NMTAP	64	240	2
NMTAP	64	288	3
NMTAP	64	288	4
NMTAP	65	0	2
NMTAP	65	0	5
NMTAP	65	48	2
NMTAP	65	48	5
NMTAP	65	96	2
NMTAP	65	96	5
BRTAP	65	192	0
BRTAP	65	192	7
NMTTP	66	0	1	E	0	M1
NMTTP	67	0	7	E	0	M1
NMTTP	68	0	2	E	0	M1
NMTTP	69	0	6	E	0	M1
NMTTP	70	0	1	B	0	M1
NMTTP	70	0	2	B	0	M1
NMTTP	70	192	5	B	0	M1
NMTTP	70	192	6	B	0	M1
NMTTP	71	0	3	E	0	M1
NMTTP	71	96	4	E	0	M1
NMTTP	71	192	5	E	0	M1
NMTTP	72	0	6	B	0	M1
NMTTP	72	0	6	E	0	M1
NMTTP	72	192	1	B	0	M1
NMTTP	72	192	2	E	0	M1
NMTTP	73	0	3	B	0	M1
NMTTP	73	0	4	B	0	M1
NMTTP	73	0	4	E	0	M1
NMSTR	74	0	3
NMSF_	74	0	3	96	96	7
EXTAP	74	288	0
EXTAP	74	288	6
BRTAP	75	0	0
BRTAP	75	0	1
NMHLD	75	72	2	72
NMSTR	75	72	3
NMSCL	75	72	3	96	96	6
NMTAP	75	240	3
NMTAP	75	288	3
NMTAP	76	0	4
NMTAP	76	0	5
NMTAP	76	48	6
NMTAP	76	96	0
NMTAP	76	96	7
NMTAP	76	144	1
NMTAP	76	192	2
NMTAP	76	192	3
NMTAP	76	288	0
NMTAP	76	288	5
NMTAP	77	0	6
NMTAP	77	0	7
NMSTR	77	72	4
NMSCR	77	72	4	96	96	1
NMHLD	77	72	5	72
NMTAP	77	240	3
NMSTR	77	288	3
NMSUR	77	288	3	96	192	6
NMSXR	77	288	3	96	192	7
NMSTR	78	288	4
BRSI_	78	288	4	96	48	0
NMTAP	78	288	5
BXTAP	79	0	7
NMTAP	79	96	2
NMSTR	79	96	3
BRSI_	79	96	3	96	48	7
BXTAP	79	192	0
NMTAP	79	288	6
NMTAP	79	336	6
NMTAP	80	0	4
NMTAP	80	48	4
NMTAP	80	96	5
BRTAP	80	192	2
BRTAP	80	192	7
NMTAP	80	288	1
NMTAP	80	336	1
NMSTR	81	0	0
NMSCL	81	0	0	96	48	5
NMSTR	81	0	1
NMSCR	81	0	1	96	48	4
NMSTR	81	192	6
NMSCL	81	192	6	96	48	3
NMSTR	81	192	7
NMSCR	81	192	7	96	48	2
NMTTP	82	0	3	B	0	M1
NMTTP	82	0	4	B	0	M1
NMTTP	82	0	4	E	0	M1
NMTTP	82	96	0	E	0	M1
NMTTP	82	96	0	A	0	M1
NMTTP	82	96	1	D	0	M1
NMTTP	82	96	7	A	0	M1
NMTTP	82	96	7	D	0	M1
NMTTP	82	192	1	A	0	M1
NMTTP	82	192	2	B	0	M1
NMTTP	82	192	2	E	0	M1
NMTTP	82	192	5	B	1	M1
NMTTP	82	192	6	E	0	M1
NMTTP	82	192	6	A	0	M1
NMTAP	83	0	0
NMHLD	83	0	7	96
NMTAP	83	96	4
NMTAP	83	192	6
NMHLD	83	192	7	96
NMTAP	83	288	3
NMTAP	84	0	0
NMTAP	84	48	0
NMTAP	84	96	2
NMTAP	84	144	2
NMTAP	84	192	4
NMTAP	84	288	4
NMTAP	84	288	5
NMTAP	85	0	6
NMHLD	85	0	7	96
NMTAP	85	96	3
NMHLD	85	192	0	96
NMTAP	85	192	1
NMTAP	85	288	4
NMTAP	86	0	7
NMTAP	86	48	7
NMTAP	86	96	3
NMTAP	86	144	3
NMSTR	86	192	3
NMSI_	86	192	3	96	48	0
NMSTR	86	192	5
NMSI_	86	192	5	96	48	0
BRTAP	87	0	1
BRTAP	87	0	7
NMTAP	87	96	1
NMTAP	87	96	7
NMHLD	87	192	2	72
NMHLD	87	264	1	72
NMTAP	87	336	0
NMSTR	88	0	0
NMSCR	88	0	0	96	48	3
NMSTR	88	96	4
NMSCR	88	96	4	96	48	7
NMTAP	88	192	2
NMTAP	88	288	1
NMTAP	88	288	7
NMTAP	89	0	6
NMTAP	89	48	6
NMTAP	89	96	4
NMTAP	89	144	4
NMTAP	89	192	2
NMTAP	89	240	2
NMTAP	89	288	0
NMTAP	90	0	0
NMTAP	90	0	7
NMTAP	90	48	0
NMTAP	90	48	7
NMTAP	90	96	0
NMTAP	90	96	7
BRSTR	90	192	2
NMSXL	90	192	2	96	168	3
NMSLL	90	192	2	96	168	3
BRTAP	90	192	5

T_REC_TAP	282
T_REC_BRK	29
T_REC_XTP	8
T_REC_BXX	2
T_REC_HLD	35
T_REC_XHO	0
T_REC_BHO	0
T_REC_BXH	0
T_REC_STR	56
T_REC_BST	1
T_REC_XST	0
T_REC_XBS	0
T_REC_TTP	49
T_REC_THO	0
T_REC_SLD	61
T_REC_BSL	2
T_REC_ALL	525
T_NUM_TAP	395
T_NUM_BRK	34
T_NUM_HLD	35
T_NUM_SLD	61
T_NUM_ALL	525
T_JUDGE_TAP	427
T_JUDGE_HLD	104
T_JUDGE_SLD	63
T_JUDGE_ALL	594
TTM_EACHPAIRS	92
TTM_SCR_TAP	197500
TTM_SCR_BRK	88400
TTM_SCR_HLD	35000
TTM_SCR_SLD	91500
TTM_SCR_ALL	412400
TTM_SCR_S	396750
TTM_SCR_SS	409000
TTM_RAT_ACV	10083

