VERSION	0.00.00	1.04.00
FES_MODE	0
BPM_DEF	175.000	175.000	175.000	175.000
MET_DEF	4	4
RESOLUTION	384
CLK_DEF	384
COMPATIBLE_CODE	MA2

BPM	0	0	175.000
MET	0	0	4	4
MET	37	0	4	3
MET	61	0	4	4

NMSTR	5	0	3
NMSXR	5	0	3	96	384	4
NMSTR	6	0	4
NMSCR	6	0	4	96	288	2
NMSTR	7	0	4
NMSXL	7	0	4	96	384	3
NMSTR	8	0	3
NMSCL	8	0	3	96	288	5
NMHLD	9	0	1	384
NMTTP	9	96	2	E	0	M1
NMTTP	9	192	3	E	0	M1
NMTTP	9	288	4	E	0	M1
NMHLD	10	0	3	384
NMTTP	10	96	3	E	0	M1
NMTTP	10	192	4	E	0	M1
NMTTP	10	288	5	E	0	M1
NMHLD	11	0	5	384
NMTTP	11	96	4	E	0	M1
NMTTP	11	192	5	E	0	M1
NMTTP	11	288	6	E	0	M1
NMHLD	12	0	7	384
NMTTP	12	96	6	B	0	M1
NMTTP	12	192	4	E	0	M1
NMTTP	12	288	1	B	0	M1
EXSTR	13	0	0
NMSI_	13	0	0	96	48	4
NMHLD	13	96	5	384
NMTAP	13	240	4
NMTAP	13	336	6
NMTAP	14	48	4
NMHLD	14	96	4	144
NMTAP	14	240	5
NMTAP	14	288	3
NMTAP	14	288	6
NMTAP	15	0	0
NMSTR	15	0	7
NMSI_	15	0	7	96	48	3
NMHLD	15	96	2	384
NMTAP	15	240	3
NMTAP	15	336	1
NMTAP	16	48	3
NMHLD	16	96	3	144
NMTAP	16	240	2
NMTAP	16	288	5
NMTAP	16	312	4
NMSTR	17	0	6
NMSI_	17	0	6	96	48	2
NMTAP	17	0	7
NMHLD	17	96	1	480
NMTAP	17	240	0
NMTAP	17	336	2
NMTAP	18	48	7
NMHLD	18	96	7	96
NMTAP	18	240	1
NMTAP	18	240	7
NMSTR	18	288	2
NMSI_	18	288	2	96	48	7
NMSTR	18	288	6
NMSI_	18	288	6	96	48	3
EXTAP	19	0	2
EXTAP	19	0	6
NMHLD	19	96	1	96
NMHLD	19	96	5	96
NMTAP	19	240	1
NMTAP	19	240	5
NMTAP	19	336	2
NMTAP	19	336	3
NMTAP	20	0	3
NMTAP	20	0	4
NMTAP	20	48	5
NMTAP	20	72	4
NMTAP	20	96	5
NMTAP	20	120	4
NMTAP	20	144	6
NMTAP	20	192	2
NMTAP	20	216	3
NMTAP	20	240	1
NMTAP	20	288	0
NMTAP	20	288	7
BXTAP	20	312	1
BXTAP	20	312	6
EXSTR	21	0	5
NMSUL	21	0	5	96	192	3
NMTAP	21	96	3
NMTAP	21	144	3
NMTAP	21	240	1
NMTAP	21	288	1
NMHLD	22	0	2	144
NMTAP	22	48	4
NMTAP	22	96	6
NMSTR	22	144	0
NMSCL	22	144	0	96	48	5
NMTAP	22	240	3
NMTAP	22	288	1
NMTAP	23	0	0
NMSTR	23	0	3
NMSI_	23	0	3	96	48	7
NMTAP	23	96	2
NMSTR	23	144	0
NMSI_	23	144	0	96	48	4
NMTAP	23	240	4
CNSCL	23	288	4	0	48	3
NMHLD	23	288	6	144
CNSI_	23	336	3	0	48	7
NMTAP	24	48	7
NMTAP	24	96	6
NMTAP	24	144	0
NMTAP	24	144	5
NMTAP	24	240	1
NMTAP	24	288	3
NMTAP	24	336	2
NMTAP	25	0	1
NMHLD	25	0	5	96
NMTAP	25	96	4
NMTAP	25	144	3
NMHLD	25	144	7	96
NMTAP	25	240	0
NMHLD	25	288	1	96
NMTAP	25	288	5
NMTAP	26	0	3
NMTAP	26	48	2
NMTAP	26	96	1
NMTAP	26	96	4
NMTAP	26	144	5
NMTAP	26	192	3
NMSTR	26	192	6
NMSUL	26	192	6	96	48	2
NMTAP	26	240	7
NMTAP	26	336	1
NMHLD	27	0	1	96
NMTAP	27	96	3
NMHLD	27	144	3	96
NMTAP	27	240	5
NMSTR	27	288	5
NMSCR	27	288	5	96	240	3
NMTAP	28	48	4
NMTAP	28	96	5
NMTAP	28	144	6
NMTAP	28	192	7
NMTAP	28	240	0
NMTAP	28	288	1
EXTAP	28	336	2
EXTAP	28	336	3
BRSTR	29	0	0
NMSI_	29	0	0	96	48	4
NMTAP	29	96	4
NMTAP	29	120	5
NMSTR	29	144	6
NMSCL	29	144	6	96	48	3
NMTAP	29	240	2
NMTAP	29	264	1
NMHLD	29	288	0	240
NMTAP	30	0	3
NMTAP	30	48	3
NMTAP	30	96	5
NMSTR	30	144	7
NMSI_	30	144	7	96	48	3
NMTAP	30	240	4
NMTAP	30	288	0
NMSTR	31	0	1
NMSI_	31	0	1	96	48	5
NMTAP	31	0	5
NMTAP	31	96	7
NMSTR	31	144	6
NMSI_	31	144	6	96	48	3
NMTAP	31	240	3
NMHLD	31	288	2	144
CNSCR	31	288	3	0	48	4
CNSI_	31	336	4	0	48	1
NMTAP	32	48	0
NMTAP	32	96	2
NMTAP	32	144	1
NMTAP	32	144	3
NMTAP	32	240	4
NMTAP	32	240	6
NMTAP	32	288	7
NMTAP	32	336	7
NMSTR	33	0	1
NMSCR	33	0	1	96	48	4
NMTAP	33	0	5
NMTAP	33	96	4
NMTAP	33	120	5
NMSTR	33	144	6
NMSI_	33	144	6	96	48	2
NMTAP	33	240	2
NMTAP	33	264	1
NMSTR	33	288	0
NMSI_	33	288	0	96	48	4
NMTAP	34	0	4
NMTAP	34	24	5
EXTAP	34	48	6
EXSTR	34	96	6
NMSI_	34	96	6	96	48	3
EXSTR	34	96	7
NMSI_	34	96	7	96	48	3
EXTAP	34	144	0
NMTAP	34	288	1
NMTAP	34	312	1
NMTAP	34	336	0
NMTAP	35	0	2
NMHLD	35	0	6	96
NMTAP	35	96	7
NMHLD	35	144	1	96
NMTAP	35	144	5
NMTAP	35	240	0
NMTAP	35	288	2
NMSTR	35	288	6
NMSI_	35	288	6	96	48	3
NMTAP	36	0	0
NMTAP	36	48	0
NMTAP	36	96	2
NMTAP	36	120	3
NMTAP	36	144	2
NMTAP	36	192	1
NMTAP	36	192	4
NMTAP	36	240	6
NMTAP	36	264	4
NMTAP	36	288	6
NMTAP	36	312	4
NMTAP	36	336	7
BRTAP	37	0	1
BRTAP	37	0	5
NMTAP	37	96	5
NMHLD	37	192	3	192
NMTAP	37	192	5
NMTAP	37	288	4
NMTAP	38	0	4
NMTAP	38	96	2
NMTAP	38	96	4
NMHLD	38	192	1	96
NMTAP	38	192	3
NMTAP	38	288	3
NMSTR	39	0	1
NMSXL	39	0	1	96	384	0
NMTAP	39	0	3
NMTAP	39	96	4
NMTAP	39	192	4
NMTAP	39	288	4
NMTAP	40	0	4
NMTAP	40	96	4
NMHLD	40	192	1	192
NMTAP	40	192	4
NMTAP	40	288	3
NMTAP	41	0	3
NMHLD	41	96	0	96
NMTAP	41	96	3
NMTAP	41	192	2
NMTAP	41	240	0
NMTAP	41	288	2
NMHLD	41	336	1	144
NMTAP	42	0	2
NMTAP	42	96	3
NMHLD	42	192	2	384
NMTAP	42	192	3
NMTAP	42	288	3
BRTAP	43	0	4
NMTAP	43	96	4
NMTAP	43	192	4
NMTAP	43	288	3
NMHLD	43	288	5	192
NMTAP	44	0	3
NMTAP	44	96	3
NMTAP	44	192	4
NMHLD	44	240	6	144
NMTAP	44	288	4
NMTAP	45	0	4
NMTAP	45	96	5
NMHLD	45	96	7	96
NMTAP	45	192	5
NMHLD	45	240	6	96
NMTAP	45	288	5
NMTAP	46	0	4
NMSTR	46	0	5
NMSXL	46	0	5	96	384	4
NMTAP	46	96	4
NMTAP	46	192	4
NMTAP	46	288	3
NMTAP	47	0	3
NMSTR	47	96	3
NMSCL	47	96	3	96	480	4
NMTAP	47	192	4
NMTAP	47	288	4
NMTAP	48	0	4
NMTAP	48	96	3
NMTAP	48	192	3
NMTAP	48	288	3
BRSTR	49	0	1
NMSI_	49	0	1	96	48	5
BRTAP	49	0	6
NMTAP	49	96	7
NMTAP	49	144	7
NMTAP	49	192	0
NMSTR	49	192	6
NMSI_	49	192	6	96	72	3
NMTTP	49	288	0	C	0	M1
CNSI_	49	360	3	0	72	0
NMTTP	50	0	1	D	0	M1
CNSI_	50	48	0	0	72	5
NMTTP	50	96	3	D	0	M1
NMTAP	50	192	0
NMSTR	50	192	7
NMSI_	50	192	7	96	48	3
NMTAP	50	288	1
NMTAP	50	336	1
NMSTR	51	0	2
NMSI_	51	0	2	96	72	7
NMTAP	51	0	4
NMTTP	51	96	0	C	0	M1
CNSI_	51	168	7	0	72	4
NMTTP	51	192	5	D	0	M1
CNSI_	51	240	4	0	72	1
NMTTP	51	288	7	D	0	M1
NMSTR	52	0	0
NMSI_	52	0	0	96	48	4
NMTAP	52	0	4
NMTAP	52	96	6
NMTAP	52	144	6
NMTAP	52	192	3
NMSTR	52	192	5
NMSI_	52	192	5	96	72	2
NMTTP	52	288	0	C	0	M1
CNSI_	52	360	2	0	72	7
NMTTP	53	0	1	D	0	M1
CNSI_	53	48	7	0	72	4
NMTTP	53	96	3	D	0	M1
NMTAP	53	192	2
NMSTR	53	192	6
NMSI_	53	192	6	96	48	2
NMTAP	53	288	0
NMTAP	53	336	0
NMSTR	54	0	1
NMSI_	54	0	1	96	72	4
NMTAP	54	0	7
NMTTP	54	96	0	C	0	M1
CNSI_	54	168	4	0	72	7
NMTTP	54	192	7	D	0	M1
CNSI_	54	240	7	0	72	2
NMTTP	54	288	5	D	0	M1
NMSTR	55	0	0
NMSI_	55	0	0	96	48	4
BRTAP	55	0	7
NMTAP	55	96	6
NMTAP	55	144	6
NMTAP	55	192	3
NMSTR	55	192	5
NMSI_	55	192	5	96	48	3
NMSTR	55	288	1
NMSI_	55	288	1	96	48	5
NMSTR	55	288	5
NMSI_	55	288	5	96	48	7
NMSTR	56	0	1
NMSCR	56	0	1	96	48	4
NMTAP	56	96	0
NMTAP	56	192	3
NMSTR	56	192	7
NMSI_	56	192	7	96	48	3
NMTAP	56	288	1
NMTAP	56	336	1
NMSTR	57	0	2
NMSI_	57	0	2	96	48	4
NMTAP	57	0	4
NMSTR	57	96	2
NMSI_	57	96	2	96	48	0
NMSTR	57	96	6
NMSI_	57	96	6	96	48	2
NMSTR	57	192	6
NMSCL	57	192	6	96	48	3
NMTAP	57	288	7
NMSTR	58	0	1
NMSI_	58	0	1	96	48	5
NMTAP	58	0	5
NMTAP	58	96	7
NMTAP	58	144	7
NMTAP	58	192	0
NMSTR	58	192	6
NMSI_	58	192	6	96	48	0
NMSTR	58	288	2
NMSI_	58	288	2	96	48	4
NMSTR	58	288	6
NMSI_	58	288	6	96	48	2
NMSTR	59	0	2
NMSCL	59	0	2	96	48	7
NMTAP	59	96	7
NMTAP	59	192	5
NMTAP	59	224	3
NMTAP	59	256	4
NMTAP	59	288	1
NMTAP	59	320	3
NMTAP	59	352	2
NMTAP	60	0	5
NMTAP	60	32	4
NMTAP	60	64	6
NMTAP	60	96	0
NMTAP	60	128	7
NMTAP	60	160	1
NMTAP	60	192	6
NMTAP	60	216	5
NMTAP	60	240	4
NMTAP	60	264	3
NMTAP	60	288	2
NMTAP	60	312	1
NMTAP	60	336	0
NMTAP	60	360	7
BRTAP	61	0	2
BRTAP	61	0	6
NMTAP	61	96	0
NMTAP	61	96	1
NMTAP	61	144	3
NMSTR	61	144	7
NMSCL	61	144	7	96	48	4
NMSTR	61	240	2
NMSCL	61	240	2	96	48	7
NMTAP	61	336	3
NMSTR	62	48	6
NMSLL	62	48	6	96	72	0
NMTAP	62	96	7
NMTAP	62	144	6
NMTAP	62	240	1
NMSTR	62	288	1
NMSI_	62	288	1	96	48	5
NMTAP	62	336	0
NMTAP	63	0	1
NMTAP	63	96	6
NMTAP	63	120	7
NMTAP	63	144	5
NMTAP	63	168	0
NMTAP	63	192	4
NMTAP	63	216	1
NMHLD	63	240	3	96
NMSTR	63	336	5
NMSCR	63	336	5	96	96	3
NMSTR	64	48	3
NMSI_	64	48	3	96	48	7
NMTAP	64	96	4
NMTAP	64	144	5
NMTAP	64	240	6
NMTAP	64	288	7
NMTAP	64	336	0
NMSTR	65	0	1
NMSI_	65	0	1	96	48	4
NMSTR	65	0	3
NMSI_	65	0	3	96	48	7
NMTAP	65	96	1
NMTAP	65	96	3
EXHLD	65	192	0	48
EXHLD	65	192	4	48
NMTAP	65	288	2
NMTAP	65	288	6
NMTAP	65	336	1
NMTAP	65	360	0
NMTAP	66	0	1
NMTAP	66	48	7
NMTAP	66	96	0
NMTAP	66	96	6
NMTAP	66	144	5
NMTAP	66	168	4
NMTAP	66	192	5
NMTAP	66	240	3
NMTAP	66	288	2
NMTAP	66	288	4
NMTAP	66	336	1
NMTAP	66	336	5
NMTAP	67	0	6
NMTAP	67	24	7
NMTAP	67	48	6
NMTAP	67	96	0
NMSTR	67	144	1
NMSI_	67	144	1	96	48	4
NMTAP	67	144	7
NMTAP	67	240	4
NMSTR	67	288	5
NMSI_	67	288	5	96	48	0
NMTAP	68	0	0
NMHLD	68	48	1	96
NMHLD	68	144	3	96
NMTAP	68	240	5
NMTAP	68	288	4
NMTAP	68	336	3
BRTAP	69	0	2
BRTAP	69	0	6
NMTAP	69	48	1
NMTAP	69	96	0
NMTAP	69	96	4
NMSTR	69	144	3
NMSI_	69	144	3	96	48	7
NMSTR	69	240	1
NMSCR	69	240	1	96	48	4
NMTAP	69	240	3
NMTAP	69	336	0
NMTAP	69	336	1
NMSTR	70	48	6
NMSI_	70	48	6	96	48	2
NMSTR	70	96	2
NMSI_	70	96	2	96	48	4
NMTAP	70	144	6
NMTAP	70	240	0
NMSTR	70	288	1
NMSI_	70	288	1	96	48	5
NMSTR	70	288	5
NMSI_	70	288	5	96	48	7
NMTAP	71	0	1
NMTAP	71	0	5
NMTAP	71	96	0
NMTAP	71	120	7
NMTAP	71	144	6
NMTAP	71	168	5
NMTAP	71	192	2
NMTAP	71	216	1
NMHLD	71	240	0	96
BRSTR	71	336	2
NMSI_	71	336	2	96	48	0
NMSTR	72	48	4
NMSI_	72	48	4	96	48	0
CNSI_	72	96	0	0	24	6
NMTAP	72	96	3
CNSI_	72	120	6	0	24	4
NMTAP	72	144	2
NMTAP	72	240	1
NMTAP	72	288	0
NMTAP	72	336	6
NMTAP	72	336	7
NMSTR	73	0	4
NMSI_	73	0	4	96	48	0
NMSTR	73	0	5
NMSCL	73	0	5	96	48	2
NMTAP	73	96	4
NMTAP	73	96	5
EXHLD	73	192	3	48
EXHLD	73	192	7	48
NMTAP	73	288	1
NMTAP	73	288	5
NMTAP	73	336	6
NMTAP	73	360	7
NMTAP	74	0	6
NMTAP	74	48	0
NMTAP	74	96	1
NMTAP	74	96	7
NMTAP	74	144	2
NMTAP	74	168	3
NMTAP	74	192	2
NMTAP	74	240	4
NMTAP	74	288	3
NMTAP	74	288	5
NMTAP	74	336	2
NMTAP	74	336	6
NMTAP	75	0	1
NMTAP	75	24	0
NMTAP	75	48	1
NMTAP	75	96	7
NMTAP	75	144	0
NMSTR	75	144	6
NMSI_	75	144	6	96	48	2
NMTAP	75	240	2
NMTAP	75	240	6
NMSTR	75	288	1
NMSI_	75	288	1	96	48	5
NMTAP	76	0	1
NMTAP	76	0	5
NMHLD	76	48	7	48
NMHLD	76	144	0	48
NMHLD	76	144	6	48
NMTAP	76	240	1
NMTAP	76	240	3
NMTAP	76	288	4
NMTAP	76	288	5
NMTAP	76	336	0
NMTAP	76	336	6
BRHLD	77	0	1	96
BRHLD	77	0	5	96
NMSTR	77	144	1
NMSI_	77	144	1	96	48	3
NMSTR	77	144	5
NMSI_	77	144	5	96	48	7
CNSV_	77	288	3	0	96	0
CNSV_	77	288	7	0	96	4
CNSCR	78	0	0	0	192	5
CNSCR	78	0	4	0	192	1
EXTAP	78	240	6
EXTAP	78	240	7
BRTAP	78	288	1
BRTAP	78	288	5
NMTAP	79	0	1
NMTAP	79	24	3
NMTAP	79	48	2
NMTAP	79	72	4
NMTAP	79	96	3
NMTAP	79	120	5
NMTAP	79	144	4
NMTAP	79	168	6
NMTAP	79	192	0
NMTAP	79	216	7
NMSTR	79	240	0
NMSCR	79	240	0	96	48	3
NMTAP	79	336	0
NMSTR	79	336	5
NMSCR	79	336	5	96	48	0
NMSTR	80	48	2
NMSCR	80	48	2	96	48	5
NMTAP	80	48	5
NMTAP	80	144	2
NMHLD	80	144	7	96
NMTAP	80	240	0
NMTAP	80	288	2
NMTAP	80	288	3
NMTAP	80	336	5
NMSTR	81	0	4
NMSI_	81	0	4	96	48	0
NMSTR	81	0	6
NMSCL	81	0	6	96	48	3
NMTAP	81	96	4
NMSTR	81	96	6
NMSI_	81	96	6	96	48	2
EXHLD	81	192	1	96
NMTAP	81	192	6
NMTAP	81	288	0
NMTAP	81	336	2
NMTAP	81	360	3
NMTAP	82	0	2
NMTAP	82	48	4
NMTAP	82	96	3
NMTAP	82	96	5
NMTAP	82	144	6
NMTAP	82	168	7
NMTAP	82	192	6
NMTAP	82	240	0
NMTAP	82	288	1
NMTAP	82	288	7
NMTAP	82	336	2
NMTAP	82	336	6
NMTAP	83	0	5
NMTAP	83	24	4
NMTAP	83	48	6
NMTAP	83	96	0
NMTAP	83	96	1
NMTAP	83	144	2
NMTAP	83	144	7
NMTAP	83	240	4
NMTAP	83	240	5
NMTAP	83	288	2
NMTAP	83	288	3
NMSTR	83	336	0
NMSI_	83	336	0	96	48	4
NMSTR	83	336	7
NMSI_	83	336	7	96	48	3
EXSTR	84	48	0
NMSCR	84	48	0	96	48	3
EXSTR	84	48	7
NMSCL	84	48	7	96	48	4
EXTAP	84	144	0
EXTAP	84	144	7
NMTAP	84	240	1
NMTAP	84	240	6
NMTAP	84	288	2
NMTAP	84	336	3
BRTAP	85	0	0
BRTAP	85	0	4
NMTAP	85	48	7
NMTAP	85	96	2
NMTAP	85	96	6
NMSTR	85	144	5
NMSCL	85	144	5	96	48	2
NMSTR	85	240	1
NMSUR	85	240	1	96	48	5
NMTAP	85	336	7
NMSTR	86	48	6
NMSCL	86	48	6	96	48	4
NMSTR	86	96	4
NMSI_	86	96	4	96	48	0
NMTAP	86	144	6
CNSI_	86	192	4	0	48	0
NMTAP	86	240	2
NMSTR	86	288	1
NMSCR	86	288	1	96	48	3
NMSTR	86	288	7
NMSI_	86	288	7	96	48	3
NMTAP	86	336	0
NMTAP	87	0	1
NMTAP	87	0	7
EXHLD	87	96	4	144
NMTAP	87	96	5
NMTAP	87	120	6
NMTAP	87	144	7
NMTAP	87	168	0
NMTAP	87	192	1
NMTAP	87	216	2
EXHLD	87	240	3	96
BRSTR	87	336	1
NMSV_	87	336	1	96	48	2
NMSTR	88	48	5
BRSV_	88	48	5	96	48	6
CNSI_	88	96	2	0	48	4
CNSI_	88	192	6	0	48	0
NMTAP	88	240	1
NMTAP	88	288	2
NMTAP	88	336	3
NMSTR	89	0	1
NMSI_	89	0	1	96	48	3
EXSTR	89	0	4
NMSI_	89	0	4	96	48	0
NMTAP	89	96	1
NMTAP	89	96	4
EXSTR	89	192	3
NMSI_	89	192	3	96	48	7
NMSTR	89	192	6
NMSI_	89	192	6	96	48	4
NMTAP	89	288	3
NMTAP	89	288	6
NMTAP	90	0	0
NMTAP	90	0	1
NMTAP	90	48	2
NMTAP	90	48	7
NMTAP	90	96	6
NMTAP	90	120	4
NMTAP	90	144	5
NMTAP	90	192	2
NMTAP	90	216	3
NMTAP	90	240	2
NMTAP	90	264	3
NMTAP	90	288	1
NMTAP	90	336	0
NMTAP	90	336	4
NMTAP	91	0	6
NMTAP	91	24	7
NMTAP	91	48	6
NMTAP	91	96	1
NMTAP	91	120	0
NMTAP	91	144	1
NMTAP	91	192	2
NMTAP	91	240	1
NMTAP	91	240	3
NMTAP	91	288	5
NMTAP	91	336	4
NMSTR	91	336	6
NMSLR	91	336	6	96	96	2
NMSTR	92	48	2
NMSLR	92	48	2	96	96	6
NMSTR	92	144	6
NMSCR	92	144	6	96	144	5
NMTAP	92	240	2
EXTAP	93	0	0
EXTAP	93	24	1
BXHLD	93	48	2	1488
BXHLD	93	48	6	1488
NMTTP	97	96	1	E	0	M1
NMTTP	97	192	2	E	0	M1
NMTTP	97	288	3	E	0	M1
NMTTP	98	0	2	D	0	M1
NMTTP	98	96	3	D	0	M1
NMTTP	98	192	4	D	0	M1
NMTTP	98	288	5	D	0	M1
NMTTP	99	0	3	E	0	M1
NMTTP	99	96	4	E	0	M1
NMTTP	99	192	5	E	0	M1
NMTTP	99	288	6	E	0	M1
NMTTP	100	0	4	D	0	M1
NMTTP	100	96	5	D	0	M1
NMSTR	100	192	6
NMSSL	100	192	6	96	48	2

T_REC_TAP	417
T_REC_BRK	13
T_REC_XTP	12
T_REC_BXX	2
T_REC_HLD	41
T_REC_XHO	7
T_REC_BHO	2
T_REC_BXH	2
T_REC_STR	90
T_REC_BST	4
T_REC_XST	8
T_REC_XBS	0
T_REC_TTP	37
T_REC_THO	0
T_REC_SLD	101
T_REC_BSL	1
T_REC_ALL	737
T_NUM_TAP	564
T_NUM_BRK	24
T_NUM_HLD	48
T_NUM_SLD	101
T_NUM_ALL	737
T_JUDGE_TAP	583
T_JUDGE_HLD	222
T_JUDGE_SLD	102
T_JUDGE_ALL	907
TTM_EACHPAIRS	126
TTM_SCR_TAP	282000
TTM_SCR_BRK	62400
TTM_SCR_HLD	48000
TTM_SCR_SLD	151500
TTM_SCR_ALL	543900
TTM_SCR_S	525300
TTM_SCR_SS	541500
TTM_RAT_ACV	10044

