VERSION	0.00.00	1.04.00
FES_MODE	0
BPM_DEF	175.000	175.000	175.000	175.000
MET_DEF	4	4
RESOLUTION	384
CLK_DEF	384
COMPATIBLE_CODE	MA2

BPM	0	0	175.000
MET	0	0	4	4
MET	37	0	4	3
MET	61	0	4	4

NMSTR	1	0	5
NMSCL	1	0	5	96	288	2
NMTTP	2	192	2	E	0	M1
NMTTP	3	96	3	E	0	M1
NMTTP	3	96	4	E	0	M1
NMHLD	4	0	4	288
NMTAP	4	0	5
NMTAP	4	288	6
NMSTR	5	0	6
BRSCL	5	0	6	96	288	3
NMTAP	6	0	2
NMTAP	6	192	2
NMSTR	7	0	1
NMSCR	7	0	1	96	288	4
NMTAP	8	0	5
NMTAP	8	192	6
NMSTR	9	0	6
NMSUL	9	0	6	96	288	2
NMTAP	10	0	1
NMTAP	10	192	0
NMSTR	11	0	0
NMSUR	11	0	0	96	288	4
NMTAP	12	0	5
NMTAP	12	192	3
NMTAP	12	192	4
NMTAP	13	0	5
NMHLD	13	96	5	240
NMHLD	13	240	4	96
NMTAP	14	48	6
NMHLD	14	96	6	144
NMTAP	14	240	4
NMTAP	14	288	4
NMTAP	15	0	3
NMHLD	15	96	2	240
NMHLD	15	240	3	96
NMTAP	16	48	1
NMHLD	16	96	1	144
NMTAP	16	240	3
NMTAP	16	288	3
BXTAP	17	0	4
NMHLD	17	96	5	240
NMHLD	17	240	4	96
NMTAP	18	48	6
NMHLD	18	96	6	192
NMTAP	18	240	4
NMTAP	18	288	4
NMTHO	19	0	0	336	C	0	M1
EXTAP	20	192	0
EXTAP	20	192	7
EXTAP	20	240	0
EXTAP	20	240	7
NMHLD	21	0	1	96
NMTAP	21	96	3
NMTAP	21	144	3
NMTAP	21	240	2
NMTAP	21	240	4
NMTAP	21	336	3
NMTAP	21	336	5
NMTAP	22	48	0
NMTAP	22	96	7
NMSTR	22	144	6
NMSCL	22	144	6	96	48	4
NMTAP	23	0	3
NMHLD	23	0	5	96
NMTAP	23	96	4
NMTAP	23	144	4
NMTAP	23	240	3
NMTAP	23	240	5
NMTAP	23	336	2
NMTAP	23	336	4
NMTAP	24	48	0
NMHLD	24	144	1	96
NMHLD	24	144	4	96
NMTAP	24	336	2
NMHLD	25	0	2	144
NMHLD	25	144	1	144
NMHLD	25	288	0	144
NMHLD	26	48	7	144
NMTAP	26	192	6
NMTAP	26	240	6
NMTAP	26	336	4
NMHLD	27	0	4	144
NMHLD	27	144	5	144
NMSTR	27	288	6
NMSUL	27	288	6	96	144	2
EXTAP	28	192	1
EXTAP	28	240	1
EXTAP	28	336	2
EXHLD	29	0	2	144
NMHLD	29	144	3	144
NMTAP	29	288	1
NMTAP	29	336	1
NMSTR	30	48	0
NMSCL	30	48	0	96	96	5
NMSTR	30	48	1
NMSCR	30	48	1	96	96	4
EXTAP	30	336	5
EXTAP	31	0	5
NMTAP	31	96	3
NMTAP	31	144	3
EXTAP	31	240	1
EXHLD	31	288	1	96
NMTAP	32	0	0
NMTAP	32	48	0
NMTAP	32	144	2
NMTAP	32	144	7
NMTAP	32	240	4
NMTAP	32	240	5
NMTAP	32	288	4
NMTAP	32	288	5
NMHLD	33	0	2	96
NMHLD	33	0	3	96
NMHLD	33	144	2	96
NMHLD	33	144	3	96
NMTAP	33	288	1
NMTAP	33	288	4
NMHLD	34	0	4	96
NMHLD	34	0	5	96
NMHLD	34	144	4	96
NMHLD	34	144	5	96
NMTAP	34	288	3
NMSTR	34	288	6
NMSCL	34	288	6	96	96	3
NMSTR	35	0	2
NMSUR	35	0	2	96	192	5
NMTAP	36	0	6
NMTAP	36	48	6
NMTAP	36	96	7
NMTAP	36	144	5
NMTAP	36	192	0
BRTAP	36	288	1
BRSTR	36	288	7
NMSI_	36	288	7	96	288	2
CNSI_	37	288	2	0	288	5
CNSI_	38	192	5	0	288	0
EXHLD	39	96	1	1440
NMTAP	40	0	0
NMTAP	40	96	0
NMTAP	40	288	7
NMTAP	41	0	7
NMTAP	41	192	0
NMTAP	41	288	0
NMTAP	42	96	2
NMTAP	42	192	2
NMHLD	43	0	3	288
NMTAP	43	96	2
NMHLD	43	288	2	288
NMTAP	44	0	4
NMHLD	44	192	5	288
NMTAP	44	288	3
NMHLD	45	96	4	288
NMTAP	45	192	5
NMHLD	46	0	6	288
NMTAP	46	96	5
NMHLD	46	288	4	288
NMTAP	47	0	5
NMSTR	47	192	7
NMSCL	47	192	7	96	192	4
NMTAP	48	96	3
NMTAP	48	192	3
NMTAP	48	288	2
NMTAP	48	288	4
NMTAP	49	0	2
NMSTR	49	0	4
NMSCR	49	0	4	96	192	0
NMSTR	49	288	1
NMSUR	49	288	1	96	192	5
NMSTR	50	192	6
NMSUL	50	192	6	96	192	2
NMSTR	51	96	0
NMSCR	51	96	0	96	192	4
NMSTR	52	0	5
NMSUR	52	0	5	96	192	1
NMSTR	52	288	2
NMSUL	52	288	2	96	192	6
NMSTR	53	192	4
NMSCR	53	192	4	96	192	0
NMSTR	54	96	1
NMSCR	54	96	1	96	192	4
NMTAP	55	0	5
NMTAP	55	96	5
NMTAP	55	192	4
NMTAP	55	192	5
NMSTR	55	288	6
NMSUL	55	288	6	96	96	2
NMTAP	56	96	0
NMSTR	56	192	1
NMSCL	56	192	1	96	96	6
NMTAP	57	0	5
NMSTR	57	96	4
NMSUR	57	96	4	96	96	0
NMTAP	57	288	1
NMSTR	58	0	2
NMSCR	58	0	2	96	96	5
NMTAP	58	192	6
NMSTR	58	288	7
NMSUL	58	288	7	96	96	3
NMTAP	59	96	1
NMHLD	59	192	2	384
NMTAP	60	192	3
EXTAP	60	288	0
BRSTR	61	0	1
NMSI_	61	0	1	96	48	4
BRTAP	61	0	7
NMTAP	61	96	5
NMTAP	61	144	5
NMTAP	61	240	6
NMTAP	61	240	7
NMTAP	61	336	0
NMTAP	61	336	1
NMTAP	62	48	2
NMTAP	62	96	3
NMSTR	62	144	4
NMSCR	62	144	4	96	48	7
NMTAP	62	240	2
NMTAP	62	288	2
NMTAP	63	0	0
NMTAP	63	0	1
NMTAP	63	96	2
NMTAP	63	144	3
NMTAP	63	192	4
NMTAP	63	288	3
NMTAP	63	288	7
NMTAP	63	336	3
NMHLD	63	336	7	96
NMTAP	64	48	5
NMTAP	64	96	4
NMSTR	64	144	3
NMSCL	64	144	3	96	48	0
NMTAP	64	240	6
NMTAP	64	288	6
NMTAP	65	0	5
NMTAP	65	0	7
NMTAP	65	96	3
NMTAP	65	96	4
NMTAP	65	192	0
NMTAP	65	192	2
NMSTR	65	288	6
NMSCL	65	288	6	96	192	2
NMSTR	65	288	7
NMSUL	65	288	7	96	192	1
NMTAP	66	288	0
NMTAP	66	336	0
NMHLD	67	0	1	96
NMHLD	67	96	3	96
NMTAP	67	192	4
NMSTR	67	288	4
NMSCL	67	288	4	96	192	0
NMSTR	67	288	5
NMSUL	67	288	5	96	192	7
NMTAP	68	288	1
NMTAP	68	288	6
BRSTR	69	0	2
NMSI_	69	0	2	96	48	5
BRTAP	69	0	7
NMTAP	69	96	6
NMHLD	69	144	6	96
NMHLD	69	240	4	96
NMHLD	69	336	2	96
NMHLD	70	48	4	96
NMHLD	70	144	6	96
NMTAP	70	240	4
NMTAP	70	288	3
NMTAP	70	336	2
BRSTR	71	0	1
NMSI_	71	0	1	96	48	4
BRTAP	71	0	5
NMTAP	71	96	7
NMTAP	71	144	7
NMTAP	71	240	5
NMTAP	71	288	4
NMHLD	71	336	3	96
NMTAP	72	48	7
NMTAP	72	96	6
NMHLD	72	144	5	96
NMTAP	72	240	4
NMTAP	72	288	3
NMTAP	72	288	6
NMSTR	73	0	1
NMSCL	73	0	1	96	96	6
NMSTR	73	192	5
NMSI_	73	192	5	96	96	1
NMSTR	74	0	2
NMSCR	74	0	2	96	96	5
NMTAP	74	192	6
NMTAP	74	240	7
BXSTR	74	288	0
NMSCR	74	288	0	96	192	5
NMSUR	74	288	0	96	192	6
NMTAP	75	288	6
NMTAP	75	288	7
NMHLD	76	0	0	96
NMHLD	76	96	2	96
NMTAP	76	192	4
NMSTR	76	288	3
NMSCL	76	288	3	96	384	5
NMTAP	76	288	5
NMTTP	77	0	0	C	1	M1
NMTAP	78	192	2
NMTAP	78	192	4
NMTAP	78	240	1
NMTAP	78	240	5
EXTAP	78	288	0
EXTAP	78	288	6
NMHLD	79	0	1	48
NMHLD	79	0	7	48
NMHLD	79	96	4	48
NMHLD	79	96	5	48
NMHLD	79	192	1	48
NMHLD	79	192	3	48
NMHLD	79	288	6	48
NMHLD	79	288	7	48
NMTAP	80	0	0
NMTAP	80	48	1
NMTAP	80	96	5
NMTAP	80	144	4
NMTAP	80	192	2
NMTAP	80	240	1
EXTAP	80	288	7
NMTAP	81	0	2
NMTAP	81	48	3
NMTAP	81	96	4
NMHLD	81	144	5	96
NMTAP	81	240	7
NMSTR	81	288	7
NMSI_	81	288	7	96	48	2
NMSTR	82	0	6
NMSI_	82	0	6	96	48	3
NMTAP	82	192	0
NMTAP	82	288	1
NMHLD	82	288	7	96
NMHLD	83	0	5	96
NMHLD	83	96	3	96
NMHLD	83	192	1	96
NMTAP	83	288	0
NMTAP	84	0	1
NMTAP	84	48	2
NMTAP	84	96	3
NMTAP	84	144	4
NMTAP	84	192	5
NMTAP	84	240	6
NMSTR	84	288	7
BRSI_	84	288	7	96	48	3
BRTAP	85	0	0
NMTAP	85	96	1
NMTAP	85	144	1
NMTAP	85	192	3
NMTAP	85	240	2
NMSTR	85	288	4
NMSCR	85	288	4	96	96	7
NMTAP	86	0	1
NMSTR	86	96	0
NMSCR	86	96	0	96	96	3
NMTAP	86	192	7
NMHLD	86	288	6	96
NMTAP	87	0	4
NMTAP	87	48	4
NMTAP	87	96	6
NMTAP	87	144	6
NMTAP	87	192	0
NMTAP	87	240	0
NMTAP	87	288	2
NMTAP	87	336	2
NMTAP	88	0	4
NMTAP	88	48	4
NMTAP	88	96	6
NMSTR	88	192	6
NMSI_	88	192	6	96	48	2
NMSTR	88	192	7
NMSI_	88	192	7	96	48	3
NMSTR	89	0	0
NMSI_	89	0	0	96	48	4
NMSTR	89	0	1
NMSI_	89	0	1	96	48	5
NMTAP	89	192	6
NMTAP	89	192	7
NMTAP	89	288	0
NMTAP	89	288	5
NMTAP	89	336	0
NMTAP	89	336	5
NMTAP	90	48	2
NMTAP	90	96	2
NMTAP	90	144	4
NMTAP	90	192	3
NMTAP	90	240	5
NMTAP	90	288	4
NMTAP	90	288	5
NMTAP	91	0	3
NMSTR	91	0	6
NMSI_	91	0	6	96	48	2
NMSTR	91	96	0
NMSI_	91	96	0	96	48	4
NMSTR	91	192	7
NMSI_	91	192	7	96	48	3
NMSTR	91	288	1
NMSI_	91	288	1	96	48	5
NMTAP	92	0	6
NMTAP	92	48	6
NMTAP	92	96	6
NMTAP	92	96	7
EXTAP	92	192	0
EXTAP	92	192	5
EXTAP	92	288	1
EXSTR	92	288	4
NMSCR	92	288	4	96	1536	3
NMTTP	93	0	0	C	1	M1
NMTTP	97	0	4	E	0	M1
NMTTP	97	192	6	E	0	M1
NMTTP	97	288	5	E	0	M1
NMTTP	98	96	2	E	0	M1
NMTTP	98	192	3	E	0	M1
NMTTP	99	0	6	A	0	M1
NMTTP	99	96	5	B	0	M1
NMTTP	99	288	1	A	0	M1
NMTTP	100	0	2	B	0	M1
NMTHO	100	192	0	96	C	0	M1
NMTTP	100	192	3	B	0	M1
NMTTP	100	192	4	B	0	M1

T_REC_TAP	201
T_REC_BRK	5
T_REC_XTP	17
T_REC_BXX	1
T_REC_HLD	62
T_REC_XHO	3
T_REC_BHO	0
T_REC_BXH	0
T_REC_STR	48
T_REC_BST	4
T_REC_XST	1
T_REC_XBS	1
T_REC_TTP	16
T_REC_THO	2
T_REC_SLD	53
T_REC_BSL	2
T_REC_ALL	416
T_NUM_TAP	283
T_NUM_BRK	13
T_NUM_HLD	67
T_NUM_SLD	53
T_NUM_ALL	416
T_JUDGE_TAP	294
T_JUDGE_HLD	214
T_JUDGE_SLD	55
T_JUDGE_ALL	563
TTM_EACHPAIRS	59
TTM_SCR_TAP	141500
TTM_SCR_BRK	33800
TTM_SCR_HLD	67000
TTM_SCR_SLD	79500
TTM_SCR_ALL	321800
TTM_SCR_S	310900
TTM_SCR_SS	320500
TTM_RAT_ACV	10040

