VERSION	0.00.00	1.04.00
FES_MODE	0
BPM_DEF	190.000	190.000	190.000	190.000
MET_DEF	4	4
RESOLUTION	384
CLK_DEF	384
COMPATIBLE_CODE	MA2

BPM	0	0	190.000
MET	0	0	4	4
MET	59	0	4	2
MET	59	192	4	4
MET	80	192	4	2
MET	81	0	4	4
MET	97	0	4	2
MET	97	192	4	4

NMHLD	2	0	1	96
NMTAP	2	0	5
NMTAP	2	96	3
NMTAP	2	144	3
NMTAP	2	288	2
NMTAP	2	288	4
NMTAP	3	0	2
NMHLD	3	0	6	96
NMTAP	3	96	4
NMTAP	3	144	4
NMTAP	3	288	3
NMTAP	3	288	5
NMHLD	4	0	1	96
NMTAP	4	0	5
NMTAP	4	96	3
NMTAP	4	144	3
NMTAP	4	288	2
NMTAP	4	288	4
NMTAP	5	0	2
NMHLD	5	0	6	96
NMTAP	5	96	4
NMTAP	5	144	4
NMTAP	5	288	3
NMTAP	5	288	5
NMSTR	6	0	1
NMSI_	6	0	1	96	48	3
NMTAP	6	0	3
NMSTR	6	192	6
NMSI_	6	192	6	96	48	4
NMTAP	7	0	3
NMTAP	7	96	1
NMTAP	7	96	3
NMTAP	7	192	4
NMTAP	7	288	4
NMTAP	7	288	6
NMSTR	8	0	3
NMSUR	8	0	3	96	192	4
NMHLD	8	0	7	96
NMHLD	8	192	6	96
NMTAP	9	0	5
NMTAP	9	48	5
NMTAP	9	96	4
NMTAP	9	96	6
NMTAP	9	144	4
NMTAP	9	144	6
NMTAP	9	192	4
NMTAP	9	192	6
BXTAP	9	288	2
BXTAP	9	288	7
NMTAP	10	0	0
NMSTR	10	0	1
NMSI_	10	0	1	96	48	4
NMTAP	10	96	6
NMTAP	10	192	5
NMTAP	10	240	3
NMTAP	10	240	5
NMHLD	10	336	2	96
NMTAP	10	336	4
NMTTP	11	48	0	E	0	M1
NMTTP	11	72	7	E	0	M1
NMTTP	11	96	6	E	0	M1
NMTAP	11	144	1
NMTAP	11	192	1
NMTAP	11	240	7
NMTAP	11	288	0
NMTAP	11	288	6
NMSTR	12	0	6
NMSI_	12	0	6	96	48	3
NMTAP	12	0	7
NMTAP	12	96	1
NMTAP	12	192	2
NMTAP	12	240	2
NMTAP	12	240	4
NMTAP	12	336	3
NMHLD	12	336	5	96
NMTTP	13	48	0	E	0	M1
NMTTP	13	72	1	E	0	M1
NMTTP	13	96	2	E	0	M1
NMTAP	13	144	6
NMTAP	13	192	6
NMTAP	13	240	0
NMTAP	13	288	1
NMTAP	13	288	7
NMSTR	14	0	2
NMSI_	14	0	2	96	48	7
NMTAP	14	0	3
NMTAP	14	96	7
NMTAP	14	192	5
NMTAP	14	240	4
NMTAP	14	240	6
NMHLD	14	336	2	96
NMTAP	14	336	4
NMTTP	15	48	0	E	0	M1
NMTTP	15	72	7	E	0	M1
NMTTP	15	96	6	E	0	M1
NMTAP	15	144	1
NMTAP	15	192	1
NMTAP	15	240	7
NMTAP	15	288	0
NMTAP	15	288	6
NMTAP	16	0	4
NMSTR	16	0	5
NMSI_	16	0	5	96	48	0
NMTAP	16	96	2
NMTAP	16	192	1
NMTAP	16	240	1
NMTAP	16	240	7
NMSTR	16	336	4
NMSI_	16	336	4	96	48	0
NMSTR	16	336	6
NMSI_	16	336	6	96	48	4
BXTAP	17	48	4
BXTAP	17	48	6
EXTAP	17	144	1
EXTAP	17	144	5
BXTAP	17	192	1
BXTAP	17	192	5
NMTAP	18	0	2
NMTAP	18	0	4
NMTAP	18	96	1
NMTAP	18	144	1
NMHLD	18	192	3	96
NMTAP	18	288	2
NMTAP	19	0	1
NMTAP	19	96	3
NMTAP	19	144	3
NMTAP	19	192	2
NMTAP	19	288	3
NMTAP	19	288	4
NMTAP	20	0	3
NMTAP	20	0	5
NMTAP	20	96	6
NMTAP	20	144	6
NMHLD	20	192	4	96
NMTAP	20	288	5
NMTAP	21	0	6
NMTAP	21	48	6
NMTAP	21	96	7
NMTAP	21	192	1
NMTAP	21	240	1
NMSTR	21	288	0
NMSI_	21	288	0	96	48	5
CNSI_	22	48	5	0	72	1
CNSI_	22	120	1	0	72	4
NMTAP	22	192	2
NMTAP	22	288	2
NMTAP	22	288	3
NMTAP	23	0	1
NMTAP	23	96	7
NMTAP	23	144	7
NMTAP	23	192	0
NMTAP	23	288	6
NMTAP	23	288	7
NMSTR	24	0	5
NMSI_	24	0	5	96	48	3
EXTAP	24	96	3
NMSTR	24	192	1
NMSI_	24	192	1	96	48	3
EXTAP	24	288	3
NMSTR	25	0	5
NMSCL	25	0	5	96	96	2
EXSTR	25	96	2
NMSCR	25	96	2	96	96	5
NMHLD	26	0	4	96
NMTAP	26	0	6
NMTAP	26	96	5
NMTAP	26	192	1
NMTAP	26	240	1
NMTAP	26	288	3
NMTAP	26	336	2
NMTAP	27	48	1
NMTAP	27	48	3
NMTAP	27	144	0
NMTAP	27	144	2
NMTAP	27	240	1
NMTAP	27	288	1
NMTAP	27	336	7
NMTAP	28	0	0
NMTAP	28	96	6
NMTAP	28	96	7
NMTAP	28	192	4
NMTAP	28	192	5
NMTAP	28	288	3
NMTAP	28	336	2
NMTAP	28	336	4
NMTAP	29	48	0
NMTAP	29	48	1
NMTAP	29	144	2
NMTAP	29	144	7
NMTAP	29	192	2
NMTAP	29	192	7
NMTAP	29	288	3
NMSTR	30	0	6
NMSCL	30	0	6	96	96	4
NMSTR	30	96	4
NMSCL	30	96	4	96	96	2
NMSTR	30	192	2
NMSCL	30	192	2	96	96	0
NMSTR	30	288	0
NMSCL	30	288	0	96	96	5
NMSTR	31	0	5
NMSCL	31	0	5	96	96	2
NMTAP	31	96	2
NMTAP	31	192	0
NMTAP	31	240	0
NMTAP	31	336	1
NMTAP	31	336	7
NMSTR	32	96	2
NMSI_	32	96	2	96	48	7
NMSTR	32	192	6
NMSI_	32	192	6	96	48	3
NMSTR	32	288	1
NMSI_	32	288	1	96	48	6
NMSTR	33	0	5
NMSI_	33	0	5	96	48	2
NMTAP	33	96	7
NMTAP	33	144	0
NMTAP	33	240	2
NMTAP	33	240	6
NMTAP	33	288	2
NMTAP	33	288	6
NMHLD	34	0	5	672
NMTTP	34	96	5	B	0	M1
NMTTP	34	192	7	B	0	M1
NMTTP	34	288	1	B	0	M1
NMTTP	35	0	3	B	0	M1
NMTTP	35	96	5	B	0	M1
NMTTP	35	192	7	B	0	M1
NMTTP	35	288	1	B	0	M1
NMHLD	36	0	2	672
NMTTP	36	96	2	E	0	M1
NMTTP	36	192	0	E	0	M1
NMTTP	36	288	6	E	0	M1
NMTTP	37	0	4	E	0	M1
NMTTP	37	96	2	E	0	M1
NMTTP	37	192	0	E	0	M1
NMTTP	37	288	6	E	0	M1
EXTAP	38	0	4
EXTAP	38	0	5
NMTAP	38	48	5
NMTAP	38	96	5
NMTAP	38	144	5
EXTAP	38	192	5
EXTAP	38	192	7
NMTAP	38	240	5
NMTAP	38	288	5
NMTAP	38	336	5
EXTAP	39	0	2
EXTAP	39	0	5
NMTAP	39	48	2
NMTAP	39	96	2
NMTAP	39	144	2
EXTAP	39	192	0
EXTAP	39	192	2
NMTAP	39	240	2
BRTAP	39	288	1
BRTAP	39	288	6
NMTAP	40	0	0
NMTAP	40	0	7
NMTAP	40	96	5
NMTAP	40	144	4
NMTAP	40	144	6
NMTAP	40	240	2
NMTAP	40	288	1
NMTAP	40	288	3
NMTAP	41	0	6
NMTAP	41	48	6
NMTAP	41	96	4
NMTAP	41	144	4
NMTAP	41	192	3
NMTAP	41	288	2
NMTAP	41	288	5
NMTAP	42	0	3
NMTAP	42	0	4
NMTAP	42	48	3
NMTAP	42	48	4
NMTAP	42	96	3
NMTAP	42	96	4
BRTAP	42	144	2
BRTAP	42	144	5
NMSTR	42	288	4
NMSI_	42	288	4	96	48	0
NMSI_	42	288	4	96	48	7
EXTAP	43	0	4
NMTAP	43	96	1
NMTAP	43	144	1
NMTAP	43	192	7
NMTAP	43	240	3
NMTAP	43	288	3
NMSTR	43	336	0
NMSI_	43	336	0	96	48	4
EXTAP	44	48	0
EXTAP	44	48	4
BRTAP	44	144	2
BRTAP	44	144	6
BRTAP	44	192	2
BRTAP	44	192	6
NMTAP	44	288	2
NMSTR	44	288	3
NMSI_	44	288	3	96	48	0
NMSI_	44	288	3	96	48	7
EXTAP	45	0	3
NMTAP	45	96	6
NMTAP	45	144	6
NMTAP	45	192	0
NMTAP	45	240	4
NMTAP	45	288	4
NMSTR	45	336	7
NMSI_	45	336	7	96	48	3
EXTAP	46	48	3
EXTAP	46	48	7
BRTAP	46	144	1
BRTAP	46	144	5
BRTAP	46	192	1
BRTAP	46	192	5
NMTAP	46	288	3
NMTAP	46	288	4
NMTAP	47	0	6
NMTAP	47	48	6
NMSTR	47	96	7
NMSI_	47	96	7	96	48	1
NMTAP	47	144	7
NMSTR	47	192	5
NMSI_	47	192	5	96	48	3
NMTAP	47	240	5
NMSTR	47	288	2
NMSI_	47	288	2	96	48	6
NMTAP	47	336	2
NMHLD	48	48	5	96
NMTAP	48	144	7
NMTAP	48	192	7
NMTAP	48	288	3
NMTAP	48	288	5
NMSTR	49	0	4
NMSCR	49	0	4	96	48	7
NMTAP	49	96	2
NMTAP	49	144	3
NMSTR	49	192	3
NMSCL	49	192	3	96	48	0
NMTAP	49	288	5
NMTAP	49	336	4
NMSTR	50	0	4
NMSCR	50	0	4	96	48	7
NMTAP	50	96	2
NMTAP	50	144	1
NMHLD	50	192	1	192
EXTAP	50	240	0
EXTAP	50	288	0
EXTAP	50	336	0
EXSTR	51	0	0
NMSI_	51	0	0	96	48	4
EXTAP	51	96	0
EXTAP	51	96	2
NMTAP	51	192	1
NMTAP	51	240	5
NMTAP	51	288	4
NMTAP	51	336	0
NMSTR	51	336	3
NMSI_	51	336	3	96	48	7
EXTAP	52	48	3
EXTAP	52	48	7
BRTAP	52	144	1
BRTAP	52	144	5
BRTAP	52	192	1
BRTAP	52	192	5
NMTAP	52	288	2
NMSTR	52	288	3
NMSCR	52	288	3	96	48	6
EXTAP	53	0	1
EXTAP	53	0	3
NMTAP	53	96	2
NMTAP	53	144	3
NMTAP	53	192	7
NMTAP	53	240	3
NMTAP	53	288	4
NMSTR	53	336	0
NMSF_	53	336	0	96	48	4
EXTAP	54	48	0
BRTAP	54	144	2
BRTAP	54	144	6
BRHLD	54	192	2	96
BRHLD	54	192	6	96
NMSTR	55	0	0
NMSI_	55	0	0	96	48	5
NMSTR	55	0	1
NMSI_	55	0	1	96	48	4
NMTAP	55	96	0
NMTAP	55	96	1
NMTAP	55	192	3
NMTAP	55	240	3
NMTAP	55	288	4
NMSTR	55	336	2
NMSUL	55	336	2	96	96	6
NMSTR	56	48	6
NMSUL	56	48	6	96	96	2
NMTAP	56	144	4
NMTAP	56	192	4
NMTTP	56	288	0	C	0	M1
NMTAP	57	0	6
NMTAP	57	48	6
NMTAP	57	96	0
NMTAP	57	144	1
NMTAP	57	192	7
NMTAP	57	240	7
NMTAP	57	288	1
NMTAP	57	336	2
NMTAP	58	0	0
NMTAP	58	48	0
NMTAP	58	96	0
NMTAP	58	96	4
NMTAP	58	144	0
NMTAP	58	144	4
EXTAP	58	192	0
EXTAP	58	192	4
NMTAP	58	288	2
NMSTR	58	288	6
NMSI_	58	288	6	96	48	3
NMTAP	59	192	3
NMTAP	59	192	4
NMTAP	59	240	2
NMTAP	59	264	3
NMTAP	59	288	2
NMTAP	59	336	5
NMTAP	59	360	4
NMTAP	60	0	5
NMTAP	60	48	2
NMTAP	60	72	3
NMTAP	60	96	2
NMTAP	60	144	5
NMTAP	60	192	5
NMTAP	60	240	3
NMTAP	60	240	4
NMTAP	60	336	1
NMTAP	60	336	7
NMTAP	61	48	2
NMTAP	61	96	2
NMHLD	61	144	3	96
NMTAP	61	240	0
NMTAP	61	288	1
NMTAP	61	336	2
NMTAP	62	0	5
NMTAP	62	48	4
NMTAP	62	48	6
NMSTR	62	144	0
NMSI_	62	144	0	96	48	3
NMSTR	62	144	7
NMSI_	62	144	7	96	48	4
NMTAP	62	240	0
NMTAP	62	240	7
NMTAP	63	0	2
NMTAP	63	0	5
NMTAP	63	96	3
NMTAP	63	96	4
NMSTR	63	192	1
NMSI_	63	192	1	96	48	3
NMSTR	63	288	0
NMSI_	63	288	0	96	48	4
NMSTR	64	0	1
NMSI_	64	0	1	96	48	3
NMSTR	64	96	0
NMSI_	64	96	0	96	48	4
NMSTR	64	192	1
NMSLR	64	192	1	96	96	5
NMSTR	64	288	5
NMSLR	64	288	5	96	96	1
NMTAP	65	0	1
NMTAP	65	96	5
NMTAP	65	192	6
NMSTR	65	288	2
NMSCL	65	288	2	96	48	0
NMTAP	66	0	2
NMTAP	66	96	4
NMSTR	66	144	4
NMSCR	66	144	4	96	48	7
NMSTR	66	240	4
NMSCL	66	240	4	96	48	1
NMTAP	66	336	4
NMTAP	67	96	1
NMTAP	67	96	7
NMSTR	67	192	6
NMSI_	67	192	6	96	48	4
NMSTR	67	288	7
NMSI_	67	288	7	96	48	3
NMSTR	68	0	6
NMSI_	68	0	6	96	48	4
NMSTR	68	96	7
NMSI_	68	96	7	96	48	3
NMTAP	68	192	6
NMHLD	68	240	6	96
NMTAP	68	336	2
NMTAP	69	48	1
NMTAP	69	48	7
NMTAP	69	144	3
NMTAP	69	144	5
NMTAP	69	192	3
NMTAP	69	192	5
NMSTR	69	288	2
NMSCL	69	288	2	96	48	0
NMTAP	70	0	2
NMTAP	70	96	4
NMSTR	70	144	4
NMSI_	70	144	4	96	48	2
NMTAP	70	240	4
NMSTR	70	240	6
NMSI_	70	240	6	96	48	4
NMTAP	70	336	0
NMTAP	71	0	0
NMTAP	71	96	3
NMTAP	71	96	5
NMSTR	71	192	1
NMSI_	71	192	1	96	48	3
NMSTR	71	288	7
NMSI_	71	288	7	96	48	5
NMSTR	72	0	0
NMSI_	72	0	0	96	48	4
NMSTR	72	96	6
NMSI_	72	96	6	96	48	2
NMSTR	72	192	0
NMSCL	72	192	0	96	240	0
NMSCR	72	192	0	96	240	0
NMSTR	73	288	1
NMSI_	73	288	1	96	48	6
EXTAP	74	0	1
EXTAP	74	0	4
NMTAP	74	96	5
NMTAP	74	144	3
NMTAP	74	144	4
NMTAP	74	240	2
NMTAP	74	288	2
NMTAP	74	336	1
NMTAP	74	336	3
NMTAP	75	48	0
NMTAP	75	48	7
NMTAP	75	96	0
NMTAP	75	96	7
EXTAP	75	192	3
EXTAP	75	192	5
NMTAP	75	240	5
NMTAP	75	288	5
NMTAP	75	336	5
EXTAP	76	0	5
EXTAP	76	0	7
NMTAP	76	48	5
NMTAP	76	96	5
NMTAP	76	144	5
EXTAP	76	192	1
EXTAP	76	192	5
NMTAP	76	240	1
NMTAP	76	288	1
NMTAP	76	336	1
EXTAP	77	0	1
EXTAP	77	0	3
NMTAP	77	48	1
BRTAP	77	96	0
BRTAP	77	96	4
NMSTR	77	192	1
NMSI_	77	192	1	96	48	5
NMTAP	77	288	7
NMSTR	77	336	7
NMSI_	77	336	7	96	48	3
NMTAP	78	48	0
NMTAP	78	96	0
NMTAP	78	192	2
NMTAP	78	240	2
NMTAP	78	288	0
NMTAP	78	336	0
NMTAP	79	0	7
NMTAP	79	96	1
NMTAP	79	96	6
NMTAP	79	192	3
NMTAP	79	192	4
NMTAP	79	240	3
NMTAP	79	240	4
NMTAP	79	288	3
NMTAP	79	288	4
BRHLD	79	336	2	144
BRTAP	79	336	5
NMTTP	80	48	5	E	0	M1
NMTTP	80	72	4	B	0	M1
NMTTP	80	96	3	B	0	M1
NMTAP	81	0	1
NMTAP	81	0	4
NMTTP	81	96	1	B	0	M1
NMTTP	81	144	4	B	0	M1
NMTAP	81	288	2
NMTAP	81	288	3
NMTAP	82	0	1
NMTAP	82	0	4
NMTTP	82	96	1	B	0	M1
NMTTP	82	144	4	B	0	M1
NMTAP	82	288	2
NMTAP	82	288	3
NMTAP	83	0	3
NMTAP	83	0	6
NMTTP	83	96	6	B	0	M1
NMTTP	83	144	3	B	0	M1
NMTAP	83	288	4
NMTAP	83	288	5
NMTAP	84	0	3
NMTAP	84	0	6
NMTTP	84	96	6	B	0	M1
NMTTP	84	144	3	B	0	M1
NMTAP	84	288	4
NMTAP	84	288	5
NMSTR	85	0	6
NMSCL	85	0	6	96	96	4
NMSTR	85	96	4
NMSV_	85	96	4	96	96	3
NMSTR	85	192	3
NMSCL	85	192	3	96	96	1
NMTAP	85	288	1
NMTAP	86	0	0
NMTAP	86	48	0
NMTAP	86	96	1
NMTAP	86	96	7
NMTAP	86	192	6
NMTAP	86	240	6
NMTAP	86	288	5
NMTAP	86	288	7
NMSTR	87	0	4
NMSCR	87	0	4	96	48	7
NMTAP	87	96	2
NMTAP	87	144	2
NMSTR	87	192	3
NMSCL	87	192	3	96	48	0
NMTAP	87	288	5
NMTAP	87	336	6
NMTAP	88	0	7
NMTAP	88	48	7
NMTAP	88	96	0
NMTAP	88	96	6
NMHLD	88	144	0	96
NMHLD	88	144	6	96
NMTTP	88	288	0	E	0	M1
NMTTP	88	288	7	E	1	M1
NMTAP	89	0	2
NMTAP	89	0	3
BRSTR	89	96	0
NMSLR	89	96	0	96	96	4
BRTAP	89	96	5
NMTAP	89	192	5
NMTAP	89	240	6
NMTAP	89	288	7
EXSTR	89	336	0
NMSI_	89	336	0	96	48	5
EXSTR	89	336	4
NMSI_	89	336	4	96	48	1
EXTAP	90	48	0
EXTAP	90	48	4
BRTAP	90	144	2
BRTAP	90	144	6
BRTAP	90	192	2
BRTAP	90	192	6
NMTAP	90	288	0
NMTAP	90	288	1
NMTAP	91	0	2
NMTAP	91	0	4
NMTAP	91	96	3
NMSTR	91	96	7
NMSLL	91	96	7	96	96	3
NMTAP	91	192	2
NMTAP	91	240	1
NMTAP	91	288	0
EXSTR	91	336	3
NMSI_	91	336	3	96	48	6
EXSTR	91	336	7
NMSV_	91	336	7	96	48	2
EXTAP	92	48	3
EXTAP	92	48	7
BRTAP	92	144	1
BRTAP	92	144	5
BRTAP	92	192	1
BRTAP	92	192	5
NMTAP	92	288	6
NMTAP	92	288	7
NMSTR	93	0	1
NMSI_	93	0	1	96	48	5
NMSTR	93	0	5
NMSI_	93	0	5	96	48	1
NMTAP	93	96	1
NMTAP	93	96	5
NMTAP	93	192	7
NMTAP	93	240	7
NMTAP	93	288	3
NMSTR	93	336	3
NMSLR	93	336	3	96	96	7
NMSTR	94	48	7
NMSLR	94	48	7	96	96	3
NMTAP	94	144	3
NMTAP	94	192	3
NMTAP	94	288	7
NMTAP	95	0	2
NMTAP	95	48	2
NMTAP	95	96	4
NMTAP	95	144	5
NMTAP	95	192	3
NMTAP	95	240	3
NMTAP	95	288	6
NMTAP	95	336	7
NMTAP	96	0	4
NMTAP	96	48	4
NMTAP	96	96	0
NMTAP	96	96	4
NMTAP	96	144	0
NMTAP	96	144	4
EXSTR	96	192	0
BRSI_	96	192	0	96	48	5
EXSTR	96	192	4
BRSI_	96	192	4	96	48	1
BRTAP	96	288	0
BRTAP	96	288	4
BRTAP	97	0	2
BRTAP	97	0	6
NMTAP	97	192	0
NMSTR	97	192	1
NMSI_	97	192	1	96	48	4
NMTAP	97	288	6
NMTAP	98	0	5
NMTAP	98	48	4
NMTAP	98	48	6
NMHLD	98	144	2	96
NMTAP	98	144	4
EXTAP	98	240	0
EXTAP	98	264	7
EXTAP	98	288	6
NMTAP	98	336	2
NMTAP	99	0	1
NMTAP	99	48	0
NMTAP	99	96	6
NMTAP	99	96	7
NMTAP	99	192	4
NMSTR	99	192	5
NMSI_	99	192	5	96	48	0
NMTAP	99	288	0
NMTAP	100	0	2
NMTAP	100	48	1
NMTAP	100	48	3
NMTAP	100	144	3
NMHLD	100	144	5	96
EXTAP	100	240	6
EXTAP	100	264	7
EXTAP	100	288	0
NMTAP	100	336	5
NMTAP	101	0	6
NMTAP	101	48	7
NMTAP	101	96	0
NMTAP	101	96	1
NMSTR	101	192	6
NMSI_	101	192	6	96	48	3
NMTAP	101	192	7
NMTAP	101	288	1
NMTAP	102	0	2
NMTAP	102	48	1
NMTAP	102	48	3
NMTAP	102	144	3
NMHLD	102	144	5	96
EXTAP	102	240	7
EXTAP	102	264	0
EXTAP	102	288	1
NMTAP	102	336	5
NMTAP	103	0	6
NMTAP	103	48	7
NMTAP	103	96	0
NMTAP	103	96	1
NMTAP	103	192	4
NMSTR	103	192	5
NMSI_	103	192	5	96	48	0
NMTAP	103	288	2
NMTAP	104	0	1
NMTAP	104	48	1
NMTAP	104	48	7
NMSTR	104	144	0
NMSI_	104	144	0	96	48	4
NMSTR	104	144	7
NMSI_	104	144	7	96	48	3
BXTAP	104	240	0
BXTAP	104	240	7
BRTAP	104	336	1
BRTAP	104	336	6
BRTAP	105	0	1
BRTAP	105	0	6

T_REC_TAP	432
T_REC_BRK	38
T_REC_XTP	53
T_REC_BXX	8
T_REC_HLD	23
T_REC_XHO	0
T_REC_BHO	3
T_REC_BXH	0
T_REC_STR	82
T_REC_BST	1
T_REC_XST	8
T_REC_XBS	0
T_REC_TTP	37
T_REC_THO	0
T_REC_SLD	92
T_REC_BSL	2
T_REC_ALL	779
T_NUM_TAP	612
T_NUM_BRK	52
T_NUM_HLD	23
T_NUM_SLD	92
T_NUM_ALL	779
T_JUDGE_TAP	659
T_JUDGE_HLD	79
T_JUDGE_SLD	94
T_JUDGE_ALL	832
TTM_EACHPAIRS	168
TTM_SCR_TAP	306000
TTM_SCR_BRK	135200
TTM_SCR_HLD	23000
TTM_SCR_SLD	138000
TTM_SCR_ALL	602200
TTM_SCR_S	579100
TTM_SCR_SS	597000
TTM_RAT_ACV	10087

