VERSION	0.00.00	1.04.00
FES_MODE	0
BPM_DEF	190.000	190.000	190.000	190.000
MET_DEF	4	4
RESOLUTION	384
CLK_DEF	384
COMPATIBLE_CODE	MA2

BPM	0	0	190.000
MET	0	0	4	4
MET	59	0	4	2
MET	59	192	4	4
MET	80	192	4	2
MET	81	0	4	4
MET	97	0	4	2
MET	97	192	4	4

EXTAP	2	0	2
EXTAP	2	0	5
NMTAP	2	96	3
NMTAP	2	144	3
NMTAP	2	288	3
NMTAP	3	96	3
NMTAP	3	144	3
NMTAP	3	288	3
NMTAP	4	96	4
NMTAP	4	144	4
NMTAP	4	288	4
NMTAP	5	96	4
NMTAP	5	144	4
NMTAP	5	288	4
NMTAP	6	96	2
NMTAP	6	144	2
NMTAP	6	288	2
NMTAP	6	288	4
NMTAP	7	96	5
NMTAP	7	144	5
NMTAP	7	288	3
NMTAP	7	288	5
NMSTR	8	0	6
NMSUL	8	0	6	96	144	2
NMHLD	9	0	3	96
BRTAP	9	192	2
BRTAP	9	192	4
EXTAP	10	0	1
NMTAP	10	96	0
NMTAP	10	192	7
NMTAP	10	240	7
NMHLD	10	336	0	96
NMHLD	10	336	6	96
NMTAP	11	192	6
NMTAP	11	288	6
NMTAP	11	288	7
NMTAP	12	0	5
NMTAP	12	96	5
NMTAP	12	192	4
NMTAP	12	240	4
NMHLD	12	336	3	96
NMHLD	12	336	5	96
NMTAP	13	192	4
NMTAP	13	192	5
NMTAP	13	288	4
NMTAP	13	288	5
NMTAP	14	0	6
NMTAP	14	96	7
NMTAP	14	192	0
NMTAP	14	240	0
NMHLD	14	336	1	96
NMHLD	14	336	7	96
NMTAP	15	192	1
NMTAP	15	288	0
NMTAP	15	288	1
NMTAP	16	0	2
NMTAP	16	96	2
NMTAP	16	192	3
NMTAP	16	240	3
NMTAP	16	336	2
NMTAP	16	336	4
NMTAP	17	48	2
NMTAP	17	48	4
NMTAP	17	144	1
NMTAP	17	144	5
BXTAP	17	192	1
BXTAP	17	192	5
NMHLD	18	0	1	96
NMTAP	18	96	0
NMTAP	18	192	7
NMTAP	18	240	7
NMHLD	18	336	6	96
NMTAP	19	48	7
NMHLD	19	144	1	96
NMTAP	19	240	0
NMTAP	19	288	0
NMHLD	20	0	2	96
NMTAP	20	96	3
NMTAP	20	192	4
NMTAP	20	288	0
NMTAP	20	288	5
NMSTR	20	336	0
NMSLR	20	336	0	96	144	4
NMTAP	20	336	5
NMHLD	22	0	5	96
NMTAP	22	96	7
NMTAP	22	192	0
NMTAP	22	240	0
NMHLD	22	336	2	96
NMTAP	23	48	0
NMTAP	23	96	0
NMTAP	23	192	3
NMTAP	23	288	3
NMTAP	23	288	4
NMSTR	24	0	1
NMSI_	24	0	1	96	48	5
NMSTR	24	192	6
NMSI_	24	192	6	96	48	2
EXTAP	25	0	1
EXTAP	25	96	0
EXTAP	25	96	7
EXSTR	25	144	0
NMSI_	25	144	0	96	72	3
EXSTR	25	144	7
NMSI_	25	144	7	96	72	4
EXHLD	26	0	6	96
NMTAP	26	96	7
NMTAP	26	192	0
NMTAP	26	240	0
NMHLD	26	336	1	96
NMTAP	27	48	0
NMHLD	27	144	6	96
NMTAP	27	240	7
NMTAP	27	288	7
NMTAP	28	0	0
NMTAP	28	96	1
NMTAP	28	192	2
NMSTR	28	192	3
NMSXL	28	192	3	96	288	3
NMSXR	28	192	3	96	288	3
NMHLD	30	0	1	96
NMTAP	30	96	7
NMTAP	30	192	6
NMTAP	30	240	6
NMHLD	30	336	5	96
NMTAP	31	48	4
NMTAP	31	96	4
NMTAP	31	192	3
NMTAP	31	240	3
NMTAP	31	336	2
NMTAP	31	336	5
NMTTP	32	96	4	B	0	M1
NMTTP	32	192	2	B	0	M1
NMTTP	32	288	0	B	0	M1
NMTTP	33	0	7	E	0	M1
NMTTP	33	96	0	C	0	M1
NMTTP	33	192	3	E	0	M1
EXTAP	34	0	4
NMSTR	34	96	4
BRSI_	34	96	4	96	96	2
BRSI_	34	96	4	96	96	6
EXTAP	35	0	0
NMSTR	35	96	0
BRSI_	35	96	0	96	96	2
BRSI_	35	96	0	96	96	6
EXTAP	36	0	3
NMSTR	36	96	3
BRSI_	36	96	3	96	96	1
BRSI_	36	96	3	96	96	5
EXTAP	37	0	7
NMSTR	37	96	7
BRSI_	37	96	7	96	96	1
BRSI_	37	96	7	96	96	5
EXTAP	38	0	2
EXTAP	38	0	4
NMTAP	38	96	7
NMTAP	38	144	7
NMTAP	38	192	0
NMTAP	38	240	0
NMTAP	38	288	7
NMTAP	38	336	7
NMTAP	39	0	1
NMTAP	39	48	1
NMTAP	39	96	6
NMTAP	39	144	6
NMTAP	39	192	1
NMTAP	39	240	1
NMTAP	39	288	6
BXHLD	40	0	1	96
BXHLD	40	0	7	96
BXHLD	40	144	0	96
BXHLD	40	144	6	96
BXHLD	40	288	4	96
BXHLD	40	288	5	96
BXHLD	41	48	2	96
BXHLD	41	48	3	96
BXTAP	41	192	1
BXTAP	41	192	7
NMTAP	41	288	3
NMTAP	41	288	4
BRTAP	42	0	5
BRTAP	42	48	4
BRTAP	42	96	3
BRTAP	42	144	2
NMTAP	43	0	2
NMTAP	43	0	3
EXTAP	43	96	0
EXTAP	43	96	6
NMTAP	43	192	5
NMTAP	43	240	5
NMTAP	43	336	4
NMTAP	43	336	6
NMTAP	44	48	0
NMTAP	44	48	7
NMTAP	44	144	2
NMTAP	44	144	3
NMSTR	44	192	2
NMSI_	44	192	2	96	48	5
NMTAP	44	192	3
NMTAP	45	0	6
EXTAP	45	96	1
EXTAP	45	96	7
NMTAP	45	192	2
NMTAP	45	240	2
NMTAP	45	336	1
NMTAP	45	336	3
NMTAP	46	48	0
NMTAP	46	48	7
NMTAP	46	144	4
NMTAP	46	144	6
NMTAP	46	192	4
NMSTR	46	192	6
NMSI_	46	192	6	96	48	1
NMHLD	47	0	2	96
EXTAP	47	96	0
NMTAP	47	192	1
NMTAP	47	240	1
NMTAP	47	336	2
NMTAP	47	336	3
NMTAP	48	48	4
NMTAP	48	48	5
NMTAP	48	144	6
NMTAP	48	144	7
NMTAP	48	192	6
NMTAP	48	192	7
NMTAP	48	288	0
NMTAP	48	288	5
NMSTR	49	0	1
NMSCL	49	0	1	96	48	7
NMSTR	49	192	6
NMSCL	49	192	6	96	48	4
NMSTR	50	0	3
NMSXL	50	0	3	96	96	5
NMSXR	50	0	3	96	96	1
EXTAP	50	288	1
EXHLD	50	288	5	96
NMTAP	51	0	4
EXTAP	51	96	1
EXTAP	51	96	7
NMTAP	51	192	2
NMTAP	51	240	2
NMTAP	51	336	1
NMTAP	51	336	3
NMTAP	52	48	0
NMTAP	52	48	7
NMTAP	52	144	4
NMTAP	52	144	5
NMTAP	52	192	4
NMSTR	52	192	5
NMSI_	52	192	5	96	48	2
NMTAP	53	0	1
EXTAP	53	96	0
EXTAP	53	96	6
NMTAP	53	192	5
NMTAP	53	240	5
BRTAP	53	336	4
BRTAP	53	336	6
BRSTR	54	48	1
BRSI_	54	48	1	96	48	5
BRSTR	54	48	7
BRSI_	54	48	7	96	48	3
NMHLD	55	0	6	96
EXTAP	55	96	3
NMTAP	55	192	4
NMTAP	55	192	5
NMTAP	55	240	4
NMTAP	55	240	5
NMTAP	55	336	6
NMTAP	55	336	7
NMTAP	56	48	0
NMTAP	56	48	1
NMTAP	56	144	2
NMTAP	56	144	3
NMTAP	56	192	2
NMTAP	56	192	3
NMTAP	56	288	1
NMTAP	56	288	4
NMSTR	57	0	5
NMSCL	57	0	5	96	48	3
NMSTR	57	192	2
NMSCL	57	192	2	96	48	0
NMHLD	58	0	7	96
NMTAP	58	96	0
NMTAP	58	144	0
NMTAP	58	192	6
NMSTR	58	288	2
NMSV_	58	288	2	96	72	7
NMSTR	58	288	4
NMSV_	58	288	4	96	72	7
EXTAP	59	192	6
NMTAP	59	240	6
NMTAP	59	288	7
NMTAP	60	0	1
NMTAP	60	48	1
NMTAP	60	96	0
NMTAP	60	192	6
NMTAP	60	240	6
NMTAP	60	336	5
NMTAP	60	336	7
NMTAP	61	48	4
NMTAP	61	96	4
NMHLD	61	144	3	96
NMTAP	61	240	0
NMTAP	61	288	0
NMTAP	62	0	1
NMTAP	62	48	1
NMSTR	62	144	2
NMSI_	62	144	2	96	48	0
NMSTR	62	144	6
NMSI_	62	144	6	96	48	0
BXTAP	63	0	1
BXTAP	63	0	7
NMHLD	63	192	6	96
NMHLD	63	288	5	96
NMHLD	64	0	4	96
NMTAP	64	96	3
NMTAP	64	192	4
NMTAP	64	288	2
NMHLD	64	336	2	96
NMTAP	65	48	3
NMHLD	65	144	5	576
NMTTP	65	288	3	B	0	M1
NMTTP	65	288	3	E	0	M1
NMTTP	66	0	1	B	0	M1
NMTTP	66	0	1	E	0	M1
EXTAP	66	144	7
EXTAP	66	240	6
EXTAP	66	336	4
NMHLD	67	192	3	96
NMHLD	67	288	4	96
NMHLD	68	0	5	96
NMTAP	68	96	6
NMTAP	68	192	3
NMTAP	68	240	3
NMHLD	68	336	2	96
NMTAP	69	48	4
NMHLD	69	144	1	624
NMTAP	69	144	5
NMTTP	69	288	4	B	0	M1
NMTTP	69	288	5	E	0	M1
NMTTP	70	0	6	B	0	M1
NMTTP	70	0	7	E	0	M1
EXTAP	70	144	0
EXTAP	70	240	2
EXTAP	70	336	3
EXTAP	71	0	3
NMHLD	71	192	5	96
NMHLD	71	288	4	96
NMHLD	72	0	3	96
NMTAP	72	96	2
NMTAP	72	192	2
NMTAP	72	192	3
NMSTR	72	240	2
NMSCL	72	240	2	96	240	3
NMTAP	72	240	3
EXTAP	73	288	2
EXTAP	74	0	1
EXTAP	74	0	4
EXTAP	74	96	5
EXSTR	74	144	5
NMSV_	74	144	5	96	48	0
EXSTR	74	336	1
NMSV_	74	336	1	96	48	4
EXTAP	75	144	5
EXTAP	75	192	5
NMTAP	75	288	0
NMTAP	75	336	0
NMTAP	76	0	7
NMTAP	76	48	7
NMTAP	76	96	0
NMTAP	76	144	0
NMTAP	76	192	6
NMTAP	76	240	6
NMTAP	76	288	1
NMTAP	76	336	1
NMTAP	77	0	6
NMTAP	77	48	6
NMTAP	77	96	1
BXHLD	77	192	0	96
BXHLD	77	192	6	96
BXHLD	77	336	1	96
BXHLD	77	336	7	96
BXHLD	78	96	2	96
BXHLD	78	96	3	96
BXHLD	78	240	4	96
BXHLD	78	240	5	96
BXTAP	79	0	0
BXTAP	79	0	6
NMTAP	79	96	3
NMTAP	79	96	4
BRTAP	79	192	5
BRTAP	79	240	4
BRTAP	79	288	3
BRTAP	79	336	2
NMHLD	81	0	1	1536
NMTAP	81	96	3
NMTAP	81	144	3
NMTAP	81	288	3
NMTAP	82	96	3
NMTAP	82	144	3
NMTAP	82	288	3
NMTAP	83	96	2
NMTAP	83	144	2
NMTAP	83	288	2
NMTAP	84	96	3
NMTAP	84	144	3
NMTAP	84	288	4
NMHLD	85	0	6	1056
NMTAP	85	96	4
NMTAP	85	144	4
NMTAP	85	288	4
NMTAP	86	96	5
NMTAP	86	144	5
NMTAP	86	288	5
NMTAP	87	96	4
NMTAP	87	144	4
NMTAP	87	288	4
NMTAP	88	0	3
NMTAP	88	48	3
NMTAP	88	96	4
NMTAP	88	144	4
NMTAP	88	192	3
EXSTR	88	288	3
NMSI_	88	288	3	96	48	7
EXSTR	88	288	4
NMSI_	88	288	4	96	48	0
BXTAP	89	96	1
BXTAP	89	96	6
NMTAP	89	192	5
NMTAP	89	240	5
NMTAP	89	336	4
NMTAP	89	336	6
NMTAP	90	48	0
NMTAP	90	48	7
NMTAP	90	144	2
NMTAP	90	144	3
NMSTR	90	192	2
NMSI_	90	192	2	96	48	5
NMTAP	90	192	3
NMTAP	90	288	5
NMTAP	91	0	6
EXTAP	91	96	1
EXTAP	91	96	7
NMTAP	91	192	2
NMTAP	91	240	2
BRTAP	91	336	1
BRTAP	91	336	3
BRSTR	92	48	0
BRSI_	92	48	0	96	48	4
BRSTR	92	48	6
BRSI_	92	48	6	96	48	2
NMHLD	93	0	1	96
EXTAP	93	96	4
NMTAP	93	192	2
NMTAP	93	192	3
NMTAP	93	240	2
NMTAP	93	240	3
NMTAP	93	336	0
NMTAP	93	336	1
NMTAP	94	48	6
NMTAP	94	48	7
NMTAP	94	144	4
NMTAP	94	144	5
NMTAP	94	192	4
NMTAP	94	192	5
NMTAP	94	288	3
NMTAP	94	288	6
NMSTR	95	0	1
NMSCL	95	0	1	96	48	7
NMSTR	95	192	6
NMSCL	95	192	6	96	48	4
NMHLD	96	0	3	96
NMTAP	96	96	4
NMTAP	96	144	4
NMTAP	96	192	2
NMSTR	96	288	3
NMSV_	96	288	3	96	72	0
NMSTR	96	288	5
NMSV_	96	288	5	96	72	0
EXTAP	97	192	1
NMTAP	97	288	1
NMTAP	98	0	4
NMTAP	98	48	4
NMTAP	98	144	3
NMTAP	98	144	5
NMTAP	98	240	6
NMSTR	98	288	6
NMSI_	98	288	6	96	48	0
NMTAP	99	0	0
NMTAP	99	96	1
NMTAP	99	192	0
NMTAP	99	192	2
NMTAP	99	288	0
NMTAP	99	288	2
NMTAP	100	0	7
NMTAP	100	48	7
NMTAP	100	144	0
NMTAP	100	144	6
NMTAP	100	240	5
NMHLD	100	288	5	96
NMTAP	101	0	7
NMTAP	101	48	7
NMTAP	101	96	6
NMTAP	101	192	5
NMTAP	101	288	5
NMTAP	102	0	3
NMTAP	102	48	3
NMTAP	102	144	2
NMTAP	102	144	4
NMTAP	102	240	1
NMSTR	102	288	1
NMSI_	102	288	1	96	48	7
NMTAP	103	0	7
NMTAP	103	96	6
NMTAP	103	192	5
NMTAP	103	192	7
NMTAP	103	288	5
NMTAP	103	288	7
NMTAP	104	0	0
NMTAP	104	48	0
NMTAP	104	144	1
NMTAP	104	144	7
NMTAP	104	240	2
NMTAP	104	240	3
NMTAP	104	336	0
NMTAP	104	336	6
BXTAP	105	0	0
BXTAP	105	0	6

T_REC_TAP	306
T_REC_BRK	14
T_REC_XTP	41
T_REC_BXX	12
T_REC_HLD	39
T_REC_XHO	2
T_REC_BHO	0
T_REC_BXH	16
T_REC_STR	29
T_REC_BST	4
T_REC_XST	6
T_REC_XBS	0
T_REC_TTP	14
T_REC_THO	0
T_REC_SLD	33
T_REC_BSL	12
T_REC_ALL	528
T_NUM_TAP	396
T_NUM_BRK	58
T_NUM_HLD	41
T_NUM_SLD	33
T_NUM_ALL	528
T_JUDGE_TAP	426
T_JUDGE_HLD	185
T_JUDGE_SLD	45
T_JUDGE_ALL	656
TTM_EACHPAIRS	103
TTM_SCR_TAP	198000
TTM_SCR_BRK	150800
TTM_SCR_HLD	41000
TTM_SCR_SLD	49500
TTM_SCR_ALL	439300
TTM_SCR_S	420500
TTM_SCR_SS	433500
TTM_RAT_ACV	10133

