VERSION	0.00.00	1.04.00
FES_MODE	0
BPM_DEF	190.000	190.000	190.000	190.000
MET_DEF	4	4
RESOLUTION	384
CLK_DEF	384
COMPATIBLE_CODE	MA2

BPM	0	0	190.000
MET	0	0	4	4
MET	59	0	4	2
MET	59	192	4	4
MET	80	192	4	2
MET	81	0	4	4
MET	97	0	4	2
MET	97	192	4	4

NMTAP	2	0	3
NMTAP	2	96	3
NMTAP	2	192	3
NMTAP	3	0	2
NMTAP	3	96	2
NMTAP	3	192	2
NMTAP	4	0	1
NMTAP	4	96	1
NMTAP	4	192	1
NMTAP	5	0	0
NMTAP	5	0	7
NMTAP	5	192	0
NMTAP	5	192	7
NMTAP	6	0	6
NMTAP	6	96	6
NMTAP	6	192	6
NMTAP	7	0	5
NMTAP	7	96	5
NMTAP	7	192	5
NMTAP	8	0	4
NMTAP	8	96	4
NMTAP	8	192	4
NMHLD	9	0	3	192
NMHLD	9	0	4	192
NMTAP	10	0	5
NMTAP	10	96	5
NMTAP	10	192	4
NMTAP	10	192	5
NMTAP	11	0	6
NMTAP	11	96	6
NMTAP	11	192	6
NMTAP	11	192	7
NMTAP	12	0	0
NMTAP	12	96	0
NMTAP	12	192	0
NMTAP	12	192	1
NMTAP	13	0	2
NMTAP	13	0	3
NMTAP	13	96	2
NMTAP	13	96	3
NMTAP	13	192	2
NMTAP	13	192	3
NMTAP	14	0	2
NMTAP	14	96	2
NMTAP	14	192	2
NMTAP	14	192	3
NMTAP	15	0	1
NMTAP	15	96	1
NMTAP	15	192	0
NMTAP	15	192	1
NMTAP	16	0	7
NMTAP	16	96	7
NMTAP	16	192	6
NMTAP	16	192	7
NMTAP	17	0	4
NMTAP	17	0	5
NMTAP	17	96	4
NMTAP	17	96	5
NMTAP	17	192	4
NMTAP	17	192	5
NMHLD	18	0	5	192
NMTAP	18	192	4
NMTAP	19	0	5
NMTAP	19	96	5
NMTAP	19	192	4
NMTAP	19	192	5
NMHLD	20	0	6	192
NMTAP	20	192	7
NMTAP	21	0	6
NMTAP	21	96	6
NMTAP	21	192	6
NMTAP	21	192	7
NMHLD	22	0	1	192
NMTAP	22	192	0
NMTAP	23	0	1
NMTAP	23	96	1
NMTAP	23	192	0
NMTAP	23	192	1
NMHLD	24	0	2	192
NMTAP	24	192	3
NMTAP	25	0	2
NMTAP	25	96	2
NMTAP	25	192	2
NMTAP	25	192	3
NMTAP	26	0	1
NMTAP	26	96	1
NMTAP	26	192	1
NMTAP	27	0	2
NMTAP	27	96	2
NMTAP	27	192	2
NMTAP	28	0	3
NMTAP	28	96	3
NMTAP	28	192	3
NMTAP	29	0	4
NMTAP	29	0	5
NMTAP	29	192	4
NMTAP	29	192	5
NMTAP	30	0	6
NMTAP	30	96	6
NMTAP	30	192	6
NMTAP	31	0	5
NMTAP	31	96	5
NMTAP	31	192	5
NMTAP	32	0	4
NMTAP	32	96	4
NMTAP	32	192	4
NMTAP	33	0	2
NMTAP	33	0	3
NMTAP	33	192	2
NMTAP	33	192	3
NMTTP	34	0	1	B	0	L1
NMTTP	34	96	2	B	0	L1
NMTTP	34	192	3	B	0	L1
NMTTP	35	0	6	B	0	L1
NMTTP	35	96	5	B	0	L1
NMTTP	35	192	4	B	0	L1
NMTTP	36	0	1	B	0	L1
NMTTP	36	96	2	B	0	L1
NMTTP	36	192	3	B	0	L1
NMTTP	36	288	4	B	0	L1
NMTTP	37	0	5	B	0	L1
NMTTP	37	96	6	B	0	L1
NMTTP	37	192	0	C	0	L1
NMTTP	38	0	7	B	0	L1
NMTTP	38	96	6	B	0	L1
NMTTP	38	192	4	B	0	L1
NMTTP	38	192	5	B	0	L1
NMTTP	39	0	0	B	0	L1
NMTTP	39	96	1	B	0	L1
NMTTP	39	192	2	B	0	L1
NMTTP	39	192	3	B	0	L1
NMTTP	40	0	5	B	0	L1
NMTTP	40	96	4	B	0	L1
NMTTP	40	192	3	B	0	L1
NMTTP	40	288	2	B	0	L1
NMTTP	41	0	0	C	0	L1
EXTAP	42	0	0
EXTAP	42	0	7
BXTAP	43	0	6
NMTAP	43	96	6
NMTAP	43	192	7
NMTAP	43	288	7
NMTAP	44	0	0
NMTAP	44	96	0
NMTAP	44	192	0
NMTAP	44	192	1
NMTAP	45	0	2
NMTAP	45	96	2
NMTAP	45	192	1
NMTAP	45	288	1
NMTAP	46	0	0
NMTAP	46	96	0
EXTAP	46	192	6
EXTAP	46	192	7
NMTAP	47	0	6
NMTAP	47	96	6
NMTAP	47	192	5
NMTAP	47	288	5
NMTAP	48	0	4
NMTAP	48	96	4
NMTAP	48	192	2
NMTAP	48	192	3
NMTAP	49	0	1
NMTAP	49	96	1
NMTAP	49	192	2
NMTAP	49	288	2
NMTAP	50	0	3
NMTAP	50	96	3
NMTAP	50	192	4
NMTAP	50	192	5
NMTAP	51	0	5
NMTAP	51	96	5
NMTAP	51	192	6
NMTAP	51	192	7
NMTAP	51	288	6
NMTAP	51	288	7
NMTAP	52	0	0
NMTAP	52	96	0
NMTAP	52	192	0
NMTAP	52	192	1
NMTAP	53	0	2
NMTAP	53	96	2
NMTAP	53	192	0
NMTAP	53	192	1
NMTAP	53	288	0
NMTAP	53	288	1
NMTAP	54	0	7
NMTAP	54	96	7
EXTAP	54	192	6
EXTAP	54	192	7
NMTAP	55	0	6
NMTAP	55	96	6
NMTAP	55	192	4
NMTAP	55	192	5
NMTAP	55	288	4
NMTAP	55	288	5
NMTAP	56	0	3
NMTAP	56	96	3
NMTAP	56	192	2
NMTAP	56	192	3
NMTAP	57	0	1
NMTAP	57	96	1
NMTAP	57	192	2
NMTAP	57	192	3
NMTAP	57	288	2
NMTAP	57	288	3
NMTAP	58	0	4
NMTAP	58	96	4
NMTAP	58	192	4
NMTAP	58	192	5
NMTAP	59	0	3
NMTAP	59	0	4
NMTAP	59	192	3
NMTAP	59	288	3
NMTAP	60	0	2
NMTAP	60	96	2
NMTAP	60	192	1
NMTAP	60	288	1
NMTAP	61	0	0
NMTAP	61	96	0
NMTAP	61	192	7
NMTAP	61	288	7
NMTAP	62	0	6
NMTAP	62	96	6
NMTAP	62	192	5
NMTAP	62	288	5
NMTAP	63	0	3
NMTAP	63	0	4
NMSTR	63	192	2
NMSI_	63	192	2	96	192	7
NMSTR	64	192	6
NMSI_	64	192	6	96	192	3
NMSTR	65	192	1
NMSI_	65	192	1	96	192	4
NMTAP	66	192	5
NMTAP	67	0	6
NMSTR	67	192	7
NMSI_	67	192	7	96	192	3
NMSTR	68	192	1
NMSI_	68	192	1	96	192	4
NMSTR	69	192	6
NMSI_	69	192	6	96	192	3
NMTAP	70	192	2
NMTAP	71	0	2
NMTAP	71	0	3
NMTAP	71	192	1
NMTAP	71	288	1
NMTAP	72	0	0
NMTAP	72	0	1
NMTAP	72	192	2
NMTAP	72	288	2
NMTAP	73	0	2
NMTAP	73	0	3
NMTAP	73	192	4
NMTAP	73	288	4
NMTAP	74	0	4
NMTAP	74	0	5
NMTAP	74	192	6
NMTAP	74	192	7
NMTAP	74	288	6
NMTAP	74	288	7
NMTAP	75	0	6
NMTAP	75	0	7
NMTAP	75	192	6
NMTAP	75	288	6
NMTAP	76	0	6
NMTAP	76	0	7
NMTAP	76	192	5
NMTAP	76	288	5
NMTAP	77	0	4
NMTAP	77	0	5
NMTAP	77	192	3
NMTAP	77	288	3
NMTAP	78	0	2
NMTAP	78	0	3
NMTAP	78	192	0
NMTAP	78	192	1
NMTAP	78	288	0
NMTAP	78	288	1
NMTAP	79	0	0
NMTAP	79	0	1
NMTAP	79	192	6
NMTAP	79	192	7
NMTAP	79	288	6
NMTAP	79	288	7
NMTAP	80	0	6
NMTAP	80	0	7
NMHLD	81	0	6	192
NMHLD	81	192	7	192
NMHLD	82	0	0	192
NMTAP	82	192	1
NMHLD	83	0	1	192
NMHLD	83	192	0	192
NMHLD	84	0	7	192
NMTAP	84	192	6
NMHLD	85	0	5	192
NMHLD	85	192	4	192
NMHLD	86	0	3	192
NMTAP	86	192	2
NMHLD	87	0	2	192
NMHLD	87	192	3	192
NMHLD	88	0	4	192
NMTAP	88	192	5
EXTAP	89	0	5
NMTAP	89	96	5
NMTAP	89	192	4
NMTAP	89	192	5
NMTAP	89	288	4
NMTAP	89	288	5
NMTAP	90	0	6
NMTAP	90	96	6
NMTAP	90	192	6
NMTAP	90	192	7
NMTAP	90	288	6
NMTAP	90	288	7
NMTAP	91	0	0
NMTAP	91	96	0
NMTAP	91	192	0
NMTAP	91	192	1
NMTAP	91	288	0
NMTAP	91	288	1
NMTAP	92	0	2
NMTAP	92	96	2
BXTAP	92	192	2
BXTAP	92	192	3
NMTAP	93	0	2
NMTAP	93	96	2
NMTAP	93	192	2
NMTAP	93	192	3
NMTAP	93	288	2
NMTAP	93	288	3
NMTAP	94	0	1
NMTAP	94	96	1
NMTAP	94	192	0
NMTAP	94	192	1
NMTAP	94	288	0
NMTAP	94	288	1
NMTAP	95	0	7
NMTAP	95	96	7
NMTAP	95	192	6
NMTAP	95	192	7
NMTAP	95	288	6
NMTAP	95	288	7
NMTAP	96	0	5
NMTAP	96	96	5
NMTAP	96	192	4
NMTAP	96	192	5
EXTAP	97	0	3
EXTAP	97	0	4
NMTAP	97	192	4
NMTAP	97	288	5
NMTAP	98	0	6
NMTAP	98	96	7
NMTAP	98	192	0
NMTAP	98	288	1
NMTAP	99	0	2
NMTAP	99	0	3
NMTAP	99	192	3
NMTAP	99	288	2
NMTAP	100	0	1
NMTAP	100	96	0
NMTAP	100	192	7
NMTAP	100	288	6
NMTAP	101	0	4
NMTAP	101	0	5
NMTAP	101	192	4
NMTAP	101	288	5
NMTAP	102	0	6
NMTAP	102	96	7
NMTAP	102	192	0
NMTAP	102	288	1
NMTAP	103	0	2
NMTAP	103	96	3
NMTAP	103	192	4
NMTAP	103	288	5
NMTAP	104	0	6
NMTAP	104	96	7
NMTAP	104	192	0
NMTAP	104	192	7
NMTAP	104	288	0
NMTAP	104	288	7
BRTAP	105	0	1
BRTAP	105	0	6

T_REC_TAP	313
T_REC_BRK	2
T_REC_XTP	9
T_REC_BXX	3
T_REC_HLD	18
T_REC_XHO	0
T_REC_BHO	0
T_REC_BXH	0
T_REC_STR	6
T_REC_BST	0
T_REC_XST	0
T_REC_XBS	0
T_REC_TTP	26
T_REC_THO	0
T_REC_SLD	6
T_REC_BSL	0
T_REC_ALL	383
T_NUM_TAP	354
T_NUM_BRK	5
T_NUM_HLD	18
T_NUM_SLD	6
T_NUM_ALL	383
T_JUDGE_TAP	359
T_JUDGE_HLD	72
T_JUDGE_SLD	6
T_JUDGE_ALL	437
TTM_EACHPAIRS	78
TTM_SCR_TAP	177000
TTM_SCR_BRK	13000
TTM_SCR_HLD	18000
TTM_SCR_SLD	9000
TTM_SCR_ALL	217000
TTM_SCR_S	210050
TTM_SCR_SS	216500
TTM_RAT_ACV	10023

