VERSION	0.00.00	1.04.00
FES_MODE	0
BPM_DEF	170.000	170.000	170.000	170.000
MET_DEF	4	4
RESOLUTION	384
CLK_DEF	384
COMPATIBLE_CODE	MA2

BPM	0	0	170.000
MET	0	0	4	4

NMSTR	1	0	0
NMSI_	1	0	0	96	72	6
NMTHO	1	0	0	288	C	0	M1
CNSUR	1	168	6	0	120	4
BXTAP	2	0	3
BXTAP	2	0	7
NMSTR	2	96	1
NMSV_	2	96	1	96	48	4
NMTAP	2	144	1
NMTAP	2	192	0
NMTAP	2	240	0
NMTAP	2	336	7
NMTAP	3	0	7
NMTAP	3	48	1
NMSTR	3	96	1
NMSI_	3	96	1	96	48	3
NMTAP	3	144	5
NMSTR	3	192	5
NMSI_	3	192	5	96	48	3
NMTAP	4	0	2
NMTAP	4	48	2
NMSTR	4	96	3
NMSV_	4	96	3	96	48	6
NMTAP	4	144	3
NMTAP	4	192	0
NMTAP	4	240	0
NMTAP	4	336	7
NMTAP	5	0	7
NMTAP	5	48	4
NMTAP	5	96	4
NMTAP	5	144	5
NMTTP	5	192	4	D	0	M1
NMTTP	5	216	3	D	0	M1
NMTTP	5	240	2	D	0	M1
NMTTP	5	264	1	D	0	M1
NMTTP	5	288	5	D	0	M1
NMTTP	5	312	6	D	0	M1
NMTTP	5	336	7	D	0	M1
NMTTP	5	360	0	D	0	M1
BRTAP	6	0	2
NMTAP	6	48	2
NMSTR	6	96	3
NMSV_	6	96	3	96	48	6
NMTAP	6	144	3
NMTAP	6	192	0
NMTAP	6	240	0
NMTAP	6	336	7
NMTAP	7	0	7
NMTAP	7	48	4
NMSTR	7	96	4
NMSI_	7	96	4	96	48	2
NMTAP	7	144	6
NMSTR	7	192	6
NMSI_	7	192	6	96	48	4
NMTAP	8	0	2
NMHLD	8	0	3	96
NMTTP	8	96	7	E	0	M1
NMTTP	8	96	7	A	0	M1
NMTTP	8	96	7	D	1	M1
NMHLD	8	240	4	96
NMTAP	8	240	5
NMTTP	8	336	0	A	0	M1
NMTTP	8	336	1	E	0	M1
NMTTP	8	336	1	D	1	M1
NMTAP	9	48	2
NMHLD	9	48	4	96
NMTAP	9	144	7
NMSTR	9	192	5
NMSI_	9	192	5	96	48	2
NMSTR	9	192	6
NMSSR	9	192	6	96	48	2
NMTAP	9	240	5
NMTAP	9	240	6
EXTAP	10	0	1
NMTAP	10	96	1
NMTAP	10	192	6
NMTAP	10	240	5
NMTAP	10	288	2
NMHLD	10	336	3	240
NMTTP	11	48	2	A	0	M1
NMTTP	11	48	3	E	0	M1
NMTTP	11	192	4	E	0	M1
NMTTP	11	192	4	A	0	M1
NMTAP	11	288	3
NMTAP	11	288	5
NMTAP	12	0	4
NMTAP	12	0	6
NMTAP	12	96	5
NMTAP	12	144	4
NMTAP	12	192	2
NMTAP	12	288	1
NMTAP	12	288	3
NMTAP	12	336	1
NMTAP	12	336	3
NMTAP	13	48	4
NMTAP	13	48	6
NMTAP	13	96	4
NMHLD	13	96	6	96
NMTTP	13	192	5	E	0	M1
NMTTP	13	216	6	E	0	M1
NMTTP	13	240	7	E	0	M1
NMTTP	13	264	0	E	0	M1
NMTTP	13	288	1	E	0	M1
NMTTP	13	312	2	E	0	M1
NMTTP	13	336	3	E	0	M1
NMTTP	13	360	4	E	0	M1
NMTAP	14	0	6
NMTAP	14	96	4
NMTAP	14	96	6
NMTAP	14	192	1
NMTAP	14	240	2
NMTAP	14	288	5
NMHLD	14	336	4	240
NMTTP	15	48	5	E	0	M1
NMTTP	15	48	5	A	0	M1
NMTTP	15	192	3	A	0	M1
NMTTP	15	192	4	E	0	M1
NMTAP	15	288	2
NMTAP	15	288	4
NMSTR	16	0	1
NMSUR	16	0	1	96	48	5
NMSTR	16	0	3
NMSV_	16	0	3	96	48	6
NMTTP	16	96	1	A	1	M1
NMTTP	16	96	3	A	0	M1
NMSTR	16	240	4
NMSUL	16	240	4	96	48	0
NMSTR	16	240	6
NMSUL	16	240	6	96	48	2
NMTTP	16	336	4	A	1	M1
NMTTP	16	336	6	A	0	M1
NMSTR	17	48	7
NMSF_	17	48	7	96	48	3
NMTTP	17	144	7	A	1	M1
NMTTP	17	240	2	E	0	M1
NMTTP	17	240	5	E	0	M1
NMTTP	17	288	2	E	0	M1
NMTTP	17	288	5	E	0	M1
EXTAP	18	0	6
NMTAP	18	96	6
NMTAP	18	96	7
NMTAP	18	192	1
NMTAP	18	240	0
NMTAP	18	288	6
NMHLD	18	336	7	240
NMTTP	19	48	6	A	0	M1
NMTTP	19	48	7	E	0	M1
NMTTP	19	192	0	E	0	M1
NMTTP	19	192	0	A	0	M1
NMTAP	19	288	1
NMTAP	19	288	7
NMTAP	20	0	0
NMTAP	20	0	2
NMTAP	20	96	1
NMTAP	20	144	0
NMTAP	20	192	6
NMTAP	20	288	5
NMTAP	20	288	7
NMTAP	20	336	5
NMTAP	20	336	7
NMTAP	21	48	0
NMTAP	21	48	2
NMTAP	21	96	0
NMHLD	21	96	2	96
NMTTP	21	192	1	E	0	M1
NMTTP	21	216	2	E	0	M1
NMTTP	21	240	3	E	0	M1
NMTTP	21	264	4	E	0	M1
NMTTP	21	288	5	E	0	M1
NMTTP	21	312	6	E	0	M1
NMTTP	21	336	7	E	0	M1
NMTTP	21	360	0	E	0	M1
NMTAP	22	0	1
NMTAP	22	96	0
NMTAP	22	96	1
NMTAP	22	192	6
NMTAP	22	240	7
NMTAP	22	288	1
NMHLD	22	336	0	240
NMTTP	23	48	1	E	0	M1
NMTTP	23	48	1	A	0	M1
NMTTP	23	192	0	E	0	M1
NMTTP	23	192	7	A	0	M1
NMTAP	23	288	0
NMTAP	23	288	6
NMSTR	24	0	3
NMSF_	24	0	3	96	48	7
NMTTP	24	96	3	A	1	M1
NMSTR	24	240	4
NMSF_	24	240	4	96	48	0
NMTTP	24	336	4	A	1	M1
NMTAP	25	48	2
NMHLD	25	48	6	96
NMTAP	25	144	3
NMSTR	25	192	4
NMSCL	25	192	4	96	48	2
NMSTR	25	192	5
NMSV_	25	192	5	96	48	3
NMTAP	25	240	4
NMTAP	25	240	5
NMHLD	26	0	1	288
NMTAP	26	192	2
NMTAP	26	288	2
NMTAP	26	336	1
NMHLD	27	0	0	288
NMTAP	27	0	3
NMTAP	27	96	3
NMTAP	27	192	3
NMTAP	27	288	3
NMTAP	27	336	1
NMTAP	28	0	2
NMHLD	28	0	4	288
NMTAP	28	96	2
NMTAP	28	192	2
NMTAP	28	288	2
NMTAP	28	336	4
NMTAP	29	0	3
NMHLD	29	0	5	192
NMTAP	29	96	3
NMTAP	29	192	3
NMTAP	29	288	2
NMTAP	29	288	4
NMTTP	30	0	1	B	0	M1
NMTTP	30	8	2	B	0	M1
NMTTP	30	16	3	B	0	M1
NMTTP	30	48	7	B	0	M1
NMTTP	30	56	6	B	0	M1
NMTTP	30	64	5	B	0	M1
NMTTP	30	96	1	A	0	M1
NMTTP	30	104	2	D	0	M1
NMTTP	30	112	2	A	0	M1
NMTTP	30	144	7	A	0	M1
NMTTP	30	152	7	D	0	M1
NMTTP	30	160	6	A	0	M1
NMTTP	30	192	0	A	0	M1
NMTTP	30	204	0	B	0	M1
NMTTP	30	216	0	C	0	M1
NMTTP	30	228	4	B	0	M1
NMTTP	30	240	4	A	0	M1
NMTAP	30	288	7
NMTAP	30	336	7
NMTTP	31	0	6	B	0	M1
NMTTP	31	8	5	B	0	M1
NMTTP	31	16	4	B	0	M1
NMTTP	31	48	0	B	0	M1
NMTTP	31	56	1	B	0	M1
NMTTP	31	64	2	B	0	M1
NMTTP	31	96	6	A	0	M1
NMTTP	31	104	6	D	0	M1
NMTTP	31	112	5	A	0	M1
NMTTP	31	144	0	A	0	M1
NMTTP	31	152	1	D	0	M1
NMTTP	31	160	1	A	0	M1
NMTTP	31	192	7	A	0	M1
NMTTP	31	204	7	B	0	M1
NMTTP	31	216	0	C	0	M1
NMTTP	31	228	3	B	0	M1
NMTTP	31	240	3	A	0	M1
NMTAP	31	288	2
NMTAP	31	336	1
EXSTR	32	0	0
NMSI_	32	0	0	96	48	3
NMSCR	32	0	0	96	12	1
EXTAP	32	48	0
CNSV_	32	108	1	0	36	3
EXSTR	32	192	7
NMSI_	32	192	7	96	48	4
NMSCL	32	192	7	96	12	6
EXTAP	32	240	7
CNSV_	32	300	6	0	36	4
EXTAP	33	0	2
NMTAP	33	0	3
NMTAP	33	96	0
EXTAP	33	96	7
EXSTR	33	192	5
NMSI_	33	192	5	96	48	2
NMSTR	33	192	6
NMSSR	33	192	6	96	48	2
BXSTR	34	0	1
NMSI_	34	0	1	96	48	5
NMTAP	34	48	1
NMTAP	34	96	1
NMSTR	34	96	6
NMSI_	34	96	6	96	48	0
NMSTR	34	192	2
NMSI_	34	192	2	96	48	4
NMTAP	34	192	6
NMTAP	34	288	2
NMSTR	34	288	5
NMSI_	34	288	5	96	48	1
NMSTR	35	0	2
NMSI_	35	0	2	96	48	7
NMTAP	35	0	5
NMTAP	35	96	2
NMSTR	35	96	5
NMSI_	35	96	5	96	32	7
NMTAP	35	192	0
CNSI_	35	224	7	0	32	4
CNSI_	35	256	4	0	32	0
NMSTR	35	288	2
NMSI_	35	288	2	96	48	6
NMTAP	36	0	2
NMSTR	36	0	7
NMSI_	36	0	7	96	48	1
NMSTR	36	96	3
NMSI_	36	96	3	96	48	5
NMTAP	36	96	7
NMTAP	36	192	3
NMSTR	36	192	6
NMSI_	36	192	6	96	48	3
NMSTR	36	288	2
NMSCR	36	288	2	96	48	5
NMTAP	36	288	6
NMTAP	37	0	2
NMSTR	37	0	6
NMSCR	37	0	6	96	48	1
NMSTR	37	96	2
BRSI_	37	96	2	96	48	5
NMTAP	37	96	6
NMTAP	37	192	2
NMSTR	37	192	6
BRSSR	37	192	6	96	48	2
BRSTR	38	0	1
NMSI_	38	0	1	96	48	3
NMTAP	38	48	1
NMTAP	38	96	1
NMSTR	38	96	4
NMSI_	38	96	4	96	48	0
NMSTR	38	192	2
NMSI_	38	192	2	96	48	7
NMTAP	38	192	4
NMTAP	38	288	2
NMSTR	38	288	6
NMSI_	38	288	6	96	48	4
NMSTR	39	0	3
NMSI_	39	0	3	96	48	7
NMTAP	39	0	6
NMTAP	39	96	3
NMSTR	39	96	4
NMSXL	39	96	4	96	48	6
NMSXR	39	96	4	96	48	2
EXTAP	39	288	1
EXTAP	39	288	7
NMHLD	40	0	0	24
NMHLD	40	0	6	24
NMHLD	40	48	1	24
NMHLD	40	48	5	24
NMSTR	40	96	0
NMSV_	40	96	0	96	48	3
NMSTR	40	96	6
NMSV_	40	96	6	96	48	3
NMHLD	40	144	1	24
NMHLD	40	144	5	24
BRTAP	40	192	0
BRTAP	40	192	6
NMHLD	40	288	1	24
NMHLD	40	288	7	24
NMHLD	40	336	2	24
NMHLD	40	336	6	24
NMSTR	41	0	1
NMSV_	41	0	1	96	48	4
NMSTR	41	0	7
NMSV_	41	0	7	96	48	4
NMHLD	41	48	2	24
NMHLD	41	48	6	24
BRSTR	41	96	1
NMSI_	41	96	1	96	48	3
BRSTR	41	96	7
NMSI_	41	96	7	96	48	5
BRTAP	41	192	1
BRTAP	41	192	7
NMTAP	41	288	3
NMTAP	41	288	5
BXSTR	42	0	6
NMSI_	42	0	6	96	48	2
NMTAP	42	48	6
NMSTR	42	96	1
NMSI_	42	96	1	96	48	7
NMTAP	42	96	6
NMTAP	42	192	1
NMSTR	42	192	5
NMSI_	42	192	5	96	48	3
NMSTR	42	288	2
NMSI_	42	288	2	96	48	6
NMTAP	42	288	5
NMTAP	43	0	2
NMSTR	43	0	5
NMSI_	43	0	5	96	48	0
NMSTR	43	96	1
NMSV_	43	96	1	96	48	4
NMTAP	43	96	5
NMTAP	43	192	1
NMTAP	43	192	7
CNSLL	43	240	4	0	48	7
NMSTR	43	288	5
NMSI_	43	288	5	96	48	1
NMSTR	44	0	0
NMSI_	44	0	0	96	48	6
NMTAP	44	0	5
NMTAP	44	96	0
NMSTR	44	96	4
NMSI_	44	96	4	96	48	2
NMSTR	44	192	1
NMSI_	44	192	1	96	48	4
NMTAP	44	192	4
NMTAP	44	288	1
NMSTR	44	288	6
NMSCL	44	288	6	96	48	3
NMSTR	45	0	2
NMSCL	45	0	2	96	48	7
NMTAP	45	0	6
NMTAP	45	96	2
NMSTR	45	96	6
BRSSR	45	96	6	96	96	2
NMSTR	45	192	2
BRSI_	45	192	2	96	48	5
BXSTR	46	0	6
NMSI_	46	0	6	96	48	4
NMTAP	46	48	6
NMSTR	46	96	3
NMSI_	46	96	3	96	48	7
NMTAP	46	96	6
NMTAP	46	192	3
NMSTR	46	192	5
NMSI_	46	192	5	96	48	0
NMSTR	46	288	1
NMSI_	46	288	1	96	48	3
NMTAP	46	288	5
NMTAP	47	0	1
NMSTR	47	0	4
NMSI_	47	0	4	96	48	0
NMSTR	47	96	3
NMSXL	47	96	3	96	48	5
NMSXR	47	96	3	96	48	1
NMTAP	47	96	4
NMTAP	47	288	0
NMTAP	47	288	6
NMHLD	48	0	1	24
NMHLD	48	0	7	24
NMHLD	48	48	2	24
NMHLD	48	48	6	24
NMSTR	48	96	1
NMSV_	48	96	1	96	48	4
NMSTR	48	96	7
NMSV_	48	96	7	96	48	4
NMHLD	48	144	2	24
NMHLD	48	144	6	24
BRTAP	48	192	1
BRTAP	48	192	7
NMHLD	48	288	0	24
NMHLD	48	288	6	24
NMHLD	48	336	1	24
NMHLD	48	336	5	24
NMSTR	49	0	0
NMSV_	49	0	0	96	48	3
NMSTR	49	0	6
NMSV_	49	0	6	96	48	3
NMHLD	49	48	1	24
NMHLD	49	48	5	24
BRSTR	49	96	0
NMSCR	49	96	0	96	48	2
BRSTR	49	96	6
NMSCL	49	96	6	96	48	4
BRSTR	49	192	0
BRSSL	49	192	0	96	48	4
BRSTR	49	192	6
BRSI_	49	192	6	96	48	2
BRTAP	50	0	1
BRTAP	50	0	5
NMTAP	50	96	2
NMSTR	50	144	3
NMSI_	50	144	3	96	48	7
NMTAP	50	192	4
NMTAP	50	240	5
NMTAP	50	336	6
NMTAP	51	0	5
NMTAP	51	48	4
NMSTR	51	96	3
NMSV_	51	96	3	96	48	0
NMTAP	51	144	2
NMSTR	51	192	1
NMSCR	51	192	1	96	48	4
NMTAP	52	0	6
NMTAP	52	48	6
NMTAP	52	96	5
NMSTR	52	144	4
NMSI_	52	144	4	96	48	0
NMTAP	52	192	3
NMTAP	52	240	2
NMTAP	52	336	1
NMTAP	53	0	2
NMTAP	53	48	3
NMTAP	53	96	4
NMTAP	53	144	5
NMTTP	53	192	3	D	0	M1
NMTTP	53	216	2	D	0	M1
NMTTP	53	240	1	D	0	M1
NMTTP	53	264	0	D	0	M1
NMTTP	53	288	4	D	0	M1
NMTTP	53	312	5	D	0	M1
NMTTP	53	336	6	D	0	M1
NMTTP	53	360	7	D	0	M1
BRTAP	54	0	3
NMTAP	54	48	2
NMTAP	54	96	1
NMSTR	54	144	0
NMSCR	54	144	0	96	48	3
NMTAP	54	192	7
NMTAP	54	240	6
NMTAP	54	336	4
NMTAP	55	0	5
NMTAP	55	48	6
NMSTR	55	96	7
NMSCL	55	96	7	96	48	4
NMTAP	55	144	0
NMSTR	55	192	1
NMSI_	55	192	1	96	48	4
EXHLD	56	0	3	96
NMHLD	56	0	5	576
EXHLD	56	144	0	96
EXHLD	56	288	4	96
EXHLD	57	48	7	96
EXTAP	57	192	6
NMTTP	57	288	5	A	0	M1
NMTTP	57	288	6	A	0	M1
NMTTP	57	291	7	E	0	M1
NMTTP	57	294	5	E	0	M1
NMTTP	57	297	7	B	0	M1
NMTTP	57	300	4	B	0	M1
NMTTP	57	303	0	C	0	M1
NMTTP	57	306	3	B	0	M1
NMTTP	57	309	0	B	0	M1
NMTTP	57	312	3	E	0	M1
NMTTP	57	318	2	A	0	M1
BXSTR	58	0	0
NMSI_	58	0	0	96	128	6
CNSV_	58	224	6	0	144	1
CNSCR	58	368	1	0	48	2
CNSI_	59	32	2	0	128	5
CNSCL	59	160	5	0	128	3
NMSTR	59	288	6
NMSV_	59	288	6	96	112	5
NMHLD	60	0	1	336
CNSI_	60	112	5	0	80	3
NMTAP	60	288	3
NMHLD	60	336	3	96
NMTTP	61	48	1	B	0	M1
NMTTP	61	48	1	A	0	M1
NMTTP	61	96	5	E	0	M1
NMTTP	61	96	5	D	0	M1
NMTTP	61	144	3	E	0	M1
NMTTP	61	144	3	D	0	M1
NMTTP	61	192	6	B	0	M1
NMTTP	61	192	6	A	0	M1
NMTTP	61	240	4	E	0	M1
NMTTP	61	240	4	D	0	M1
NMTTP	61	288	0	E	1	M1
NMTAP	62	0	3
NMTAP	62	0	5
NMTAP	62	48	3
NMTAP	62	48	5
NMTAP	62	96	2
NMTAP	62	120	4
NMTAP	62	144	2
NMTAP	62	168	4
NMTAP	62	192	2
NMTAP	62	216	6
NMTAP	62	240	2
NMTAP	62	264	6
NMTAP	62	288	2
NMTAP	62	312	0
NMTAP	62	336	2
NMTAP	62	360	0
NMTAP	63	0	2
NMTAP	63	24	6
NMTAP	63	48	2
NMTAP	63	72	6
NMTAP	63	96	2
NMTAP	63	120	4
NMTAP	63	144	2
NMTAP	63	168	4
NMTAP	63	192	2
NMTAP	63	216	6
NMTAP	63	240	2
EXSTR	63	288	3
NMSCL	63	288	3	96	48	0
EXSTR	63	288	7
NMSCL	63	288	7	96	48	4
NMSTR	64	0	3
NMSUR	64	0	3	96	48	7
NMSTR	64	0	7
NMSUR	64	0	7	96	48	3
NMTAP	64	96	3
NMTAP	64	96	7
NMSTR	64	240	2
NMSV_	64	240	2	96	48	7
NMSTR	64	240	6
NMSCL	64	240	6	96	16	5
NMTAP	64	336	2
NMTAP	64	336	6
CNSI_	64	352	5	0	32	3
NMSTR	65	48	1
NMSCR	65	48	1	96	16	2
NMSTR	65	48	5
NMSV_	65	48	5	96	48	0
NMTAP	65	144	1
NMTAP	65	144	5
CNSI_	65	160	2	0	32	4
NMTAP	65	240	3
NMTAP	65	240	7
NMTAP	65	288	3
NMSTR	65	288	7
NMSSR	65	288	7	96	240	3
NMTHO	66	0	0	240	C	0	M1
NMSTR	67	0	0
NMSI_	67	0	0	96	48	5
NMTAP	67	0	6
NMSTR	67	48	1
BRSI_	67	48	1	96	32	3
NMTAP	67	48	7
NMTAP	67	96	0
NMTAP	67	144	1
CNSCR	67	176	3	0	16	4
NMSTR	67	192	6
NMSI_	67	192	6	96	48	1
NMSTR	67	240	2
NMSI_	67	240	2	96	48	5
BXTAP	67	288	6
BXTAP	67	336	2
EXHLD	68	0	7	0
EXHLD	68	48	0	0
EXHLD	68	48	6	0
NMTTP	68	96	2	D	0	M1
NMTTP	68	120	6	D	0	M1
NMTTP	68	144	3	D	0	M1
NMTTP	68	168	5	D	0	M1
NMSTR	68	192	0
NMSF_	68	192	0	96	48	4
NMTAP	68	240	1
NMTAP	68	240	7
BRSTR	69	0	2
NMSCL	69	0	2	96	48	7
BRSTR	69	0	6
NMSCL	69	0	6	96	48	3
NMTAP	69	48	2
NMTAP	69	48	6
NMSTR	69	96	2
NMSI_	69	96	2	96	48	6
NMTAP	69	96	6
NMSTR	69	192	0
NMSLR	69	192	0	96	48	4
NMTAP	69	192	2
NMTAP	69	288	0
NMSTR	69	288	7
NMSI_	69	288	7	96	48	3
NMSTR	70	0	1
NMSI_	70	0	1	96	48	4
NMTAP	70	0	7
NMTAP	70	96	1
NMSTR	70	96	6
BRSSR	70	96	6	96	96	2
NMSTR	70	192	2
BRSI_	70	192	2	96	48	5
EXTAP	70	288	0
BRSTR	71	0	1
NMSI_	71	0	1	96	48	4
NMTAP	71	48	1
NMTAP	71	96	1
NMSTR	71	96	3
NMSLR	71	96	3	96	48	7
NMSTR	71	192	2
NMSI_	71	192	2	96	48	6
NMTAP	71	192	3
NMTAP	71	288	2
EXSTR	71	288	7
NMSI_	71	288	7	96	48	1
NMSTR	72	0	3
NMSCL	72	0	3	96	48	0
NMTAP	72	0	7
NMTAP	72	96	3
NMSTR	72	96	6
NMSI_	72	96	6	96	48	3
NMTAP	72	192	1
NMTAP	72	192	6
NMTAP	72	288	0
NMTAP	72	288	5
NMHLD	73	0	6	24
NMHLD	73	0	7	24
NMHLD	73	48	2	24
NMHLD	73	48	3	24
NMSTR	73	96	6
NMSI_	73	96	6	96	48	2
NMSTR	73	96	7
NMSI_	73	96	7	96	48	3
NMHLD	73	144	4	24
NMHLD	73	144	5	24
BRTAP	73	192	6
BRTAP	73	192	7
NMHLD	73	288	0	24
NMHLD	73	288	1	24
NMHLD	73	336	4	24
NMHLD	73	336	5	24
NMSTR	74	0	0
NMSI_	74	0	0	96	48	4
NMSTR	74	0	1
NMSI_	74	0	1	96	48	5
NMHLD	74	48	2	24
NMHLD	74	48	3	24
BRSTR	74	96	0
NMSCL	74	96	0	96	48	5
BRSTR	74	96	1
NMSCR	74	96	1	96	48	4
BRTAP	74	192	0
BRTAP	74	192	1
NMTAP	74	288	3
NMTAP	74	288	6
BRTAP	75	0	1
BRSTR	75	0	7
NMSI_	75	0	7	96	48	3
NMTAP	75	48	6
NMSTR	75	96	0
NMSI_	75	96	0	96	48	4
NMTAP	75	144	1
NMSTR	75	192	5
NMSCR	75	192	5	96	48	7
NMTAP	75	240	6
NMSTR	75	288	2
NMSLR	75	288	2	96	96	6
NMTAP	75	336	1
NMSTR	76	0	6
NMSI_	76	0	6	96	64	3
NMSTR	76	96	1
NMSCL	76	96	1	96	96	4
CNSI_	76	160	3	0	32	1
BRSTR	76	192	4
NMSI_	76	192	4	96	48	0
EXTAP	76	288	7
NMSTR	77	0	1
NMSI_	77	0	1	96	48	4
NMTAP	77	48	2
NMSTR	77	96	5
NMSI_	77	96	5	96	48	3
NMTAP	77	144	6
NMSTR	77	192	1
NMSI_	77	192	1	96	48	7
NMTAP	77	240	0
NMSTR	77	288	5
NMSCR	77	288	5	96	96	1
NMTAP	77	336	4
NMTAP	78	0	2
CNSCL	78	96	1	0	96	5
NMSTR	78	96	5
BRSI_	78	96	5	96	48	2
NMSTR	78	192	2
BRSSR	78	192	2	96	48	6
EXTAP	78	288	0
BRSTR	79	0	1
NMSCR	79	0	1	96	48	4
NMTAP	79	48	1
NMTAP	79	96	1
NMSTR	79	96	5
NMSI_	79	96	5	96	48	0
NMSTR	79	192	3
NMSI_	79	192	3	96	48	7
NMTAP	79	192	5
NMTAP	79	288	3
NMSTR	79	288	6
NMSLL	79	288	6	96	48	2
NMSTR	80	0	0
NMSI_	80	0	0	96	48	4
NMTAP	80	0	6
NMTAP	80	96	0
NMSTR	80	96	3
NMSI_	80	96	3	96	48	7
NMTAP	80	192	2
NMTAP	80	192	3
NMTAP	80	288	2
EXTAP	80	288	7
NMHLD	81	0	0	24
NMHLD	81	0	1	24
NMHLD	81	48	4	24
NMHLD	81	48	5	24
NMSTR	81	96	0
NMSV_	81	96	0	96	48	5
NMSTR	81	96	1
NMSV_	81	96	1	96	48	4
NMHLD	81	144	2	24
NMHLD	81	144	3	24
BRTAP	81	192	0
BRTAP	81	192	1
NMHLD	81	288	0	24
NMHLD	81	288	7	24
NMHLD	81	336	1	24
NMHLD	81	336	2	24
NMSTR	82	0	0
NMSI_	82	0	0	96	48	4
NMSTR	82	0	7
NMSI_	82	0	7	96	48	3
NMHLD	82	48	5	24
NMHLD	82	48	6	24
BRSTR	82	96	0
NMSCR	82	96	0	96	48	3
BRSTR	82	96	7
NMSCL	82	96	7	96	48	4
BRSTR	82	192	0
NMSSL	82	192	0	96	48	4
BRSTR	82	192	7
NMSSR	82	192	7	96	48	3
NMTHO	83	0	0	48	C	0	M1

T_REC_TAP	261
T_REC_BRK	17
T_REC_XTP	13
T_REC_BXX	4
T_REC_HLD	65
T_REC_XHO	7
T_REC_BHO	0
T_REC_BXH	0
T_REC_STR	118
T_REC_BST	19
T_REC_XST	6
T_REC_XBS	4
T_REC_TTP	125
T_REC_THO	3
T_REC_SLD	140
T_REC_BSL	11
T_REC_ALL	793
T_NUM_TAP	523
T_NUM_BRK	55
T_NUM_HLD	75
T_NUM_SLD	140
T_NUM_ALL	793
T_JUDGE_TAP	567
T_JUDGE_HLD	146
T_JUDGE_SLD	151
T_JUDGE_ALL	864
TTM_EACHPAIRS	156
TTM_SCR_TAP	261500
TTM_SCR_BRK	143000
TTM_SCR_HLD	75000
TTM_SCR_SLD	210000
TTM_SCR_ALL	689500
TTM_SCR_S	663500
TTM_SCR_SS	684000
TTM_RAT_ACV	10080

