VERSION	0.00.00	1.04.00
FES_MODE	0
BPM_DEF	170.000	170.000	170.000	170.000
MET_DEF	4	4
RESOLUTION	384
CLK_DEF	384
COMPATIBLE_CODE	MA2

BPM	0	0	170.000
MET	0	0	4	4

NMTHO	1	0	0	192	C	0	M1
EXTAP	2	0	0
EXTAP	2	0	7
NMTAP	2	96	2
NMTAP	2	144	2
NMTAP	2	192	3
NMTAP	2	288	4
NMTAP	2	336	4
NMTAP	3	0	3
NMTAP	3	48	3
NMTAP	3	96	5
NMTAP	3	192	6
NMTAP	3	288	0
NMTAP	3	288	6
EXTAP	4	0	7
NMTAP	4	96	5
NMTAP	4	144	5
NMTAP	4	192	4
NMTAP	4	288	3
NMTAP	4	336	3
NMTAP	5	0	4
NMTAP	5	48	4
NMSTR	5	96	1
NMSSL	5	96	1	96	144	5
EXTAP	6	0	6
NMTAP	6	96	7
NMTAP	6	144	7
NMTAP	6	192	0
NMTAP	6	288	2
NMTAP	6	336	2
NMTAP	7	0	3
NMTAP	7	48	3
NMTAP	7	96	1
NMTAP	7	192	7
NMTAP	7	288	1
NMTAP	7	288	7
BRTAP	8	0	0
BRTAP	8	0	5
BRHLD	8	96	0	96
BRHLD	8	96	5	96
BRTAP	8	240	2
BRTAP	8	240	7
BRTAP	8	336	2
BRTAP	8	336	7
BRTAP	9	48	0
BRTAP	9	48	5
BRTAP	9	144	2
BRTAP	9	144	7
BXSTR	9	192	2
NMSI_	9	192	2	96	48	0
BXSTR	9	192	7
NMSI_	9	192	7	96	48	3
EXHLD	10	0	5	1344
NMTAP	10	96	4
NMTAP	10	288	4
NMTAP	11	96	6
NMTAP	11	288	6
NMTAP	12	96	4
NMTAP	12	288	4
NMSTR	13	96	3
NMSSR	13	96	3	96	144	7
EXTAP	14	0	6
NMTAP	14	96	0
NMTAP	14	96	5
NMTAP	14	192	1
NMTAP	14	288	2
NMTAP	14	288	4
NMTAP	15	0	5
NMTAP	15	96	3
NMTAP	15	96	6
NMTAP	15	192	2
NMTAP	15	288	1
NMTAP	15	288	7
BRTAP	16	0	0
BRTAP	16	0	5
BRHLD	16	96	0	96
BRHLD	16	96	5	96
BRTAP	16	240	2
BRTAP	16	240	7
BRTAP	16	336	2
BRTAP	16	336	7
BRTAP	17	48	0
BRTAP	17	48	5
BRHLD	17	144	2	144
BRHLD	17	144	7	144
EXTAP	18	0	1
NMTAP	18	96	1
NMTAP	18	96	3
NMHLD	18	192	5	96
NMTAP	18	288	4
NMSTR	18	336	4
NMSI_	18	336	4	96	144	7
NMSCL	18	336	4	96	144	7
NMTAP	20	0	0
NMTAP	20	96	1
NMTAP	20	96	7
NMTAP	20	192	2
NMTAP	20	288	1
NMTAP	20	288	3
NMHLD	20	336	1	240
NMTAP	20	336	3
NMTAP	21	48	4
NMSTR	21	96	4
NMSSL	21	96	4	96	144	0
EXTAP	22	0	1
NMTAP	22	96	2
NMTAP	22	96	7
NMTAP	22	192	6
NMTAP	22	288	3
NMTAP	22	288	5
NMTAP	22	336	3
NMSTR	22	336	5
NMSUL	22	336	5	96	120	1
CNSXR	23	168	1	0	120	7
BRTAP	24	0	2
BRTAP	24	0	7
BRHLD	24	96	2	96
BRHLD	24	96	7	96
BRTAP	24	240	0
BRTAP	24	240	5
BRTAP	24	336	0
BRTAP	24	336	5
BRTAP	25	48	2
BRTAP	25	48	7
BRTAP	25	144	0
BRTAP	25	144	5
BXSTR	25	192	0
NMSI_	25	192	0	96	48	4
BXSTR	25	192	5
NMSI_	25	192	5	96	48	7
EXHLD	26	0	3	288
NMTTP	26	144	3	E	0	M1
NMTTP	26	288	5	E	0	M1
NMTAP	27	0	3
NMTAP	27	48	3
NMSTR	27	96	3
NMSUL	27	96	3	96	144	4
NMHLD	28	0	5	288
NMTTP	28	144	6	E	0	M1
NMTTP	28	288	4	E	0	M1
NMTAP	29	0	5
NMTAP	29	48	5
NMSTR	29	96	5
NMSCR	29	96	5	96	96	0
NMTTP	30	0	1	D	1	M1
NMTTP	30	48	0	B	0	M1
NMTTP	30	96	6	B	1	M1
NMTTP	30	144	4	B	0	M1
NMTTP	30	192	4	D	1	M1
NMTTP	31	0	7	D	1	M1
NMTTP	31	48	7	B	0	M1
NMTTP	31	96	1	B	1	M1
NMTTP	31	144	3	B	0	M1
NMTTP	31	192	4	D	1	M1
NMTTP	32	0	0	B	1	M1
NMTTP	32	0	7	B	0	M1
NMTTP	32	48	1	D	1	M1
NMTTP	32	48	7	D	0	M1
NMTTP	32	192	3	B	0	M1
NMTTP	32	192	4	B	1	M1
NMTTP	32	240	3	D	0	M1
NMTTP	32	240	5	D	1	M1
NMTTP	33	0	0	E	0	M1
NMTTP	33	0	4	E	1	M1
NMTTP	33	96	2	E	1	M1
NMTTP	33	96	6	E	0	M1
NMTHO	33	192	0	96	C	0	M1
NMTTP	33	192	3	B	0	M1
NMTTP	33	192	4	B	0	M1
EXSTR	34	0	6
BRSI_	34	0	6	96	48	1
EXTAP	34	96	1
NMTAP	34	192	2
NMTAP	34	240	2
NMTAP	34	288	3
NMTAP	35	0	2
NMTAP	35	0	3
NMTAP	35	96	4
NMTAP	35	96	6
NMHLD	35	192	1	96
NMHLD	35	192	7	96
NMSTR	36	0	6
BRSI_	36	0	6	96	48	1
EXTAP	36	96	1
NMTAP	36	192	2
NMTAP	36	240	2
NMTAP	36	288	3
NMTAP	37	0	4
NMTAP	37	0	5
NMSTR	37	96	3
NMSCL	37	96	3	96	96	0
NMSTR	37	96	7
NMSUR	37	96	7	96	96	4
NMTAP	38	0	0
NMTAP	38	96	1
NMTAP	38	96	7
NMTAP	38	192	2
NMTAP	38	240	2
NMTAP	38	288	3
NMTAP	39	0	4
NMTAP	39	0	6
NMTAP	39	96	3
NMTAP	39	96	4
NMHLD	39	192	1	96
NMHLD	39	192	3	96
BRTAP	40	0	1
BRTAP	40	0	2
BRTAP	40	48	1
BRTAP	40	48	2
BRTAP	40	96	1
BRTAP	40	96	2
BRTAP	40	144	1
BRTAP	40	144	2
BRTAP	40	192	0
BRTAP	40	192	3
BRTAP	40	288	1
BRTAP	40	288	2
BRTAP	40	336	1
BRTAP	40	336	2
BRTAP	41	0	1
BRTAP	41	0	2
BRTAP	41	48	1
BRTAP	41	48	2
BRTAP	41	96	0
BRTAP	41	96	3
BXTAP	41	192	1
BXTAP	41	192	7
NMTAP	41	288	3
NMTAP	41	288	4
EXSTR	42	0	5
BRSI_	42	0	5	96	48	2
EXTAP	42	96	2
NMTAP	42	192	1
NMTAP	42	240	1
NMTAP	42	288	0
NMTAP	43	0	0
NMTAP	43	0	1
NMTAP	43	96	5
NMTAP	43	96	7
NMHLD	43	192	2	96
NMHLD	43	192	4	96
NMSTR	44	0	5
BRSI_	44	0	5	96	48	2
EXTAP	44	96	2
NMTAP	44	192	1
NMTAP	44	240	1
NMTAP	44	288	0
NMTAP	45	0	6
NMTAP	45	0	7
NMSTR	45	96	0
NMSUL	45	96	0	96	96	3
NMSTR	45	96	4
NMSCR	45	96	4	96	96	7
NMTAP	46	0	7
NMTAP	46	96	0
NMTAP	46	96	6
NMTAP	46	192	5
NMTAP	46	240	5
NMTAP	46	288	4
NMTAP	47	0	1
NMTAP	47	0	3
NMTAP	47	96	3
NMTAP	47	96	4
NMHLD	47	192	4	96
NMHLD	47	192	6	96
BRTAP	48	0	5
BRTAP	48	0	6
BRTAP	48	48	5
BRTAP	48	48	6
BRTAP	48	96	5
BRTAP	48	96	6
BRTAP	48	144	5
BRTAP	48	144	6
BRTAP	48	192	4
BRTAP	48	192	7
BRTAP	48	288	5
BRTAP	48	288	6
BRTAP	48	336	5
BRTAP	48	336	6
BRTAP	49	0	5
BRTAP	49	0	6
BRTAP	49	48	5
BRTAP	49	48	6
BRTAP	49	96	4
BRTAP	49	96	7
BXTAP	49	192	0
BXTAP	49	192	6
NMTAP	49	288	3
NMTAP	49	288	4
EXTAP	50	0	1
EXTAP	50	0	6
NMTAP	50	96	5
NMTAP	50	144	5
NMTAP	50	192	4
NMTAP	50	288	3
NMTAP	50	336	3
NMTAP	51	0	4
NMTAP	51	48	4
NMTAP	51	96	1
NMTAP	51	144	1
NMTAP	51	192	7
NMTAP	51	240	7
NMTAP	51	288	0
NMTAP	51	288	6
EXTAP	52	0	1
EXTAP	52	0	7
NMTAP	52	96	2
NMTAP	52	144	2
NMTAP	52	192	3
NMTAP	52	288	4
NMTAP	52	336	4
NMTAP	53	0	3
NMTAP	53	48	3
NMSTR	53	96	6
NMSSR	53	96	6	96	144	2
EXTAP	54	0	1
NMTAP	54	96	0
NMTAP	54	144	0
NMTAP	54	192	7
NMTAP	54	288	5
NMTAP	54	336	5
NMTAP	55	0	4
NMTAP	55	48	4
NMTAP	55	96	6
NMTAP	55	144	6
NMTAP	55	192	3
NMTAP	55	240	3
NMTAP	55	288	2
NMTAP	55	288	4
NMTTP	56	0	5	E	0	M1
NMTTP	56	48	5	B	0	M1
NMTTP	56	96	6	B	0	M1
NMTTP	56	144	3	E	0	M1
NMTTP	56	192	3	B	0	M1
NMTTP	56	240	4	B	0	M1
NMTTP	56	288	2	B	0	M1
NMTTP	56	336	1	B	0	M1
NMTTP	57	0	1	E	0	M1
NMTTP	57	48	7	E	0	M1
NMTTP	57	96	7	B	0	M1
NMTTP	57	144	0	B	0	M1
NMTTP	57	192	0	D	0	M1
BXSTR	58	0	0
NMSXR	58	0	0	96	240	7
BXHLD	58	0	7	768
CNSCL	58	336	7	0	120	5
CNSXR	59	72	5	0	240	4
CNSCL	59	312	4	0	120	2
CNSXR	60	48	2	0	240	1
NMTAP	61	0	4
NMTAP	61	48	4
NMTAP	61	96	3
NMTAP	61	144	5
NMTAP	61	192	2
EXTAP	61	288	0
EXTAP	61	288	6
NMTAP	62	0	5
NMTAP	62	48	5
NMTAP	62	96	3
NMTAP	62	144	3
NMTAP	62	192	7
NMTAP	62	240	6
NMTAP	62	288	2
NMTAP	62	336	2
NMTAP	63	0	4
NMTAP	63	48	4
NMTAP	63	96	0
NMTAP	63	144	1
NMTAP	63	192	5
NMTAP	63	240	5
NMTAP	63	288	4
NMTAP	64	0	2
NMTAP	64	0	7
NMHLD	64	96	0	96
NMHLD	64	96	5	96
NMTAP	64	240	2
NMTAP	64	240	7
NMTAP	64	336	0
NMTAP	64	336	5
NMTAP	65	48	2
NMTAP	65	48	7
NMHLD	65	144	0	144
NMHLD	65	144	5	144
NMTHO	66	0	0	192	C	0	M1
NMTTP	66	0	2	B	0	M1
NMTTP	66	0	3	B	0	M1
NMTTP	66	0	4	B	0	M1
NMTTP	66	0	5	B	0	M1
EXSTR	67	0	6
BRSI_	67	0	6	96	48	1
EXTAP	67	96	1
NMTAP	67	192	2
NMTAP	67	240	2
NMTAP	67	288	3
EXTAP	68	0	2
EXTAP	68	0	5
EXTAP	68	48	2
EXTAP	68	48	5
EXTAP	68	96	3
EXTAP	68	120	4
EXTAP	68	144	3
EXTAP	68	168	4
EXTAP	68	192	3
BRTAP	68	288	0
BRTAP	68	288	7
NMSTR	69	0	6
BRSI_	69	0	6	96	48	1
EXTAP	69	96	1
NMTAP	69	192	2
NMTAP	69	240	2
NMTAP	69	288	3
NMTAP	70	0	4
NMTAP	70	0	5
NMSTR	70	96	3
NMSCL	70	96	3	96	96	0
NMSTR	70	96	7
NMSUR	70	96	7	96	96	4
NMTAP	71	0	0
NMTAP	71	48	0
NMTAP	71	96	1
NMTAP	71	96	7
NMTAP	71	192	2
NMTAP	71	240	2
NMTAP	71	288	3
NMTAP	72	0	4
NMTAP	72	0	6
NMTAP	72	96	3
NMTAP	72	96	4
NMHLD	72	192	1	96
NMHLD	72	192	3	96
BRTAP	73	0	1
BRTAP	73	0	2
BRTAP	73	48	1
BRTAP	73	48	2
BRTAP	73	96	1
BRTAP	73	96	2
BRTAP	73	144	1
BRTAP	73	144	2
BRTAP	73	192	0
BRTAP	73	192	3
BRTAP	73	288	5
BRTAP	73	288	6
BRTAP	73	336	5
BRTAP	73	336	6
BRTAP	74	0	5
BRTAP	74	0	6
BRTAP	74	48	5
BRTAP	74	48	6
BRTAP	74	96	4
BRTAP	74	96	7
BXHLD	74	192	0	96
BXHLD	74	192	6	96
NMSTR	75	0	0
NMSI_	75	0	0	96	48	4
NMSTR	75	0	1
NMSI_	75	0	1	96	48	4
NMSTR	75	192	6
NMSI_	75	192	6	96	48	3
NMSTR	75	192	7
NMSI_	75	192	7	96	48	3
NMTAP	76	0	2
NMTAP	76	0	4
NMTAP	76	96	0
NMTAP	76	96	7
NMTAP	76	144	6
NMHLD	76	192	4	96
NMHLD	76	192	5	96
NMSTR	77	0	4
NMSI_	77	0	4	96	48	0
NMSTR	77	0	5
NMSI_	77	0	5	96	48	0
NMSTR	77	192	2
NMSI_	77	192	2	96	48	7
NMSTR	77	192	3
NMSI_	77	192	3	96	48	7
NMTAP	78	0	0
NMTAP	78	0	6
NMTAP	78	96	3
NMTAP	78	96	4
NMTAP	78	144	2
NMSTR	78	192	1
NMSI_	78	192	1	96	48	3
NMSTR	78	192	4
NMSI_	78	192	4	96	48	0
NMTAP	79	0	7
NMTAP	79	48	7
NMTAP	79	96	2
NMTAP	79	96	6
NMTAP	79	192	5
NMTAP	79	240	5
NMTAP	79	288	4
NMTAP	80	0	1
NMTAP	80	0	3
NMTAP	80	96	3
NMTAP	80	96	4
NMHLD	80	192	4	96
NMHLD	80	192	6	96
BRTAP	81	0	5
BRTAP	81	0	6
BRTAP	81	48	5
BRTAP	81	48	6
BRTAP	81	96	5
BRTAP	81	96	6
BRTAP	81	144	5
BRTAP	81	144	6
BRTAP	81	192	4
BRTAP	81	192	7
BRTAP	81	288	1
BRTAP	81	288	2
BRTAP	81	336	1
BRTAP	81	336	2
BRTAP	82	0	1
BRTAP	82	0	2
BRTAP	82	48	1
BRTAP	82	48	2
BRTAP	82	96	0
BRTAP	82	96	3
BXTAP	82	192	1
BXTAP	82	192	7
NMTAP	82	288	3
NMTAP	82	288	4
NMSTR	83	0	1
NMSI_	83	0	1	96	96	3
NMSTR	83	0	6
NMSI_	83	0	6	96	96	4
CNSI_	83	192	3	0	144	7
CNSI_	83	192	4	0	144	0
CNSCR	83	336	0	0	384	3
CNSCL	83	336	7	0	384	4

T_REC_TAP	218
T_REC_BRK	110
T_REC_XTP	29
T_REC_BXX	6
T_REC_HLD	21
T_REC_XHO	2
T_REC_BHO	8
T_REC_BXH	3
T_REC_STR	29
T_REC_BST	0
T_REC_XST	3
T_REC_XBS	5
T_REC_TTP	45
T_REC_THO	3
T_REC_SLD	32
T_REC_BSL	6
T_REC_ALL	520
T_NUM_TAP	324
T_NUM_BRK	138
T_NUM_HLD	26
T_NUM_SLD	32
T_NUM_ALL	520
T_JUDGE_TAP	445
T_JUDGE_HLD	133
T_JUDGE_SLD	38
T_JUDGE_ALL	616
TTM_EACHPAIRS	135
TTM_SCR_TAP	162000
TTM_SCR_BRK	358800
TTM_SCR_HLD	26000
TTM_SCR_SLD	48000
TTM_SCR_ALL	594800
TTM_SCR_S	563600
TTM_SCR_SS	581000
TTM_RAT_ACV	10237

