VERSION	0.00.00	1.04.00
FES_MODE	0
BPM_DEF	150.000	150.000	150.000	150.000
MET_DEF	4	4
RESOLUTION	384
CLK_DEF	384
COMPATIBLE_CODE	MA2

BPM	0	0	150.000
MET	0	0	4	4

NMSTR	1	0	4
NMSCR	1	0	4	96	576	3
NMSTR	3	0	4
NMSCR	3	0	4	96	576	3
NMTTP	3	192	4	E	0	M1
NMTTP	4	192	0	C	0	M1
NMSTR	5	0	4
NMSCL	5	0	4	96	192	0
NMTAP	5	0	5
NMTAP	5	96	5
NMTAP	5	192	5
NMTAP	5	288	4
NMTAP	6	0	2
NMSTR	6	0	3
NMSCR	6	0	3	96	192	7
NMTAP	6	96	2
NMTAP	6	192	2
NMTAP	6	288	2
NMTAP	7	0	1
NMTAP	7	48	1
NMTAP	7	96	6
NMTAP	7	144	6
NMTAP	7	192	0
NMTAP	7	216	7
NMTAP	7	240	0
NMTAP	7	264	7
NMTAP	7	288	0
NMTAP	7	300	1
NMTAP	7	312	2
NMTAP	7	324	3
NMTAP	7	336	7
NMTAP	7	348	6
NMTAP	7	360	5
NMTAP	7	372	4
NMTTP	8	0	0	C	1	M1
NMHLD	9	0	3	48
NMHLD	9	0	5	48
NMHLD	9	72	3	48
NMHLD	9	72	5	48
NMTAP	9	144	3
NMTAP	9	144	5
NMTAP	9	192	2
NMTAP	9	192	4
NMTAP	9	240	1
NMTAP	9	288	2
NMTAP	9	288	4
NMTAP	9	336	5
NMHLD	10	0	6	48
NMHLD	10	0	7	48
NMHLD	10	72	4	48
NMHLD	10	72	5	48
NMTAP	10	144	2
NMTAP	10	144	3
NMTAP	10	192	2
NMHLD	10	192	3	48
NMTAP	10	240	0
NMHLD	10	288	2	48
NMTAP	10	288	3
NMTAP	10	336	0
NMHLD	11	0	2	48
NMHLD	11	0	3	48
NMHLD	11	72	4	48
NMHLD	11	72	5	48
NMTAP	11	144	6
NMTAP	11	144	7
NMTAP	11	192	6
NMHLD	11	192	7	48
NMTAP	11	240	4
NMHLD	11	288	6	48
NMTAP	11	288	7
NMTAP	11	336	4
NMHLD	12	0	6	48
NMHLD	12	0	7	48
NMHLD	12	72	4	48
NMHLD	12	72	5	48
NMTAP	12	144	2
NMTAP	12	144	3
NMTAP	12	192	2
NMHLD	12	192	3	48
NMTAP	12	240	0
NMHLD	12	288	2	48
NMTAP	12	288	3
NMTAP	12	336	0
NMHLD	13	0	2	48
NMHLD	13	0	3	48
NMHLD	13	72	4	48
NMHLD	13	72	5	48
NMTAP	13	144	6
NMTAP	13	144	7
NMSTR	13	192	0
NMSI_	13	192	0	96	48	4
NMTAP	13	192	5
BRTAP	13	288	7
NMHLD	14	0	4	48
NMHLD	14	0	5	48
NMHLD	14	72	2	48
NMHLD	14	72	3	48
NMTAP	14	144	0
NMTAP	14	144	1
NMHLD	14	192	0	48
NMTAP	14	192	1
NMTAP	14	240	3
NMTAP	14	288	0
NMHLD	14	288	1	48
NMTAP	14	336	3
NMHLD	15	0	0	48
NMHLD	15	0	1	48
NMHLD	15	72	2	48
NMHLD	15	72	3	48
NMTAP	15	144	4
NMTAP	15	144	5
NMHLD	15	192	4	48
NMTAP	15	192	5
NMTAP	15	240	7
NMTAP	15	288	4
NMHLD	15	288	5	48
NMTAP	15	336	7
NMHLD	16	0	4	48
NMHLD	16	0	5	48
NMHLD	16	72	2	48
NMHLD	16	72	3	48
NMTAP	16	144	0
NMTAP	16	144	1
NMHLD	16	192	0	48
NMTAP	16	192	1
NMTAP	16	240	3
NMTAP	16	288	0
NMHLD	16	288	1	48
NMTAP	16	336	3
NMHLD	17	0	0	48
NMHLD	17	0	1	48
NMHLD	17	72	2	48
NMHLD	17	72	3	48
NMTAP	17	144	4
NMTAP	17	144	6
NMHLD	17	192	4	24
NMSTR	17	192	6
NMSI_	17	192	6	96	48	1
BRTAP	17	288	2
NMTAP	18	0	3
NMTAP	18	0	7
NMTAP	18	48	2
NMTAP	18	72	2
NMTAP	18	96	6
NMTAP	18	120	6
NMTAP	18	144	0
NMTAP	18	168	0
NMTAP	18	192	4
NMTAP	18	216	4
NMTAP	18	240	7
NMTAP	18	264	7
NMTAP	18	288	3
NMTAP	18	312	3
NMTAP	18	336	1
NMTAP	18	360	1
NMHLD	19	0	2	16
NMHLD	19	0	4	32
EXHLD	19	64	4	32
EXHLD	19	64	6	16
EXTAP	19	144	7
NMHLD	19	192	0	16
NMHLD	19	192	6	32
EXTAP	19	264	1
EXTAP	19	264	5
EXTAP	19	288	1
EXTAP	19	288	5
NMHLD	20	0	2	48
NMHLD	20	0	3	48
NMHLD	20	72	4	48
NMHLD	20	72	6	48
NMTAP	20	144	3
NMTAP	20	144	7
NMHLD	20	192	1	48
NMTAP	20	192	5
NMTAP	20	240	3
NMTAP	20	288	1
NMHLD	20	288	5	48
NMTAP	20	336	3
NMHLD	21	0	2	48
NMHLD	21	0	6	48
NMHLD	21	72	1	48
NMHLD	21	72	5	48
NMTAP	21	144	0
NMTAP	21	144	4
NMTAP	21	192	0
NMTAP	21	192	4
NMTAP	21	240	2
NMTAP	21	240	6
NMTAP	22	0	1
NMTAP	22	12	2
NMTAP	22	24	3
NMTAP	22	48	7
NMTAP	22	72	2
NMTAP	22	96	6
NMTAP	22	108	5
NMTAP	22	120	4
NMTAP	22	144	0
NMTAP	22	168	5
NMTAP	22	192	2
NMTAP	22	240	4
NMTAP	22	264	3
NMTAP	22	288	2
NMTAP	22	288	5
NMSTR	23	0	1
NMSCR	23	0	1	96	48	4
NMSTR	23	0	4
NMSCR	23	0	4	96	48	7
BRTAP	23	96	1
BRTAP	23	96	4
NMTAP	23	240	0
NMTAP	23	240	1
NMTAP	23	288	2
NMTAP	23	288	7
NMSTR	24	0	1
NMSI_	24	0	1	96	48	4
NMSTR	24	48	4
NMSCL	24	48	4	96	48	2
NMTAP	24	96	1
NMTAP	24	144	6
NMSTR	24	192	7
NMSUL	24	192	7	96	48	3
NMTAP	24	240	0
NMTAP	24	288	1
NMTAP	24	288	7
NMSTR	24	336	1
NMSXL	24	336	1	96	144	4
NMTAP	25	48	4
NMSTR	25	96	5
NMSCR	25	96	5	96	96	0
NMSTR	25	288	1
NMSI_	25	288	1	96	48	3
NMSTR	26	0	1
NMSI_	26	0	1	96	48	7
NMTAP	26	48	7
NMSTR	26	96	1
NMSI_	26	96	1	96	48	3
NMTAP	26	144	4
NMSTR	26	192	1
NMSI_	26	192	1	96	48	5
NMTAP	26	240	7
NMTAP	26	288	1
NMSTR	27	0	4
NMSI_	27	0	4	96	48	0
NMSTR	27	0	6
NMSI_	27	0	6	96	48	3
EXTAP	27	96	4
EXTAP	27	96	6
NMTAP	27	240	2
NMTAP	27	240	3
NMTAP	27	288	1
NMTAP	27	288	4
NMSTR	28	0	6
NMSI_	28	0	6	96	48	3
NMSTR	28	48	3
NMSI_	28	48	3	96	48	7
NMTAP	28	96	6
NMTAP	28	144	2
NMSTR	28	192	1
NMSCR	28	192	1	96	48	4
NMTAP	28	240	0
NMTAP	28	288	1
NMTAP	28	288	6
NMSTR	28	336	7
NMSCL	28	336	7	96	48	5
NMSCR	28	336	7	96	48	1
CNSV_	29	96	1	0	48	3
CNSV_	29	96	5	0	48	3
EXTAP	29	192	2
EXTAP	29	192	4
NMTAP	29	288	3
NMTAP	29	288	7
NMTAP	29	336	3
NMSTR	29	336	7
NMSCL	29	336	7	96	144	1
NMTAP	30	48	1
NMTAP	30	144	0
NMSTR	30	192	0
NMSI_	30	192	0	96	48	3
NMSI_	30	192	0	96	48	5
NMTAP	30	288	0
BRTAP	31	0	2
BRTAP	31	0	6
NMTAP	31	96	4
NMTAP	31	96	5
NMTAP	31	144	6
NMTAP	31	192	0
NMTAP	31	192	7
NMSTR	31	288	1
BRSI_	31	288	1	96	48	5
NMTAP	31	288	3
NMSTR	32	0	1
BRSI_	32	0	1	96	48	7
NMSTR	32	48	6
NMSI_	32	48	6	96	48	4
NMSTR	32	96	1
NMSLR	32	96	1	96	96	7
NMTAP	32	144	6
NMTAP	32	192	1
NMSTR	32	288	6
BRSI_	32	288	6	96	48	4
NMSTR	33	0	6
BRSI_	33	0	6	96	48	0
NMSTR	33	48	1
NMSI_	33	48	1	96	48	3
NMSTR	33	96	6
NMSI_	33	96	6	96	48	4
NMTAP	33	144	1
NMTAP	33	192	6
CNSI_	33	240	4	0	48	7
NMTAP	33	288	0
NMTAP	33	336	0
NMSTR	34	0	7
NMSI_	34	0	7	96	48	3
NMSTR	34	96	7
NMSCL	34	96	7	96	48	4
NMSCR	34	96	7	96	48	2
NMSTR	34	192	7
NMSSR	34	192	7	96	96	3
NMTAP	34	288	7
NMSTR	35	0	2
NMSXL	35	0	2	96	96	3
NMSLL	35	0	2	96	96	3
NMSTR	35	288	1
BRSI_	35	288	1	96	48	3
NMSTR	36	0	1
BRSI_	36	0	1	96	48	7
NMSTR	36	48	5
NMSI_	36	48	5	96	48	3
NMSTR	36	96	1
NMSI_	36	96	1	96	48	4
NMTAP	36	144	5
NMTAP	36	192	1
CNSI_	36	240	4	0	48	0
NMSTR	36	288	7
BRSI_	36	288	7	96	48	5
NMSTR	37	0	7
NMSI_	37	0	7	96	48	1
NMSTR	37	48	2
BRSI_	37	48	2	96	48	4
NMSTR	37	96	7
NMSI_	37	96	7	96	48	3
NMTAP	37	144	2
NMSTR	37	192	7
NMSCL	37	192	7	96	96	1
CNSI_	37	240	3	0	48	7
NMTTP	38	0	0	C	1	M1
NMHLD	39	0	2	384
NMTAP	39	288	3
NMHLD	40	0	3	384
NMTAP	40	288	4
NMTAP	41	0	4
NMTTP	41	96	6	E	0	M1
NMTTP	41	192	5	E	0	M1
NMTTP	41	288	4	E	0	M1
NMTAP	42	0	2
NMHLD	42	48	2	72
NMTAP	42	96	3
NMTAP	42	120	3
NMHLD	42	192	4	72
NMTAP	42	240	3
NMTAP	42	264	3
NMTAP	42	336	5
NMTAP	42	360	4
NMHLD	43	48	5	72
NMTAP	43	96	4
NMTAP	43	120	4
NMHLD	43	192	3	72
NMTAP	43	240	4
NMTAP	43	264	4
NMTAP	43	336	2
NMTAP	43	360	3
NMHLD	44	48	2	72
NMTAP	44	96	3
NMTAP	44	120	3
NMHLD	44	192	4	72
NMTAP	44	240	3
NMTAP	44	264	3
NMHLD	44	336	3	240
NMHLD	44	360	4	216
NMTTP	45	288	4	E	0	M1
NMSTR	46	0	1
NMSI_	46	0	1	96	48	4
NMTAP	46	0	5
NMTAP	46	144	5
NMTAP	46	168	5
NMSTR	46	192	5
NMSLR	46	192	5	96	96	1
EXTAP	46	264	4
EXTAP	46	336	2
NMTAP	47	48	0
NMTAP	47	96	2
NMTAP	47	144	3
NMTAP	47	144	4
NMTAP	47	192	6
NMTAP	47	216	7
NMTAP	47	264	5
NMTAP	47	288	4
NMTAP	48	0	3
NMSTR	48	0	7
NMSI_	48	0	7	96	48	3
NMHLD	48	192	1	96
NMTAP	48	240	3
NMHLD	48	288	5	96
NMTAP	48	336	7
NMHLD	49	0	1	48
NMSTR	49	48	3
NMSI_	49	48	3	96	48	7
NMTAP	49	96	5
NMTAP	49	192	6
NMTAP	49	240	4
NMTAP	49	288	2
NMTAP	49	336	0
NMHLD	50	0	5	336
NMTAP	50	48	6
BRTAP	50	96	0
NMTTP	50	192	7	E	0	M1
NMTTP	50	216	6	E	0	M1
NMTTP	50	240	5	E	0	M1
NMTTP	50	264	4	E	0	M1
NMTTP	50	288	3	E	0	M1
NMTTP	50	312	2	E	0	M1
EXSTR	50	336	0
NMSLR	50	336	0	96	48	4
NMTAP	51	48	6
NMTAP	51	72	6
NMTAP	51	120	7
NMTAP	51	168	0
NMSTR	51	192	0
NMSI_	51	192	0	96	48	4
NMSTR	51	288	3
NMSI_	51	288	3	96	48	7
NMHLD	52	0	6	48
NMHLD	52	72	6	48
NMTAP	52	144	0
NMTAP	52	144	5
NMTAP	52	192	1
NMSTR	52	192	4
NMSI_	52	192	4	96	48	0
BRTAP	52	288	3
NMTAP	53	48	2
NMTAP	53	48	6
NMTAP	53	96	2
NMSTR	53	96	6
NMSI_	53	96	6	96	48	3
NMSTR	53	192	2
NMSI_	53	192	2	96	48	7
NMTAP	53	288	6
NMTAP	54	0	1
NMTAP	54	0	5
NMTAP	54	48	2
NMTAP	54	72	3
NMTAP	54	96	1
NMTAP	54	144	5
NMTAP	54	168	4
NMHLD	54	192	6	48
NMTAP	54	240	3
NMHLD	54	264	7	48
NMTAP	54	312	1
NMHLD	54	336	5	48
NMTAP	55	0	0
NMTAP	55	48	2
NMTAP	55	96	4
NMTAP	55	96	5
NMTAP	55	144	7
NMTAP	55	192	0
NMTAP	55	192	1
NMTAP	55	288	6
NMTAP	55	288	7
NMTAP	55	320	6
NMTAP	55	320	7
NMTAP	55	352	6
NMTAP	55	352	7
NMHLD	56	0	4	48
NMHLD	56	0	5	48
NMHLD	56	96	2	48
NMHLD	56	96	3	48
NMTAP	56	192	0
NMTAP	56	192	1
NMTAP	56	240	2
NMTAP	56	288	6
NMTAP	56	288	7
NMTAP	56	336	5
NMTAP	57	0	1
NMTAP	57	24	3
NMTAP	57	72	3
NMHLD	57	96	1	48
NMHLD	57	144	3	48
NMHLD	57	192	4	48
NMHLD	57	240	6	48
NMTAP	57	288	0
NMTAP	58	0	3
NMTAP	58	0	6
NMTAP	58	48	4
NMTAP	58	72	5
NMTAP	58	96	3
NMTAP	58	120	4
NMTAP	58	144	2
NMTAP	58	168	3
NMHLD	58	192	2	144
NMTTP	58	264	3	B	0	M1
NMTTP	58	264	4	E	0	M1
NMHLD	58	336	0	144
NMTTP	59	24	1	B	0	M1
NMTTP	59	24	2	E	0	M1
NMHLD	59	96	7	144
NMTTP	59	168	0	C	0	M1
NMHLD	59	240	5	72
NMTTP	59	312	4	B	0	M1
NMTTP	59	312	4	E	0	M1
NMTAP	60	0	6
NMTAP	60	48	6
NMTAP	60	96	5
NMTAP	60	96	7
NMTAP	60	144	5
NMTAP	60	144	7
NMTAP	60	192	0
NMTAP	60	192	4
NMTAP	60	240	0
NMTAP	60	240	4
NMTAP	60	288	1
NMTAP	60	288	3
NMTAP	60	336	1
NMTAP	60	336	3
NMTAP	61	0	2
NMTAP	61	24	4
NMTAP	61	48	2
NMTAP	61	72	4
NMTAP	61	96	3
NMTAP	61	120	5
NMTAP	61	144	3
NMTAP	61	168	5
NMTAP	61	192	3
NMTAP	61	204	4
NMTAP	61	216	5
NMTAP	61	228	6
NMTAP	61	240	7
NMTAP	61	252	0
NMTAP	61	264	1
NMTAP	61	276	2
NMTAP	61	288	3
NMTAP	61	300	4
NMTAP	61	312	5
NMTAP	61	324	6
NMTAP	61	336	7
NMTAP	61	348	0
NMTAP	61	360	1
NMTAP	61	372	2
NMSTR	62	0	3
NMSI_	62	0	3	96	48	7
NMSTR	62	0	4
NMSI_	62	0	4	96	48	0
BRTAP	62	96	3
BRTAP	62	96	4
NMTTP	62	120	0	C	1	M1
NMTAP	62	192	1
NMTAP	62	192	5
EXTAP	62	264	0
EXTAP	62	264	6
EXTAP	62	336	1
EXSTR	62	336	7
NMSV_	62	336	7	96	48	2
NMTAP	63	48	2
NMTAP	63	48	7
NMHLD	63	96	0	96
CNSCR	63	96	2	0	48	5
NMTAP	63	240	0
NMTAP	63	240	6
NMTAP	63	288	7
NMTAP	63	336	1
NMSTR	64	0	1
NMSCR	64	0	1	96	48	4
NMSTR	64	48	4
NMSUL	64	48	4	96	48	0
NMTAP	64	96	1
NMTAP	64	144	5
NMSTR	64	192	6
NMSUL	64	192	6	96	48	2
NMTAP	64	240	7
NMTAP	64	288	1
NMTAP	64	288	6
NMSTR	64	336	0
NMSI_	64	336	0	96	48	4
NMSTR	65	48	0
NMSI_	65	48	0	96	48	2
NMSTR	65	96	7
NMSI_	65	96	7	96	48	3
NMSTR	65	144	0
BRSCL	65	144	0	96	48	5
NMTAP	65	192	7
BRTAP	65	240	0
NMSTR	66	0	1
NMSXR	66	0	1	96	96	3
NMSTR	66	0	6
NMSXL	66	0	6	96	96	3
NMTAP	66	288	2
NMTAP	66	288	4
NMTAP	66	336	0
NMSTR	66	336	6
NMSCL	66	336	6	96	72	2
NMTAP	67	48	6
NMTAP	67	48	7
NMHLD	67	96	1	96
CNSUR	67	120	2	0	72	7
NMTAP	67	240	0
NMTAP	67	288	6
NMTAP	67	336	1
NMSTR	68	0	7
NMSI_	68	0	7	96	48	3
NMSTR	68	48	3
NMSI_	68	48	3	96	48	5
NMTAP	68	96	7
NMTAP	68	144	2
NMSTR	68	192	1
NMSI_	68	192	1	96	48	4
NMTAP	68	240	0
NMTAP	68	288	1
NMTAP	68	288	6
NMSTR	68	336	7
NMSI_	68	336	7	96	48	2
NMSI_	68	336	7	96	48	4
CNSLL	69	96	2	0	96	3
CNSLR	69	96	4	0	96	3
NMHLD	69	288	2	48
NMHLD	69	288	4	48
BRTAP	70	48	1
BRTAP	70	48	5
BRTAP	70	96	2
BRTAP	70	96	6
BRTAP	70	144	1
BRTAP	70	144	5
BRSTR	70	192	2
BRSI_	70	192	2	96	48	7
BRSTR	70	192	6
BRSI_	70	192	6	96	48	3
BRTAP	70	288	2
BRTAP	70	288	6
BXTAP	71	0	0
BXTAP	71	0	4
NMTAP	71	144	2
NMTAP	71	144	3
NMTAP	71	192	1
NMTAP	71	192	4
NMTAP	71	288	3
NMSTR	71	288	6
NMSI_	71	288	6	96	48	4
NMSTR	72	0	6
NMSI_	72	0	6	96	48	0
NMSTR	72	48	2
NMSI_	72	48	2	96	48	4
NMSTR	72	96	6
BRSI_	72	96	6	96	48	2
NMTAP	72	144	2
NMTAP	72	192	6
CNSI_	72	240	2	0	48	7
EXSTR	72	288	0
NMSI_	72	288	0	96	48	4
NMSTR	73	0	0
NMSCR	73	0	0	96	48	2
NMSTR	73	48	5
NMSCR	73	48	5	96	48	7
NMSTR	73	96	0
BRSSL	73	96	0	96	96	4
NMTAP	73	144	5
NMTAP	73	192	0
EXTAP	73	288	7
EXTAP	73	336	7
BRTAP	74	48	3
BRTAP	74	48	5
BRTAP	74	72	3
BRTAP	74	72	5
BRTAP	74	96	3
BRTAP	74	96	5
BRTAP	74	144	2
BRTAP	74	144	4
BRTAP	74	168	2
BRTAP	74	168	4
BRTAP	74	192	2
BRTAP	74	192	4
BRTAP	74	240	3
BRTAP	74	240	6
BRTAP	74	264	3
BRTAP	74	264	6
BRTAP	74	312	1
BRTAP	74	312	4
BRTAP	74	336	1
BRTAP	74	336	4
NMSTR	75	0	6
NMSCL	75	0	6	96	48	3
NMSTR	75	0	7
NMSCR	75	0	7	96	48	2
NMTAP	75	192	1
NMTAP	75	192	4
NMTAP	75	288	3
EXSTR	75	288	6
BRSCR	75	288	6	96	48	0
NMTAP	75	336	0
NMSTR	76	0	6
BRSCL	76	0	6	96	48	4
NMSTR	76	48	2
NMSI_	76	48	2	96	48	0
NMSTR	76	96	6
NMSV_	76	96	6	96	48	3
NMTAP	76	144	2
NMTAP	76	192	6
CNSI_	76	240	3	0	48	5
NMSTR	76	288	2
NMSCL	76	288	2	96	48	0
NMTAP	76	336	7
NMSTR	77	0	2
BRSI_	77	0	2	96	48	4
NMSTR	77	48	6
BRSI_	77	48	6	96	48	0
NMSTR	77	96	2
NMSI_	77	96	2	96	48	7
NMSTR	77	144	6
NMSI_	77	144	6	96	48	3
NMTAP	77	192	2
NMTAP	77	240	6
NMSTR	77	288	1
BRSCL	77	288	1	96	192	2
NMTTP	78	0	0	C	1	M1
BRSTR	78	288	1
NMSLR	78	288	1	96	192	7
BRTAP	78	288	5
NMTAP	79	0	6
NMSTR	79	96	7
NMSLR	79	96	7	96	192	5
NMTAP	79	192	6
NMSTR	79	288	5
NMSLR	79	288	5	96	192	3
NMTAP	80	0	4
NMSTR	80	96	3
NMSUL	80	96	3	96	96	7
NMTAP	80	192	4
NMTAP	80	240	5
BRSTR	80	288	6
NMSLL	80	288	6	96	192	0
NMTAP	81	0	7
NMSTR	81	96	0
NMSLL	81	96	0	96	192	2
NMTAP	81	192	1
NMSTR	81	288	2
NMSLL	81	288	2	96	192	4
NMTAP	82	0	3
NMSTR	82	96	4
NMSLR	82	96	4	96	144	0
NMTAP	82	192	0
NMTAP	82	240	1
BRSTR	82	288	2
NMSLL	82	288	2	96	192	4
NMTAP	83	0	6
NMSTR	83	96	4
NMSLL	83	96	4	96	192	6
NMTAP	83	192	5
NMSTR	83	288	6
NMSLL	83	288	6	96	192	0
NMTAP	84	0	7
NMSTR	84	96	0
NMSUR	84	96	0	96	96	4
NMTAP	84	192	7
NMTAP	84	240	6
BRSTR	84	288	5
NMSLR	84	288	5	96	192	3
NMTAP	85	0	4
NMSTR	85	96	3
NMSLR	85	96	3	96	192	1
NMTAP	85	192	2
NMSTR	85	288	1
NMSLR	85	288	1	96	192	7
NMTAP	86	0	0
NMSTR	86	96	7
NMSCL	86	96	7	96	96	3
NMTAP	86	192	0
BXTAP	86	288	1
EXTAP	87	0	2
EXTAP	87	0	3
NMTAP	87	96	1
NMTAP	87	96	4
NMTAP	87	128	2
NMTAP	87	160	3
NMSTR	87	192	1
NMSCR	87	192	1	96	48	4
NMTAP	87	192	4
NMTAP	87	224	1
NMTAP	87	224	4
NMTAP	88	96	3
NMTAP	88	96	6
NMTAP	88	128	5
NMTAP	88	160	4
NMTAP	88	192	3
NMSTR	88	192	6
NMSCL	88	192	6	96	48	3
NMTAP	88	224	3
NMTAP	88	224	6
NMTAP	89	0	2
NMTAP	89	24	4
NMTAP	89	48	2
NMTAP	89	72	4
NMTAP	89	96	1
NMTAP	89	120	5
NMTAP	89	144	1
NMTAP	89	168	5
NMTAP	89	192	0
NMTAP	89	216	6
NMTAP	89	240	0
NMTAP	89	264	6
NMTAP	89	288	1
NMTAP	89	312	7
NMTAP	89	336	1
NMTAP	89	360	7
NMTAP	90	0	1
NMTAP	90	24	2
NMTAP	90	48	7
NMTAP	90	72	6
NMTAP	90	96	1
NMTAP	90	120	2
NMTAP	90	144	7
NMTAP	90	168	6
NMTAP	90	192	2
NMTAP	90	216	3
NMTAP	90	240	6
NMTAP	90	264	5
NMTAP	90	288	2
NMTAP	90	312	3
NMTAP	91	0	4
NMTAP	91	0	5
NMTAP	91	96	2
NMTAP	91	96	7
NMTAP	91	128	1
NMTAP	91	160	0
NMSTR	91	192	2
NMSCL	91	192	2	96	48	7
NMTAP	91	192	7
NMTAP	91	224	2
NMTAP	91	224	7
NMTAP	92	96	0
NMTAP	92	96	5
NMTAP	92	128	6
NMTAP	92	160	7
NMTAP	92	192	0
NMSTR	92	192	5
NMSCR	92	192	5	96	48	0
NMTAP	92	224	0
NMTAP	92	224	5
NMTAP	93	0	1
NMTAP	93	24	0
NMTAP	93	48	1
NMTAP	93	72	0
NMTAP	93	96	2
NMTAP	93	120	7
NMTAP	93	144	2
NMTAP	93	168	7
NMTAP	93	192	3
NMTAP	93	216	6
NMTAP	93	240	3
NMTAP	93	264	6
NMTAP	93	288	4
NMTAP	93	312	5
NMTAP	93	336	4
NMTAP	93	360	5
NMTAP	94	0	3
NMTAP	94	24	2
NMTAP	94	48	5
NMTAP	94	72	6
NMTAP	94	96	3
NMTAP	94	120	2
NMTAP	94	144	5
NMTAP	94	168	6
NMTAP	94	192	2
NMTAP	94	216	1
NMTAP	94	240	0
NMTAP	94	240	7
EXSTR	94	288	6
NMSUR	94	288	6	96	48	2
EXSTR	94	288	7
NMSCR	94	288	7	96	48	2
NMTAP	94	336	5
BRTAP	95	0	6
BRTAP	95	0	7

T_REC_TAP	443
T_REC_BRK	42
T_REC_XTP	18
T_REC_BXX	3
T_REC_HLD	98
T_REC_XHO	2
T_REC_BHO	0
T_REC_BXH	0
T_REC_STR	105
T_REC_BST	6
T_REC_XST	6
T_REC_XBS	0
T_REC_TTP	23
T_REC_THO	0
T_REC_SLD	104
T_REC_BSL	18
T_REC_ALL	868
T_NUM_TAP	595
T_NUM_BRK	69
T_NUM_HLD	100
T_NUM_SLD	104
T_NUM_ALL	868
T_JUDGE_TAP	646
T_JUDGE_HLD	145
T_JUDGE_SLD	122
T_JUDGE_ALL	913
TTM_EACHPAIRS	157
TTM_SCR_TAP	297500
TTM_SCR_BRK	179400
TTM_SCR_HLD	100000
TTM_SCR_SLD	156000
TTM_SCR_ALL	732900
TTM_SCR_S	704250
TTM_SCR_SS	726000
TTM_RAT_ACV	10095

