VERSION	0.00.00	1.04.00
FES_MODE	0
BPM_DEF	150.000	150.000	150.000	150.000
MET_DEF	4	4
RESOLUTION	384
CLK_DEF	384
COMPATIBLE_CODE	MA2

BPM	0	0	150.000
MET	0	0	4	4

NMSTR	1	0	3
NMSCL	1	0	3	96	288	0
NMSTR	2	0	7
NMSCL	2	0	7	96	288	4
NMSTR	3	0	2
NMSCL	3	0	2	96	288	7
NMTTP	4	0	7	E	0	M1
NMTTP	4	96	6	E	0	M1
NMTTP	4	192	4	A	0	M1
NMTTP	4	192	5	E	0	M1
NMTAP	5	0	2
NMTAP	5	0	3
NMTAP	5	96	2
NMTAP	5	96	3
NMTAP	5	192	3
NMTAP	5	192	4
NMTAP	5	288	3
NMTAP	5	288	4
NMTAP	6	0	1
NMTAP	6	0	3
NMTAP	6	96	1
NMTAP	6	96	3
NMTAP	6	192	3
NMTAP	6	192	5
NMTAP	6	288	3
NMTAP	6	288	5
NMTAP	7	0	4
NMTAP	7	48	4
NMTAP	7	96	3
NMTAP	7	144	3
NMTAP	7	192	5
NMTAP	7	240	5
NMSTR	7	288	4
NMSI_	7	288	4	96	144	0
NMHLD	9	0	0	144
NMHLD	9	0	7	144
EXTAP	9	192	0
EXTAP	9	192	7
EXTAP	9	240	0
EXTAP	9	240	7
BXTAP	9	288	1
BXTAP	9	288	6
NMHLD	10	0	2	72
NMHLD	10	72	1	72
NMTAP	10	144	0
NMTAP	10	192	0
NMTAP	10	288	2
NMTAP	10	288	4
NMHLD	11	0	5	72
NMHLD	11	72	6	72
NMTAP	11	144	7
NMTAP	11	192	7
NMTAP	11	288	3
NMTAP	11	288	5
NMHLD	12	0	2	72
NMHLD	12	72	1	72
NMTAP	12	144	0
NMTAP	12	192	0
NMTAP	12	288	2
NMTAP	12	288	7
NMHLD	13	0	6	72
NMHLD	13	72	5	72
NMTAP	13	144	4
NMTAP	13	192	4
BRTAP	13	288	0
BRTAP	13	288	7
NMHLD	14	0	1	72
NMHLD	14	72	2	72
NMTAP	14	144	3
NMTAP	14	192	3
NMTAP	14	288	0
NMTAP	14	288	6
NMHLD	15	0	7	72
NMHLD	15	72	6	72
NMTAP	15	144	5
NMTAP	15	192	5
NMTAP	15	288	0
NMTAP	15	288	1
NMHLD	16	0	2	72
NMHLD	16	72	3	72
NMTAP	16	144	4
NMTAP	16	192	4
NMTAP	16	288	3
NMTAP	16	288	5
BXTAP	17	0	0
BXTAP	17	0	1
BXTAP	17	72	6
BXTAP	17	72	7
BXTAP	17	144	0
BXTAP	17	144	5
EXTAP	17	192	0
EXHLD	17	192	5	96
BRTAP	17	288	4
NMTAP	18	0	6
NMTAP	18	48	6
NMTAP	18	96	3
NMTAP	18	96	5
NMTAP	18	144	3
NMTAP	18	144	5
NMTAP	18	192	2
NMTAP	18	240	2
NMTAP	18	288	1
NMTAP	18	288	3
NMTAP	18	336	1
NMTAP	18	336	3
NMTAP	19	0	4
NMTAP	19	48	4
NMTAP	19	96	3
NMTAP	19	96	5
NMTAP	19	144	3
NMTAP	19	144	5
NMHLD	19	192	2	96
NMTAP	19	192	6
BXTAP	19	288	0
NMHLD	20	0	0	72
NMHLD	20	0	1	72
NMTAP	20	144	2
NMTAP	20	144	7
NMTAP	20	192	2
NMTAP	20	192	7
NMTAP	20	288	4
NMTAP	20	288	5
NMHLD	21	0	6	72
NMHLD	21	0	7	72
NMTAP	21	144	0
NMTAP	21	144	5
NMTAP	21	192	0
NMTAP	21	192	5
EXTAP	21	288	2
EXSTR	21	288	3
NMSI_	21	288	3	96	96	7
NMTAP	22	192	1
NMTAP	22	192	5
NMTAP	22	288	2
NMTAP	22	288	3
BXSTR	23	0	0
NMSCR	23	0	0	96	96	3
BXSTR	23	0	4
NMSCR	23	0	4	96	96	7
NMTAP	23	288	2
NMTAP	23	288	6
NMTAP	24	0	3
NMTAP	24	0	5
NMTAP	24	96	6
NMTAP	24	96	7
NMTAP	24	192	0
NMTAP	24	192	1
NMTAP	24	288	2
NMTAP	24	288	7
NMTAP	24	336	2
NMTAP	24	336	7
NMTAP	25	48	3
NMTAP	25	48	6
NMTAP	25	96	3
NMTAP	25	96	6
NMTTP	25	192	0	B	1	M1
NMTTP	25	192	0	E	0	M1
NMTTP	25	192	0	A	0	M1
NMTTP	25	192	0	D	0	M1
NMTTP	25	192	1	E	0	M1
NMTTP	25	192	1	D	0	M1
NMTAP	26	0	1
NMTAP	26	0	3
NMTAP	26	48	1
NMTAP	26	48	3
NMTAP	26	96	2
NMTAP	26	96	4
NMTAP	26	144	2
NMTAP	26	144	4
NMTAP	26	192	3
NMTAP	26	192	5
NMTAP	26	240	3
NMTAP	26	240	5
NMTAP	26	288	4
NMTAP	26	288	6
NMTAP	26	336	4
NMTAP	26	336	6
BXSTR	27	0	3
BRSCL	27	0	3	96	96	0
BXSTR	27	0	7
BRSCL	27	0	7	96	96	4
EXTAP	27	288	0
EXTAP	27	288	4
NMTAP	28	0	1
NMTAP	28	48	1
NMTAP	28	96	3
NMTAP	28	192	4
NMTAP	28	192	5
NMTAP	28	288	0
NMTAP	28	288	6
NMTAP	28	336	0
NMTAP	28	336	6
NMTAP	29	48	2
NMTAP	29	48	3
NMTAP	29	96	2
NMSTR	29	96	3
NMSCR	29	96	3	96	96	6
NMSTR	29	288	0
NMSV_	29	288	0	96	144	3
NMSV_	29	288	0	96	144	5
EXTAP	30	288	3
EXTAP	30	288	5
BRTAP	31	0	0
BRTAP	31	0	7
NMTAP	31	96	2
NMTAP	31	96	4
NMTAP	31	144	2
NMTAP	31	144	4
NMTAP	31	192	2
NMTAP	31	192	4
NMTAP	31	288	3
NMTAP	31	288	6
NMSTR	32	0	5
NMSI_	32	0	5	96	48	0
NMSTR	32	96	1
NMSI_	32	96	1	96	48	4
NMTAP	32	192	7
NMTAP	32	240	7
EXTAP	32	288	7
NMSTR	33	0	6
NMSI_	33	0	6	96	48	3
NMSTR	33	96	2
NMSI_	33	96	2	96	48	7
NMTAP	33	192	4
NMTAP	33	240	4
NMTAP	33	288	4
NMTAP	34	0	3
NMTAP	34	0	5
EXTAP	34	48	3
EXTAP	34	48	5
EXTAP	34	96	3
EXTAP	34	96	5
NMSTR	34	192	2
NMSI_	34	192	2	96	48	7
NMSTR	34	192	6
NMSI_	34	192	6	96	48	3
BRTAP	35	0	0
BRTAP	35	0	4
NMTAP	35	96	1
NMTAP	35	96	7
NMTAP	35	192	3
NMTAP	35	192	5
NMTAP	35	240	3
NMTAP	35	240	5
NMTAP	35	288	3
NMTAP	35	288	5
NMSTR	36	0	2
NMSI_	36	0	2	96	48	5
NMSTR	36	96	6
NMSI_	36	96	6	96	48	1
NMTAP	36	192	3
NMTAP	36	240	3
NMTAP	36	288	3
NMSTR	37	0	5
NMSI_	37	0	5	96	48	2
NMSTR	37	96	1
NMSI_	37	96	1	96	48	6
NMTAP	37	192	4
NMTAP	37	240	4
NMSTR	37	288	4
BRSCR	37	288	4	96	384	1
NMTTP	38	0	0	C	1	M1
CNSI_	39	0	1	0	144	3
CNSI_	39	144	3	0	144	5
CNSI_	39	288	5	0	96	7
NMTTP	41	0	2	B	0	M1
NMTTP	41	0	3	B	0	M1
NMTTP	41	192	4	B	0	M1
NMTTP	41	192	5	B	0	M1
NMTTP	42	0	6	E	0	M1
NMTTP	42	96	5	E	0	M1
NMTTP	42	192	4	E	0	M1
NMTTP	42	288	3	E	0	M1
NMTTP	43	0	0	C	0	M1
NMTTP	43	0	2	E	0	M1
NMTTP	43	96	1	E	0	M1
NMTTP	43	192	0	E	0	M1
NMTTP	43	288	7	E	0	M1
NMTTP	44	0	0	C	0	M1
NMTTP	44	0	6	E	0	M1
NMTTP	44	96	5	E	0	M1
NMTTP	44	192	4	E	0	M1
NMTTP	44	288	3	B	0	M1
NMTTP	44	288	4	B	0	M1
NMTHO	45	0	0	288	C	0	M1
BXSTR	46	0	0
NMSI_	46	0	0	96	48	2
NMSI_	46	0	0	96	48	5
EXTAP	46	192	4
EXTAP	46	264	4
EXTAP	46	336	3
EXTAP	46	336	5
NMTAP	47	48	2
NMSTR	47	96	2
NMSCL	47	96	2	96	96	7
BRTAP	47	192	3
CNSI_	47	288	7	0	96	3
EXTAP	48	0	4
BRTAP	48	96	2
BRTAP	48	96	6
EXTAP	48	192	4
EXTAP	48	192	5
EXTAP	48	264	4
EXTAP	48	264	5
EXTAP	48	336	3
EXTAP	48	336	6
NMTAP	49	48	2
NMTAP	49	48	5
NMTAP	49	96	2
NMSTR	49	96	5
NMSCR	49	96	5	96	48	0
CNSI_	49	240	0	0	48	2
EXTAP	49	288	3
NMTAP	50	0	3
BRSTR	50	96	0
NMSI_	50	96	0	96	96	4
BRTAP	50	96	6
EXTAP	50	336	2
EXTAP	50	336	5
EXTAP	51	48	3
EXTAP	51	72	4
EXTAP	51	120	4
EXTAP	51	168	4
EXTAP	51	192	3
EXTAP	51	264	2
EXTAP	51	264	4
EXTAP	51	336	1
EXTAP	51	336	5
EXTAP	52	0	1
EXTAP	52	0	5
EXTAP	52	72	2
EXTAP	52	72	6
NMTTP	52	192	0	C	0	M1
EXHLD	52	288	0	96
EXHLD	52	288	7	96
EXTAP	53	48	0
EXTAP	53	48	7
EXTAP	53	96	0
EXTAP	53	96	7
EXTAP	53	144	0
EXTAP	53	144	7
EXSTR	53	192	1
NMSI_	53	192	1	96	48	3
EXSTR	53	192	6
NMSI_	53	192	6	96	48	4
BRTAP	54	0	2
BRTAP	54	0	5
NMTAP	54	96	3
NMTAP	54	96	4
NMHLD	54	192	6	72
NMHLD	54	264	5	72
NMTAP	54	336	4
NMSTR	55	0	4
NMSI_	55	0	4	96	48	0
NMTAP	55	96	2
NMHLD	55	192	1	72
NMHLD	55	264	2	72
NMTAP	55	336	3
NMSTR	56	0	3
NMSI_	56	0	3	96	48	7
NMTAP	56	96	5
BXHLD	56	192	6	72
NMTAP	56	264	7
NMTAP	56	336	0
NMTAP	56	336	5
NMTAP	57	0	0
NMTAP	57	0	5
NMTAP	57	96	2
NMTAP	57	96	3
NMTAP	57	192	4
NMTAP	57	192	5
NMTAP	57	240	6
NMTAP	57	288	0
NMTAP	57	288	7
NMTAP	58	0	1
NMTAP	58	48	1
NMTAP	58	96	3
NMTAP	58	144	3
NMHLD	58	192	2	72
NMHLD	58	192	4	72
NMHLD	58	336	3	72
NMHLD	58	336	5	72
NMHLD	59	96	2	72
NMHLD	59	96	4	72
NMHLD	59	240	0	72
NMHLD	59	240	6	72
NMTAP	60	0	1
NMTAP	60	48	1
NMTAP	60	96	3
NMTAP	60	144	3
NMTAP	60	192	4
NMTAP	60	240	4
NMTAP	60	288	6
NMTAP	60	336	6
NMTAP	61	0	0
NMTAP	61	24	7
NMTAP	61	48	0
NMTAP	61	72	7
NMTAP	61	96	0
NMTAP	61	120	7
NMTAP	61	144	0
NMTAP	61	168	7
NMTAP	61	192	0
NMSTR	61	288	1
NMSI_	61	288	1	96	48	4
NMSTR	61	288	6
NMSI_	61	288	6	96	48	3
BXTAP	62	96	2
BXTAP	62	96	5
NMTAP	62	192	0
NMTAP	62	192	1
NMTAP	62	264	0
NMTAP	62	264	6
NMTAP	62	336	1
NMTAP	62	336	5
BXSTR	63	0	1
NMSCR	63	0	1	96	96	4
BXSTR	63	0	5
NMSCR	63	0	5	96	96	0
NMTAP	63	288	2
NMTAP	63	288	7
NMSTR	64	0	6
NMSI_	64	0	6	96	48	3
NMSTR	64	96	7
NMSI_	64	96	7	96	48	2
NMSTR	64	192	6
NMSI_	64	192	6	96	48	3
NMSTR	64	288	7
NMSCR	64	288	7	96	144	5
EXTAP	65	192	6
EXTAP	65	192	7
EXTAP	65	240	6
EXTAP	65	240	7
EXTAP	65	288	0
EXTAP	65	288	5
NMTAP	66	0	1
NMTAP	66	0	3
NMTAP	66	96	3
NMTAP	66	96	4
NMTAP	66	192	6
NMTAP	66	192	7
NMTAP	66	264	1
NMTAP	66	264	7
NMTAP	66	336	2
NMTAP	66	336	6
BRSTR	67	0	2
NMSUR	67	0	2	96	96	7
BRSTR	67	0	6
NMSCL	67	0	6	96	96	3
NMTAP	67	288	0
NMTAP	67	288	7
NMSTR	68	0	1
NMSI_	68	0	1	96	48	4
NMSTR	68	96	5
NMSI_	68	96	5	96	48	0
NMTAP	68	192	3
NMTAP	68	288	1
NMTAP	68	288	7
NMTAP	68	336	1
NMTAP	68	336	7
NMTAP	69	48	0
NMTAP	69	48	6
NMTAP	69	96	0
NMTAP	69	96	6
NMTTP	69	192	2	B	0	M1
NMTTP	69	192	3	B	1	M1
NMTTP	69	192	3	E	0	M1
NMTTP	69	192	4	B	0	M1
NMTTP	69	192	4	E	0	M1
BXTAP	70	48	0
BXTAP	70	48	1
BXTAP	70	96	0
BXTAP	70	96	1
BXTAP	70	144	2
BXTAP	70	144	7
BXSTR	70	192	2
NMSI_	70	192	2	96	48	7
BXSTR	70	192	7
NMSI_	70	192	7	96	48	4
BXTAP	71	0	0
BXTAP	71	0	5
NMTAP	71	144	0
NMTAP	71	144	1
NMTAP	71	192	2
NMTAP	71	192	7
NMTAP	71	288	4
NMTAP	71	288	5
NMTAP	71	336	6
NMSTR	72	0	0
NMSI_	72	0	0	96	48	2
NMSTR	72	0	7
NMSI_	72	0	7	96	48	3
EXTAP	72	192	1
EXTAP	72	192	4
NMTAP	72	288	2
NMTAP	72	288	3
NMTAP	72	336	1
NMSTR	73	0	0
NMSI_	73	0	0	96	48	4
NMSTR	73	0	7
NMSI_	73	0	7	96	48	5
EXTAP	73	192	3
EXTAP	73	192	6
NMTAP	73	288	0
NMTAP	73	288	5
NMTAP	73	336	0
NMTAP	73	336	5
EXTAP	74	48	6
EXTAP	74	72	7
EXTAP	74	96	6
EXTAP	74	144	1
EXTAP	74	168	0
EXTAP	74	192	1
EXTAP	74	240	7
EXTAP	74	264	0
EXTAP	74	312	0
EXTAP	74	336	7
BXSTR	75	0	1
NMSI_	75	0	1	96	48	7
BXSTR	75	0	6
NMSI_	75	0	6	96	48	2
EXTAP	75	192	0
NMTAP	75	288	0
NMTAP	75	288	1
NMTAP	75	336	2
NMSTR	76	0	3
NMSI_	76	0	3	96	48	7
NMSTR	76	0	4
NMSI_	76	0	4	96	48	6
NMTAP	76	192	0
EXTAP	76	192	5
NMTAP	76	288	6
NMTAP	76	288	7
NMTAP	76	336	5
NMSTR	77	0	3
NMSI_	77	0	3	96	48	1
NMSTR	77	0	4
NMSI_	77	0	4	96	48	0
NMTAP	77	192	7
NMSTR	77	288	0
NMSF_	77	288	0	96	144	4
NMTAP	77	288	6
BXTAP	78	288	7
NMHLD	79	0	1	576
NMSTR	79	0	6
NMSCL	79	0	6	96	96	3
NMTAP	79	288	3
NMSTR	80	0	3
NMSUR	80	0	3	96	96	0
EXTAP	80	288	1
EXTAP	80	288	7
NMSTR	81	0	2
NMSCL	81	0	2	96	96	7
NMHLD	81	0	6	576
NMTAP	81	288	7
NMSTR	82	0	7
NMSUR	82	0	7	96	96	4
NMTTP	82	288	5	B	0	M1
NMTTP	82	288	6	B	0	M1
NMHLD	83	0	0	672
NMSTR	83	0	7
NMSV_	83	0	7	96	96	2
NMTAP	83	288	2
NMSTR	84	0	2
NMSCR	84	0	2	96	96	5
NMTTP	84	288	0	C	0	M1
NMHLD	85	0	7	96
NMHLD	85	96	5	96
NMHLD	85	192	3	96
NMHLD	85	288	1	96
NMHLD	86	0	3	96
NMTAP	86	96	4
EXHLD	86	192	2	96
NMSTR	86	192	5
BRSI_	86	192	5	96	48	3
BXHLD	87	0	0	1152
NMTAP	87	96	2
NMTAP	87	192	2
NMTAP	87	288	4
NMTAP	88	0	2
NMSTR	88	96	2
NMSCL	88	96	2	96	96	7
NMTTP	89	0	7	E	0	M1
NMTTP	89	96	4	B	0	M1
NMTTP	89	192	1	E	0	M1
NMTTP	89	288	3	B	0	M1
NMTTP	90	0	6	B	0	M1
NMTTP	90	96	4	E	0	M1
NMTAP	90	192	1
NMTAP	90	192	7
NMTAP	90	240	1
NMTAP	90	240	7
EXTAP	90	288	1
EXTAP	90	288	7
BXHLD	91	0	6	768
NMTAP	91	96	5
NMTAP	91	192	5
NMTAP	91	288	7
NMTAP	92	0	5
NMSTR	92	96	5
NMSCR	92	96	5	96	96	0
NMTAP	93	0	0
NMTAP	93	48	0
NMTAP	93	96	6
NMTAP	93	144	6
NMTAP	93	192	4
NMTAP	93	240	4
NMTAP	93	288	3
NMTAP	93	288	5
NMTAP	93	336	3
NMTAP	93	336	5
NMTAP	94	0	2
NMTAP	94	48	2
NMTAP	94	96	3
NMTAP	94	144	1
NMTAP	94	192	7
NMTAP	94	240	6
NMSTR	94	288	3
BRSI_	94	288	3	96	48	7
NMSTR	94	288	5
BRSI_	94	288	5	96	48	0

T_REC_TAP	281
T_REC_BRK	13
T_REC_XTP	74
T_REC_BXX	20
T_REC_HLD	41
T_REC_XHO	4
T_REC_BHO	0
T_REC_BXH	3
T_REC_STR	49
T_REC_BST	3
T_REC_XST	3
T_REC_XBS	11
T_REC_TTP	45
T_REC_THO	1
T_REC_SLD	62
T_REC_BSL	6
T_REC_ALL	616
T_NUM_TAP	452
T_NUM_BRK	56
T_NUM_HLD	46
T_NUM_SLD	62
T_NUM_ALL	616
T_JUDGE_TAP	499
T_JUDGE_HLD	172
T_JUDGE_SLD	68
T_JUDGE_ALL	739
TTM_EACHPAIRS	162
TTM_SCR_TAP	226000
TTM_SCR_BRK	145600
TTM_SCR_HLD	46000
TTM_SCR_SLD	93000
TTM_SCR_ALL	510600
TTM_SCR_S	489850
TTM_SCR_SS	505000
TTM_RAT_ACV	10110

