VERSION	0.00.00	1.04.00
FES_MODE	0
BPM_DEF	195.000	195.000	195.000	195.000
MET_DEF	4	4
RESOLUTION	384
CLK_DEF	384
COMPATIBLE_CODE	MA2

BPM	0	0	195.000
MET	0	0	4	4

NMTAP	1	336	5
NMHLD	2	0	5	192
NMTAP	2	192	4
NMTAP	2	240	4
NMTAP	2	336	3
NMTAP	2	336	6
NMTAP	3	48	1
NMTAP	3	48	4
NMTAP	3	144	3
NMTAP	3	144	6
NMHLD	3	192	3	96
NMHLD	3	192	6	96
NMTAP	3	336	2
NMHLD	4	0	2	192
NMTAP	4	192	3
NMTAP	4	240	3
NMTAP	4	336	0
NMTAP	4	336	1
NMTAP	5	48	6
NMTAP	5	48	7
NMTAP	5	144	4
NMTAP	5	144	5
NMHLD	5	192	4	96
NMHLD	5	192	5	96
NMTAP	5	336	6
NMHLD	6	0	6	192
NMTAP	6	192	4
NMTAP	6	240	4
NMTAP	6	336	3
NMTAP	6	336	5
NMTAP	7	48	1
NMTAP	7	48	3
NMTAP	7	144	1
NMTAP	7	144	7
NMHLD	7	192	1	96
NMHLD	7	192	7	96
NMTAP	7	336	2
NMSTR	8	0	2
NMSCR	8	0	2	96	96	5
NMSTR	8	96	6
NMSXL	8	96	6	96	192	1
NMTAP	9	96	2
NMTAP	9	120	3
NMTAP	9	144	2
NMTAP	9	192	5
NMTAP	9	216	4
NMTAP	9	240	5
EXSTR	9	288	2
NMSCL	9	288	2	96	48	7
EXTAP	9	288	7
NMSTR	10	0	5
NMSCR	10	0	5	96	48	0
NMSTR	10	96	3
NMSUL	10	96	3	96	48	6
NMSTR	10	192	4
NMSUR	10	192	4	96	48	1
NMSTR	10	288	2
NMSCL	10	288	2	96	48	7
NMSTR	11	0	5
NMSCR	11	0	5	96	48	0
NMSTR	11	96	3
NMSUL	11	96	3	96	48	6
NMSTR	11	192	4
NMSUR	11	192	4	96	48	1
NMSTR	11	288	2
NMSCL	11	288	2	96	48	7
NMSTR	12	0	5
NMSCR	12	0	5	96	48	0
NMSTR	12	96	3
NMSUL	12	96	3	96	48	6
NMSTR	12	192	4
NMSUR	12	192	4	96	48	1
NMSTR	12	288	2
NMSCL	12	288	2	96	48	7
NMSTR	13	0	5
NMSCR	13	0	5	96	48	0
NMSTR	13	96	3
NMSUL	13	96	3	96	48	6
NMTAP	13	192	4
NMSTR	13	288	5
NMSCR	13	288	5	96	48	0
NMSTR	14	0	2
NMSCL	14	0	2	96	48	7
NMSTR	14	96	4
NMSUR	14	96	4	96	48	1
NMSTR	14	192	3
NMSUL	14	192	3	96	48	6
NMSTR	14	288	5
NMSCR	14	288	5	96	48	0
NMSTR	15	0	2
NMSCL	15	0	2	96	48	7
NMSTR	15	96	4
NMSUR	15	96	4	96	48	1
NMTAP	15	192	3
NMTAP	15	288	2
EXTAP	16	0	7
NMTAP	16	96	6
NMTAP	16	96	7
NMTAP	16	144	0
NMTAP	16	144	5
NMTAP	16	240	0
NMTAP	16	240	1
NMTAP	16	288	2
NMTAP	16	288	7
NMTAP	17	0	2
NMTAP	17	48	1
NMTAP	17	48	3
NMTAP	17	144	4
NMTAP	17	192	3
NMTAP	17	192	5
NMTAP	17	240	3
NMTAP	17	240	5
NMTAP	17	288	3
NMTAP	17	288	5
NMTAP	17	336	3
NMTAP	17	336	5
NMSTR	18	0	2
NMSUR	18	0	2	96	288	5
NMTAP	18	0	6
NMTAP	18	48	2
NMHLD	18	48	6	528
EXHLD	19	192	4	96
NMSTR	19	288	7
NMSLL	19	288	7	96	96	3
NMTAP	20	0	2
NMTAP	20	96	1
CNSCR	20	96	3	0	96	7
NMSTR	20	192	0
NMSLR	20	192	0	96	96	4
NMTAP	20	288	5
CNSCL	21	0	4	0	96	0
NMHLD	21	0	6	192
EXTAP	21	192	0
NMTAP	21	288	2
NMTAP	21	288	4
NMTAP	22	0	1
NMSTR	22	0	5
NMSI_	22	0	5	96	96	1
NMHLD	22	48	1	528
NMTAP	22	48	5
CNSI_	22	192	1	0	96	6
CNSI_	22	288	6	0	96	3
NMHLD	23	192	3	96
NMSTR	23	288	0
NMSLL	23	288	0	96	96	4
NMSTR	24	0	5
NMSI_	24	0	5	96	48	1
CNSI_	24	96	4	0	48	2
EXTAP	24	192	0
EXSTR	24	240	0
NMSF_	24	240	0	96	48	4
NMTAP	25	48	2
NMTAP	25	48	6
NMHLD	25	96	2	96
NMHLD	25	96	6	96
NMTAP	25	240	4
NMTAP	25	240	5
NMSTR	25	288	6
NMSI_	25	288	6	96	48	2
NMSTR	25	288	7
NMSI_	25	288	7	96	48	3
BRTAP	26	0	6
BRTAP	26	0	7
NMHLD	26	96	1	96
NMSTR	26	192	4
NMSI_	26	192	4	96	48	0
NMSTR	26	288	3
NMSI_	26	288	3	96	48	1
NMSTR	27	0	5
NMSI_	27	0	5	96	48	7
NMTAP	27	96	3
NMTAP	27	144	3
NMTAP	27	240	2
NMTAP	27	240	3
NMSTR	27	288	0
NMSI_	27	288	0	96	48	4
NMSTR	27	288	1
NMSI_	27	288	1	96	48	5
BRTAP	28	0	0
BRTAP	28	0	1
NMSTR	28	96	7
NMSCL	28	96	7	96	96	4
NMSTR	28	192	4
NMSI_	28	192	4	96	96	0
NMSTR	28	288	0
NMSCR	28	288	0	96	96	3
NMSTR	29	0	3
NMSI_	29	0	3	96	96	7
NMTAP	29	96	0
NMTAP	29	144	0
NMTAP	29	240	1
NMTAP	29	240	6
NMSTR	29	288	0
NMSI_	29	288	0	96	48	4
NMSTR	29	288	7
NMSI_	29	288	7	96	48	3
BRTAP	30	0	0
BRTAP	30	0	7
NMSTR	30	96	5
NMSLR	30	96	5	96	96	1
NMSTR	30	192	1
NMSLR	30	192	1	96	96	5
NMSTR	30	288	5
NMSLR	30	288	5	96	96	1
NMSTR	31	0	1
NMSLR	31	0	1	96	96	5
NMTAP	31	96	5
NMTAP	31	192	1
NMSTR	31	288	6
NMSCL	31	288	6	96	48	3
NMSTR	31	288	7
NMSCR	31	288	7	96	48	2
EXTAP	32	0	6
EXTAP	32	0	7
NMSTR	32	96	0
NMSCL	32	96	0	96	48	5
NMSTR	32	96	1
NMSCR	32	96	1	96	48	4
EXTAP	32	192	0
EXTAP	32	192	1
EXTAP	32	288	3
NMSTR	32	288	6
BRSI_	32	288	6	96	48	4
CNSV_	33	48	4	0	96	3
CNSI_	33	144	3	0	48	1
BRTAP	33	192	0
NMSTR	34	0	5
NMSCL	34	0	5	96	48	3
NMSTR	34	96	1
NMSCL	34	96	1	96	48	7
NMSTR	34	192	5
NMSCL	34	192	5	96	48	3
NMSTR	34	288	1
NMSCL	34	288	1	96	48	7
NMSTR	35	0	5
NMSCL	35	0	5	96	48	3
NMTAP	35	96	1
NMTAP	35	144	1
NMTAP	35	192	5
NMTAP	35	240	5
NMTAP	35	288	3
NMTAP	35	336	2
NMSTR	36	0	2
NMSCR	36	0	2	96	48	4
NMSTR	36	96	6
NMSCR	36	96	6	96	48	0
NMSTR	36	192	2
NMSCR	36	192	2	96	48	4
NMSTR	36	288	6
NMSCR	36	288	6	96	48	0
NMSTR	37	0	2
NMSCR	37	0	2	96	48	4
NMTAP	37	96	6
NMTAP	37	144	6
NMTAP	37	192	2
NMTAP	37	240	2
NMTAP	37	288	3
NMTAP	37	288	5
NMSTR	38	0	6
NMSI_	38	0	6	96	48	4
NMSTR	38	0	7
NMSI_	38	0	7	96	48	3
NMSTR	38	192	0
NMSI_	38	192	0	96	48	4
NMSTR	38	192	1
NMSI_	38	192	1	96	48	3
NMSTR	39	0	6
NMSI_	39	0	6	96	48	3
NMSTR	39	0	7
NMSI_	39	0	7	96	48	3
NMSTR	39	192	0
NMSI_	39	192	0	96	48	4
NMSTR	39	192	1
NMSI_	39	192	1	96	48	4
NMSTR	40	0	6
BRSI_	40	0	6	96	48	3
NMSTR	40	0	7
BRSI_	40	0	7	96	48	4
NMTAP	40	48	0
NMSTR	40	192	0
BRSI_	40	192	0	96	48	3
NMSTR	40	192	1
BRSI_	40	192	1	96	48	4
NMTAP	40	240	7
NMSTR	41	0	6
BRSI_	41	0	6	96	48	2
NMSTR	41	0	7
BRSI_	41	0	7	96	48	3
NMTAP	41	48	0
NMTAP	41	192	0
NMTAP	41	192	1
NMTAP	41	240	0
NMTAP	41	240	1
BRTAP	41	288	0
BRTAP	41	288	1
NMSTR	42	0	3
NMSCL	42	0	3	96	48	1
NMSTR	42	96	7
NMSCL	42	96	7	96	48	5
NMSTR	42	192	3
NMSCL	42	192	3	96	48	1
NMSTR	42	288	7
NMSCL	42	288	7	96	48	5
NMSTR	43	0	3
NMSCL	43	0	3	96	48	1
NMTAP	43	96	7
NMTAP	43	144	7
NMTAP	43	192	2
NMTAP	43	240	2
NMTAP	43	288	3
NMTAP	43	336	4
NMSTR	44	0	4
NMSCR	44	0	4	96	48	6
NMSTR	44	96	0
NMSCR	44	96	0	96	48	2
NMSTR	44	192	4
NMSCR	44	192	4	96	48	6
NMSTR	44	288	0
NMSCR	44	288	0	96	48	2
NMSTR	45	0	4
NMSCR	45	0	4	96	48	6
NMTAP	45	96	0
NMTAP	45	144	0
NMTAP	45	192	5
NMTAP	45	240	5
NMTAP	45	288	2
NMTAP	45	288	4
NMTAP	46	0	1
NMTAP	46	24	3
NMTAP	46	48	1
NMTAP	46	72	3
NMTAP	46	96	1
NMTAP	46	192	6
NMTAP	46	216	4
NMTAP	46	240	6
NMTAP	46	264	4
NMTAP	46	288	6
NMTAP	47	0	2
NMTAP	47	24	5
NMTAP	47	48	2
NMTAP	47	72	5
NMTAP	47	96	2
NMTAP	47	120	5
NMTAP	47	144	2
NMTAP	47	168	5
NMTAP	47	192	1
NMTAP	47	216	6
NMTAP	47	240	1
NMTAP	47	264	6
EXSTR	47	288	0
NMSI_	47	288	0	96	48	5
EXSTR	47	288	7
NMSI_	47	288	7	96	48	4
NMSTR	48	0	0
NMSI_	48	0	0	96	48	3
NMSTR	48	0	7
NMSI_	48	0	7	96	48	2
NMSTR	48	96	0
NMSI_	48	96	0	96	48	5
NMSTR	48	96	7
NMSI_	48	96	7	96	48	4
NMSTR	48	192	0
BRSI_	48	192	0	96	48	3
NMSTR	48	192	7
BRSI_	48	192	7	96	48	2
BRTAP	48	288	0
BRTAP	48	288	7
BXTAP	49	0	1
BXTAP	49	0	5
NMTAP	49	192	2
NMTAP	49	192	6
NMTAP	49	240	2
NMSTR	49	240	6
NMSUL	49	240	6	96	48	2
NMHLD	49	336	1	96
BRTAP	49	336	6
NMTAP	50	48	0
NMSTR	50	96	0
NMSI_	50	96	0	96	48	4
NMSTR	50	96	1
NMSI_	50	96	1	96	48	5
NMTAP	50	192	0
NMTAP	50	192	1
CNSI_	50	240	4	0	48	7
EXHLD	50	336	6	96
EXTAP	51	48	7
NMSTR	51	96	6
NMSXL	51	96	6	96	96	7
NMSTR	51	96	7
NMSI_	51	96	7	96	48	4
NMTAP	51	192	6
NMTAP	51	192	7
BXTAP	51	336	0
NMTAP	52	48	1
NMTAP	52	48	7
NMHLD	52	96	1	96
NMTAP	52	96	7
NMTAP	52	192	3
NMSTR	52	240	3
NMSI_	52	240	3	96	48	7
NMSTR	52	336	0
NMSCL	52	336	0	96	48	5
NMSCR	52	336	0	96	48	3
NMTAP	53	48	0
EXTAP	53	144	2
EXTAP	53	144	6
NMTAP	53	240	0
NMSTR	53	288	0
NMSCR	53	288	0	96	96	4
NMSTR	54	0	4
NMSCR	54	0	4	96	96	0
NMSTR	54	96	0
NMSCR	54	96	0	96	96	4
NMSTR	54	192	4
NMSCR	54	192	4	96	96	0
NMSTR	54	288	0
NMSSL	54	288	0	96	96	4
NMTAP	55	0	4
NMTAP	55	96	0
NMTAP	55	192	5
NMTAP	55	240	5
NMSTR	55	336	6
NMSCR	55	336	6	96	96	1
NMTAP	56	48	3
NMTAP	56	96	3
EXTAP	56	192	3
EXTAP	56	192	4
EXSTR	56	240	3
BRSI_	56	240	3	96	72	7
EXSTR	56	240	4
BRSI_	56	240	4	96	72	0
NMTTP	56	336	3	E	0	M1
NMTTP	56	336	3	A	0	M1
NMTTP	56	336	4	A	0	M1
NMTTP	56	336	4	D	1	M1
NMTTP	56	336	5	E	0	M1
CNSCR	57	24	0	0	48	2
CNSCL	57	24	7	0	48	5
NMTAP	57	144	0
NMTAP	57	168	7
NMTAP	57	192	0
NMSTR	57	240	1
NMSCR	57	240	1	96	96	3
NMTAP	57	240	6
NMTAP	57	288	1
NMTAP	57	288	6
NMTAP	57	336	5
CNSUL	58	48	3	0	48	7
NMTAP	58	48	4
NMTAP	58	96	4
NMSTR	58	192	1
NMSI_	58	192	1	96	48	7
NMTAP	58	240	3
BRTAP	58	288	1
NMHLD	58	336	5	96
NMTAP	59	48	7
NMTAP	59	96	7
NMTAP	59	144	0
NMSTR	59	192	1
NMSI_	59	192	1	96	48	7
NMTAP	59	240	3
BRTAP	59	288	1
NMHLD	59	336	5	96
NMTAP	60	48	1
NMSTR	60	96	0
NMSI_	60	96	0	96	48	4
NMTAP	60	192	0
NMSTR	60	192	6
NMSI_	60	192	6	96	48	2
NMTAP	60	288	3
NMTAP	60	336	3
NMSTR	61	48	2
BRSCL	61	48	2	96	96	5
NMTAP	61	48	4
BRTAP	61	144	5
NMTAP	61	240	3
NMTAP	61	288	3
NMTAP	62	0	2
NMSTR	62	0	4
NMSI_	62	0	4	96	48	6
NMSTR	62	96	3
NMSI_	62	96	3	96	48	1
NMSTR	62	192	5
NMSI_	62	192	5	96	48	7
NMSTR	62	288	2
NMSI_	62	288	2	96	48	0
NMSTR	63	0	4
NMSI_	63	0	4	96	48	7
NMSTR	63	96	3
NMSI_	63	96	3	96	48	0
NMSTR	63	192	4
NMSCR	63	192	4	96	48	7
NMSTR	63	288	3
NMSCL	63	288	3	96	48	0
NMSTR	64	0	4
NMSI_	64	0	4	96	48	0
NMTAP	64	96	3
NMTAP	64	192	6
NMTAP	64	240	6
NMSTR	64	288	0
BRSUL	64	288	0	96	48	4
BRSUR	64	288	0	96	48	4
NMTAP	64	336	1
NMTAP	64	336	7
NMHLD	66	0	4	96
NMHLD	66	0	6	96
NMHLD	66	144	4	96
NMHLD	66	144	5	96
NMSTR	66	336	6
NMSI_	66	336	6	96	48	1
NMTAP	67	48	3
NMSTR	67	144	2
NMSI_	67	144	2	96	48	5
NMTAP	67	240	4
CNSI_	67	288	5	0	24	7
NMHLD	68	0	1	96
NMHLD	68	0	3	96
NMHLD	68	144	2	96
NMHLD	68	144	3	96
NMSTR	68	336	1
NMSI_	68	336	1	96	48	6
NMTAP	69	48	4
NMSTR	69	144	5
NMSI_	69	144	5	96	48	2
NMTAP	69	240	3
CNSI_	69	288	2	0	24	0
NMTAP	70	0	4
NMHLD	70	0	6	96
NMTAP	70	96	4
NMHLD	70	144	3	96
NMTAP	70	144	5
NMSTR	70	240	6
NMSI_	70	240	6	96	48	1
NMSTR	70	336	2
NMSI_	70	336	2	96	48	5
NMSTR	71	48	6
NMSI_	71	48	6	96	48	4
CNSV_	71	192	4	0	72	3
NMSTR	71	288	1
NMSCL	71	288	1	96	96	6
NMSTR	72	0	6
NMSXL	72	0	6	96	192	1
BRTAP	73	48	6
BRTAP	73	96	0
BRTAP	73	96	7
BRTAP	73	144	1
BRTAP	73	192	2
BRTAP	73	192	4
BRTAP	73	240	5
BRTAP	73	288	6
BRSTR	73	288	7
BRSF_	73	288	7	96	48	3
NMTTP	74	0	7	A	1	M1
EXTAP	74	96	1
EXTAP	74	96	5
NMTAP	74	192	0
NMSTR	74	240	0
NMSI_	74	240	0	96	96	5
NMTAP	74	336	5
NMTAP	75	48	3
CNSI_	75	48	5	0	48	1
CNSI_	75	96	1	0	48	3
NMSTR	75	144	7
NMSCL	75	144	7	96	72	3
NMTAP	75	240	1
NMTAP	75	288	1
NMSTR	76	0	0
NMSI_	76	0	0	96	48	4
NMTAP	76	0	4
NMTAP	76	96	6
NMTAP	76	192	7
NMSTR	76	240	7
NMSI_	76	240	7	96	96	2
NMTAP	76	336	2
CNSI_	77	48	2	0	48	6
NMTAP	77	48	4
CNSI_	77	96	6	0	48	4
NMSTR	77	144	0
NMSCR	77	144	0	96	96	4
NMTAP	77	240	5
NMTAP	77	288	5
NMTAP	78	0	2
NMSTR	78	0	6
NMSI_	78	0	6	96	48	1
NMSTR	78	96	3
NMSI_	78	96	3	96	48	0
NMSTR	78	192	4
NMSI_	78	192	4	96	48	7
NMSTR	78	288	2
NMSI_	78	288	2	96	48	5
NMSTR	79	0	6
NMSI_	79	0	6	96	96	2
NMTAP	79	96	3
CNSCR	79	192	2	0	48	5
CNSI_	79	240	5	0	48	0
NMSTR	80	0	1
NMSI_	80	0	1	96	48	4
NMTAP	80	64	0
NMTAP	80	128	7
NMSTR	80	192	6
NMSI_	80	192	6	96	48	2
NMTAP	80	256	7
NMTAP	80	320	0
NMSTR	81	0	1
NMSI_	81	0	1	96	48	5
NMTAP	81	64	0
NMTAP	81	128	7
NMSTR	81	192	6
NMSI_	81	192	6	96	48	3
NMTAP	81	256	7
NMTAP	81	320	0
NMSTR	82	0	2
NMSI_	82	0	2	96	48	7
NMTAP	82	64	3
NMTAP	82	128	4
NMSTR	82	192	5
NMSI_	82	192	5	96	48	0
NMTAP	82	256	4
NMTAP	82	320	3
BRTAP	83	0	2
BRTAP	83	0	7
NMTAP	83	96	5
NMTAP	83	120	3
NMTAP	83	144	5
NMTAP	83	168	3
NMTAP	83	192	5
NMTAP	83	288	3
NMTAP	83	288	4
NMTAP	84	0	2
NMTAP	84	24	3
NMTAP	84	48	2
NMTAP	84	72	3
NMTAP	84	96	2
NMTAP	84	192	1
NMTAP	84	216	0
NMTAP	84	240	1
NMTAP	84	264	0
NMTAP	84	288	1
NMTAP	85	0	5
NMTAP	85	24	4
NMTAP	85	48	5
NMTAP	85	72	4
NMTAP	85	96	5
NMTAP	85	192	6
NMTAP	85	216	7
NMTAP	85	240	6
NMTAP	85	264	7
NMTAP	85	288	6
NMHLD	86	0	1	48
NMHLD	86	0	7	48
NMHLD	86	96	0	48
NMHLD	86	96	6	48
NMTAP	86	192	2
NMTAP	86	216	4
NMTAP	86	240	2
NMTAP	86	264	4
NMTAP	86	288	2
NMHLD	87	0	0	48
NMHLD	87	0	6	48
NMHLD	87	96	1	48
NMHLD	87	96	7	48
NMTAP	87	192	5
NMTAP	87	216	3
NMTAP	87	240	5
NMTAP	87	264	3
NMTAP	87	288	5
EXTAP	88	0	2
NMTAP	88	24	4
NMTAP	88	48	2
NMTAP	88	72	4
EXTAP	88	96	2
NMTAP	88	120	4
NMTAP	88	144	2
NMTAP	88	168	4
EXTAP	88	192	1
NMTAP	88	216	5
NMTAP	88	240	1
NMTAP	88	264	5
EXTAP	88	288	1
NMTAP	88	312	5
NMTAP	88	336	1
NMTAP	88	360	5
EXTAP	89	0	0
NMTAP	89	24	6
NMTAP	89	48	0
NMTAP	89	72	6
EXTAP	89	96	0
NMTAP	89	120	6
NMTAP	89	144	0
NMTAP	89	168	6
EXTAP	89	192	7
EXTAP	89	240	7
EXTAP	89	288	7
NMTAP	90	0	2
NMTAP	90	0	6
EXSTR	90	96	1
NMSCR	90	96	1	96	48	3
EXSTR	90	96	7
NMSCL	90	96	7	96	48	5
EXSTR	90	192	1
NMSI_	90	192	1	96	48	5
EXSTR	90	192	7
NMSI_	90	192	7	96	48	3
EXTAP	90	288	1
EXTAP	90	288	7
BXTAP	91	0	2
BXTAP	91	0	6
EXTAP	91	288	0
EXTAP	91	288	1
EXSTR	91	336	0
NMSI_	91	336	0	96	72	4
EXSTR	91	336	1
NMSI_	91	336	1	96	96	4
CNSI_	92	120	4	0	72	7
CNSI_	92	144	4	0	48	7
EXTAP	92	288	6
EXTAP	92	288	7
EXSTR	92	336	6
NMSI_	92	336	6	96	96	3
EXSTR	92	336	7
NMSI_	92	336	7	96	72	3
CNSCL	93	120	3	0	72	0
CNSCL	93	144	3	0	48	0
EXTAP	93	288	0
EXTAP	93	288	1
EXSTR	93	336	0
NMSI_	93	336	0	96	72	3
EXSTR	93	336	1
NMSI_	93	336	1	96	48	4
CNSLL	94	96	4	0	96	7
CNSCR	94	120	3	0	72	6
EXTAP	94	288	6
EXTAP	94	288	7
EXTAP	94	336	6
EXTAP	94	336	7
NMTAP	95	48	4
NMTAP	95	48	5
NMTAP	95	96	4
NMTAP	95	96	5
NMTAP	95	192	3
NMHLD	95	192	6	480
NMSTR	95	288	0
NMSI_	95	288	0	96	48	5
NMSTR	96	0	0
NMSI_	96	0	0	96	48	3
NMSTR	96	96	0
NMSI_	96	96	0	96	48	4
NMTAP	96	192	0
NMSTR	96	288	3
BRSF_	96	288	3	96	48	7
NMSTR	97	96	4
BRSF_	97	96	4	96	48	0
NMTAP	97	288	2
NMTAP	97	288	6
NMSTR	97	336	2
NMSCL	97	336	2	96	48	7
NMTAP	97	336	6
NMTAP	98	48	5
NMTAP	98	96	5
EXTAP	98	192	3
EXTAP	98	192	4
EXSTR	98	240	3
BRSI_	98	240	3	96	72	7
EXSTR	98	240	4
BRSI_	98	240	4	96	72	0
NMTTP	98	336	3	E	0	M1
NMTTP	98	336	3	A	0	M1
NMTTP	98	336	4	A	0	M1
NMTTP	98	336	4	D	1	M1
NMTTP	98	336	5	E	0	M1
CNSCR	99	24	0	0	48	2
CNSCL	99	24	7	0	48	5
NMTAP	99	144	0
NMTAP	99	168	7
NMTAP	99	192	0
NMTAP	99	240	1
NMSTR	99	240	6
NMSCL	99	240	6	96	96	4
NMTAP	99	288	1
NMTAP	99	288	6
NMTAP	99	336	2
NMTAP	100	48	3
CNSUR	100	48	4	0	48	0
NMTAP	100	96	3
NMSTR	100	192	5
NMSI_	100	192	5	96	48	0
NMTAP	100	240	4
NMTAP	100	288	3
BRTAP	100	288	5
NMHLD	100	336	2	96
NMTAP	101	48	0
NMTAP	101	96	0
NMTAP	101	144	7
NMSTR	101	192	5
NMSI_	101	192	5	96	48	0
NMTAP	101	240	4
NMTAP	101	288	3
BRTAP	101	288	5
NMHLD	101	336	2	96
NMTAP	102	48	6
NMSTR	102	96	7
NMSI_	102	96	7	96	48	3
NMSTR	102	192	1
NMSI_	102	192	1	96	48	5
NMTAP	102	192	7
NMTAP	102	288	4
NMTAP	102	336	4
NMTAP	103	48	3
NMSTR	103	48	5
BRSCR	103	48	5	96	96	2
BRTAP	103	144	2
NMTAP	103	240	4
NMTAP	103	288	4
NMSTR	104	0	3
NMSI_	104	0	3	96	48	1
NMTAP	104	0	5
NMSTR	104	96	4
NMSI_	104	96	4	96	48	6
NMSTR	104	192	2
NMSI_	104	192	2	96	48	0
NMSTR	104	288	5
NMSI_	104	288	5	96	48	7
NMSTR	105	0	3
NMSI_	105	0	3	96	48	0
NMSTR	105	96	4
NMSI_	105	96	4	96	48	7
NMSTR	105	192	3
NMSCL	105	192	3	96	48	0
NMSTR	105	288	4
NMSCR	105	288	4	96	48	7
NMSTR	106	0	3
NMSI_	106	0	3	96	48	7
NMSTR	106	96	4
NMSI_	106	96	4	96	48	0
NMTAP	106	192	3
NMTAP	106	288	1
NMHLD	106	336	1	192
NMTAP	107	48	0
NMHLD	107	144	6	96
NMTAP	107	240	7
NMTAP	107	288	0
NMTAP	107	288	5
NMTAP	108	0	1
NMTAP	108	0	3
NMTAP	108	48	2
NMTAP	108	96	4
NMTAP	108	96	6
NMTAP	108	144	5
NMTAP	108	192	1
NMTAP	108	192	3
NMTAP	108	240	2
NMSTR	108	288	6
NMSI_	108	288	6	96	48	2
NMTAP	108	336	6
NMSTR	109	0	7
NMSI_	109	0	7	96	48	3
NMTAP	109	48	7
NMSTR	109	96	0
NMSI_	109	96	0	96	48	4
NMTAP	109	144	0
NMSTR	109	192	1
NMSI_	109	192	1	96	48	5
NMTAP	109	240	1
NMTAP	109	288	6
NMHLD	109	336	6	96
NMSTR	110	48	4
NMSI_	110	48	4	96	48	1
NMSI_	110	48	4	96	48	7
NMTAP	110	240	0
NMTAP	110	264	7
NMTAP	110	288	6
NMTAP	110	312	5
NMTAP	110	336	4
NMTAP	110	360	3
EXSTR	111	0	2
NMSXL	111	0	2	96	144	3
NMSLL	111	0	2	96	144	3
NMTAP	111	336	7
NMTAP	112	0	0
NMSTR	112	0	6
NMSI_	112	0	6	96	48	2
NMTAP	112	96	2
NMTAP	112	192	3
NMTAP	112	240	3
NMTAP	112	288	7
NMSTR	112	336	7
NMSI_	112	336	7	96	48	5
NMSTR	113	48	1
NMSI_	113	48	1	96	48	3
NMTAP	113	144	0
NMTAP	113	192	0
NMTAP	113	288	2
NMTAP	113	288	6
NMTAP	113	336	7
NMSTR	114	0	1
NMSI_	114	0	1	96	48	5
NMTAP	114	96	5
NMTAP	114	192	7
NMTAP	114	240	7
NMTAP	114	288	2
NMSTR	114	336	2
NMSI_	114	336	2	96	48	0
NMSTR	115	48	4
NMSI_	115	48	4	96	48	6
NMTAP	115	144	7
NMTAP	115	192	7
NMTAP	115	288	1
NMTAP	115	288	5
NMTAP	115	336	0
NMSTR	116	0	6
NMSI_	116	0	6	96	48	2
NMTAP	116	96	2
NMTAP	116	192	3
NMTAP	116	240	3
NMTAP	116	288	5
NMSTR	116	336	5
NMSI_	116	336	5	96	48	0
NMSTR	117	48	1
NMSI_	117	48	1	96	48	4
NMTAP	117	144	7
NMTAP	117	192	7
NMSTR	117	288	2
NMSUR	117	288	2	96	192	4
NMTAP	117	288	6
NMTAP	117	336	5
NMTAP	118	0	4
NMTAP	118	192	6
NMSTR	118	240	7
NMSUL	118	240	7	96	48	3
NMTAP	118	336	2
NMTAP	118	336	7
NMTAP	119	48	1
NMSTR	119	96	1
NMSI_	119	96	1	96	48	5
NMSTR	119	192	7
NMSI_	119	192	7	96	48	3
BRTAP	119	288	0
NMTAP	120	0	4
NMTAP	120	48	4
NMSTR	120	96	3
NMSI_	120	96	3	96	48	1
NMSTR	120	96	5
NMSI_	120	96	5	96	48	7
NMTAP	120	192	3
NMTAP	120	192	5
NMTAP	120	288	0
NMTAP	120	336	0
NMSTR	121	0	1
NMSI_	121	0	1	96	48	3
NMSTR	121	0	7
NMSI_	121	0	7	96	48	5
NMTAP	121	96	1
NMTAP	121	96	7
EXTAP	121	192	2
EXTAP	121	192	6
NMTAP	121	240	1
NMSTR	121	288	0
NMSI_	121	288	0	96	48	4
NMSTR	121	288	7
NMSI_	121	288	7	96	48	3
NMTAP	121	336	1
NMTAP	121	336	6
NMSTR	122	0	0
BRSCR	122	0	0	96	48	3
NMSTR	122	0	7
BRSCL	122	0	7	96	48	4
NMTTP	122	96	0	A	0	M1
NMTTP	122	96	0	D	1	M1
NMTTP	122	96	1	E	0	M1
NMTTP	122	96	7	E	0	M1
NMTTP	122	96	7	A	0	M1

T_REC_TAP	375
T_REC_BRK	29
T_REC_XTP	41
T_REC_BXX	5
T_REC_HLD	44
T_REC_XHO	2
T_REC_BHO	0
T_REC_BXH	0
T_REC_STR	193
T_REC_BST	1
T_REC_XST	19
T_REC_XBS	0
T_REC_TTP	16
T_REC_THO	0
T_REC_SLD	195
T_REC_BSL	22
T_REC_ALL	942
T_NUM_TAP	644
T_NUM_BRK	57
T_NUM_HLD	46
T_NUM_SLD	195
T_NUM_ALL	942
T_JUDGE_TAP	679
T_JUDGE_HLD	120
T_JUDGE_SLD	217
T_JUDGE_ALL	1016
TTM_EACHPAIRS	141
TTM_SCR_TAP	322000
TTM_SCR_BRK	148200
TTM_SCR_HLD	46000
TTM_SCR_SLD	292500
TTM_SCR_ALL	808700
TTM_SCR_S	778950
TTM_SCR_SS	803000
TTM_RAT_ACV	10070

