VERSION	0.00.00	1.04.00
FES_MODE	0
BPM_DEF	195.000	195.000	195.000	195.000
MET_DEF	4	4
RESOLUTION	384
CLK_DEF	384
COMPATIBLE_CODE	MA2

BPM	0	0	195.000
MET	0	0	4	4

NMSTR	2	0	2
NMSUR	2	0	2	96	288	4
NMTAP	2	0	4
NMTAP	3	192	4
NMTAP	3	192	5
NMTAP	4	0	3
NMSTR	4	0	5
NMSXL	4	0	5	96	288	2
NMTAP	5	192	2
NMTAP	5	192	3
NMSTR	6	0	1
NMSXR	6	0	1	96	288	4
NMTAP	6	0	4
NMTAP	7	192	4
NMTAP	7	192	5
NMSTR	8	0	3
NMSCL	8	0	3	96	288	4
NMTAP	8	0	6
NMTAP	9	192	0
NMTAP	9	192	7
NMTAP	9	288	0
NMTAP	9	288	7
BRTAP	10	0	0
BRTAP	10	0	1
NMTAP	10	96	3
NMTAP	10	192	6
NMTAP	10	192	7
NMTAP	10	288	4
NMHLD	11	0	2	96
NMTAP	11	0	3
NMHLD	11	96	1	96
NMHLD	11	192	0	96
NMTAP	11	288	7
NMTAP	12	0	6
NMTAP	12	0	7
NMTAP	12	96	4
NMTAP	12	192	0
NMTAP	12	192	1
NMTAP	12	288	3
NMTAP	13	0	4
NMHLD	13	0	5	96
NMHLD	13	96	6	96
NMHLD	13	192	7	96
NMTAP	13	288	0
NMTAP	14	0	0
NMTAP	14	0	2
NMTAP	14	96	1
NMTAP	14	192	5
NMTAP	14	192	7
NMTAP	14	288	6
NMHLD	15	0	0	96
NMTAP	15	0	7
NMHLD	15	96	1	96
NMHLD	15	192	2	96
NMTAP	15	288	3
NMTAP	16	0	4
NMTAP	16	0	5
NMTAP	16	48	4
NMTAP	16	48	5
NMTAP	16	144	6
NMTAP	16	144	7
NMTAP	16	192	6
NMTAP	16	192	7
NMTAP	16	288	2
NMTAP	16	288	3
NMTAP	16	336	2
NMTAP	16	336	3
NMTAP	17	48	0
NMTAP	17	48	1
NMSTR	17	96	0
NMSSL	17	96	0	96	120	4
NMTAP	17	96	1
EXTAP	18	0	1
EXHLD	18	48	1	720
NMTTP	18	192	1	E	0	M1
NMTTP	18	288	2	E	0	M1
NMTTP	19	0	3	E	0	M1
NMTTP	19	96	4	E	0	M1
NMTTP	19	192	5	E	0	M1
NMTAP	20	0	6
NMHLD	20	48	6	720
NMTTP	20	192	7	E	0	M1
NMTTP	20	288	6	E	0	M1
NMTTP	21	0	5	E	0	M1
NMTTP	21	96	4	E	0	M1
NMTTP	21	192	3	E	0	M1
NMTAP	22	0	0
NMHLD	22	48	0	528
NMTTP	22	192	0	E	0	M1
NMTTP	22	288	1	E	0	M1
NMTTP	23	0	2	E	0	M1
NMTTP	23	96	3	E	0	M1
NMTTP	23	192	4	E	0	M1
NMTAP	24	0	5
NMTAP	24	48	5
NMTAP	24	96	4
NMTAP	24	192	2
NMTAP	24	240	2
NMTAP	24	288	4
NMHLD	24	336	4	96
NMTAP	25	48	3
NMTAP	25	96	3
NMTAP	25	192	3
NMTAP	25	192	4
NMTAP	25	288	2
NMTAP	25	288	5
BRTAP	26	0	0
BRSTR	26	0	7
NMSCL	26	0	7	96	96	4
NMSTR	26	192	0
NMSCR	26	192	0	96	96	3
NMSTR	27	0	4
NMSI_	27	0	4	96	96	0
NMTAP	27	192	1
NMTAP	27	288	1
BRSTR	28	0	2
NMSI_	28	0	2	96	96	5
BRTAP	28	0	7
NMSTR	28	192	6
NMSI_	28	192	6	96	96	2
NMSTR	29	0	0
NMSI_	29	0	0	96	96	4
NMTAP	29	192	5
NMTAP	29	288	5
BRTAP	30	0	0
BRTAP	30	0	5
NMTAP	30	96	6
NMTAP	30	192	0
NMTAP	30	288	1
NMTAP	30	288	7
NMTAP	31	0	2
NMTAP	31	96	1
NMTAP	31	192	7
NMTAP	31	288	0
NMTAP	31	288	6
NMTAP	32	0	5
NMTAP	32	0	7
NMTAP	32	48	5
NMTAP	32	48	7
NMTAP	32	192	0
NMTAP	32	192	2
NMTAP	32	240	0
NMTAP	32	240	2
NMTAP	32	336	0
NMTAP	32	336	7
NMTAP	33	48	3
NMTAP	33	48	4
NMTAP	33	96	3
NMTAP	33	96	4
BRTAP	33	192	1
BRTAP	33	192	6
NMHLD	34	0	2	192
NMTAP	34	96	0
NMHLD	34	192	7	192
NMTAP	34	288	0
NMTAP	35	0	1
NMTAP	35	48	1
NMTAP	35	96	0
NMTAP	35	192	7
NMTAP	35	240	7
NMTAP	35	288	0
NMHLD	36	0	5	192
NMTAP	36	96	7
NMHLD	36	192	0	192
NMTAP	36	288	7
NMTAP	37	0	6
NMTAP	37	48	6
NMTAP	37	96	7
NMTAP	37	192	0
NMTAP	37	240	0
NMTAP	37	288	7
NMHLD	38	0	1	384
NMTAP	38	96	3
NMTAP	38	192	2
NMTAP	38	288	0
NMHLD	39	0	6	384
NMTAP	39	96	4
NMTAP	39	192	5
NMTAP	39	288	7
NMHLD	40	0	1	288
NMTAP	40	96	0
NMTAP	40	192	2
NMSTR	40	288	3
NMSUR	40	288	3	96	192	4
BXTAP	41	288	4
NMHLD	42	0	5	192
NMTAP	42	96	7
NMHLD	42	192	0	192
NMTAP	42	288	7
NMTAP	43	0	6
NMTAP	43	48	6
NMTAP	43	96	7
NMTAP	43	192	0
NMTAP	43	240	0
NMTAP	43	288	7
NMHLD	44	0	2	192
NMTAP	44	96	0
NMHLD	44	192	7	192
NMTAP	44	288	0
NMTAP	45	0	1
NMTAP	45	48	1
NMTAP	45	96	0
NMTAP	45	192	7
NMTAP	45	240	7
NMTAP	45	288	0
NMHLD	46	0	5	96
NMHLD	46	96	6	96
NMHLD	46	192	7	96
NMHLD	46	288	0	96
NMHLD	47	0	1	96
NMHLD	47	96	2	96
NMTAP	47	192	3
NMTAP	47	288	3
NMTAP	47	288	4
NMTTP	48	0	5	B	0	M1
NMTTP	48	0	6	B	0	M1
NMTTP	48	0	6	E	0	M1
NMTTP	48	96	0	B	0	M1
NMTTP	48	96	0	E	0	M1
NMTTP	48	96	7	B	0	M1
NMTTP	48	192	1	B	0	M1
NMTTP	48	192	2	B	0	M1
NMTTP	48	192	2	E	0	M1
NMTTP	48	288	3	B	0	M1
NMTTP	48	288	4	B	0	M1
NMTTP	48	288	4	E	0	M1
NMTTP	49	0	0	C	1	M1
EXTAP	49	192	0
EXTAP	49	192	7
EXTAP	49	240	0
EXTAP	49	240	7
NMHLD	49	336	1	96
NMTAP	50	48	0
NMTAP	50	96	0
NMTAP	50	192	2
NMTAP	50	192	7
NMTAP	50	240	2
NMTAP	50	240	7
NMTAP	50	336	4
NMHLD	50	336	6	96
NMTAP	51	48	7
NMTAP	51	96	7
NMTAP	51	192	0
NMTAP	51	192	5
NMTAP	51	240	0
NMTAP	51	240	5
NMHLD	51	336	2	96
NMTAP	52	48	0
NMHLD	52	96	0	96
NMHLD	52	192	7	96
NMTAP	52	288	5
NMTAP	52	336	5
NMTAP	53	48	6
NMTAP	53	48	7
NMTAP	53	144	4
NMTAP	53	144	5
NMTAP	53	240	3
NMTAP	53	240	6
NMTAP	53	288	3
NMTAP	53	288	6
NMSTR	54	0	0
NMSI_	54	0	0	96	48	4
NMSTR	54	0	1
NMSI_	54	0	1	96	48	3
NMTAP	54	192	5
NMTAP	54	288	4
NMTAP	54	288	5
NMTAP	54	336	4
NMTAP	54	336	5
NMTAP	55	48	6
NMTAP	55	48	7
NMSTR	55	96	6
NMSI_	55	96	6	96	48	4
NMSTR	55	96	7
NMSI_	55	96	7	96	48	3
NMTAP	55	288	2
NMHLD	55	336	2	96
NMTAP	56	48	4
NMTAP	56	96	4
NMTAP	56	192	2
NMTAP	56	192	5
NMTAP	56	240	2
NMTAP	56	240	5
NMTTP	56	336	0	E	1	M1
NMTTP	56	336	1	E	0	M1
NMTTP	56	336	7	E	0	M1
EXTAP	57	192	3
EXTAP	57	192	5
EXTAP	57	240	3
EXTAP	57	240	5
NMTAP	57	336	4
NMHLD	57	336	6	96
NMTAP	58	48	7
NMTAP	58	96	7
NMTAP	58	192	0
NMTAP	58	192	5
BRTAP	58	288	1
BRTAP	58	288	3
NMHLD	58	336	1	96
NMTAP	58	336	3
NMTAP	59	48	0
NMTAP	59	96	0
NMTAP	59	192	2
NMTAP	59	192	7
BRTAP	59	288	6
NMHLD	59	336	6	96
NMTAP	60	48	4
NMHLD	60	96	4	96
NMHLD	60	192	3	96
NMTAP	60	288	1
NMTAP	60	336	1
NMTAP	61	48	2
NMTAP	61	48	3
BRTAP	61	144	0
BRTAP	61	144	7
NMTAP	61	240	2
NMTAP	61	240	6
NMTAP	61	288	2
NMTAP	61	288	6
NMSTR	62	0	3
NMSI_	62	0	3	96	48	7
NMSTR	62	192	4
NMSI_	62	192	4	96	48	0
NMSTR	63	0	2
NMSI_	63	0	2	96	48	7
NMSTR	63	192	5
NMSI_	63	192	5	96	48	0
NMTAP	64	0	1
NMTAP	64	96	2
NMTAP	64	96	3
NMTAP	64	192	4
NMTAP	64	192	5
NMTAP	64	288	6
NMTAP	64	288	7
BRTAP	65	0	0
BRTAP	65	0	4
NMSTR	66	0	1
NMSI_	66	0	1	96	192	5
CNSI_	66	288	5	0	96	7
CNSI_	67	0	7	0	192	3
NMSTR	68	0	6
NMSI_	68	0	6	96	192	2
CNSI_	68	288	2	0	96	0
CNSI_	69	0	0	0	192	4
NMSTR	70	0	1
NMSI_	70	0	1	96	192	5
NMTAP	70	288	7
NMSTR	71	0	7
NMSI_	71	0	7	96	192	3
NMTAP	71	288	2
NMSTR	72	0	2
NMSXL	72	0	2	96	240	3
NMTAP	73	48	3
NMTAP	73	96	3
NMTAP	73	144	5
NMTAP	73	192	5
NMTAP	73	240	1
NMTAP	73	288	1
NMTAP	73	336	7
BRTAP	74	0	0
BRTAP	74	0	7
NMTAP	74	96	5
NMTAP	74	192	6
NMTAP	74	192	7
NMTAP	74	288	4
NMTAP	75	0	0
NMTAP	75	0	6
NMTAP	75	96	2
NMTAP	75	192	0
NMTAP	75	192	1
NMTAP	75	288	3
NMTAP	76	0	3
NMTAP	76	0	7
NMTAP	76	96	5
NMTAP	76	192	0
NMTAP	76	192	4
NMTAP	76	288	2
NMTAP	77	0	3
NMTAP	77	0	6
NMTAP	77	96	4
NMTAP	77	96	5
NMTAP	77	192	2
NMTAP	77	192	3
NMTAP	77	288	1
NMTAP	77	288	4
NMTAP	78	0	2
NMTAP	78	0	4
NMTAP	78	96	0
NMTAP	78	192	2
NMTAP	78	192	3
NMTAP	78	288	0
NMTAP	79	0	3
NMTAP	79	0	5
NMTAP	79	96	7
NMTAP	79	192	4
NMTAP	79	192	5
NMTAP	79	288	7
NMHLD	80	0	2	128
NMTAP	80	0	7
NMTAP	80	128	1
NMHLD	80	192	1	128
NMTAP	80	320	0
NMHLD	81	0	0	128
NMTAP	81	128	7
NMHLD	81	192	7	128
NMTAP	81	320	6
NMHLD	82	0	6	128
NMTAP	82	128	5
NMHLD	82	192	5	128
NMTAP	82	320	4
BRSTR	83	0	4
BRSF_	83	0	4	96	192	0
NMHLD	84	0	2	192
NMTAP	84	0	6
NMTAP	84	96	0
NMHLD	84	192	7	192
NMTAP	84	288	0
NMTAP	85	0	2
NMTAP	85	48	2
NMTAP	85	96	0
NMTAP	85	144	0
NMTAP	85	192	1
NMTAP	85	240	1
NMTAP	85	288	7
NMTAP	86	0	0
NMHLD	86	0	5	192
NMTAP	86	96	7
NMHLD	86	192	0	192
NMTAP	86	288	7
NMTAP	87	0	5
NMTAP	87	48	5
NMTAP	87	96	7
NMTAP	87	144	7
NMTAP	87	192	6
NMTAP	87	240	6
NMTAP	87	288	0
NMHLD	88	0	1	96
NMHLD	88	96	2	96
NMHLD	88	192	3	96
NMHLD	88	288	4	96
NMHLD	89	0	5	96
NMHLD	89	96	6	96
NMHLD	89	192	7	96
NMHLD	89	288	0	96
NMTHO	90	0	0	384	C	0	M1
BXHLD	91	336	0	336
BXHLD	91	336	7	336
BXHLD	92	336	2	336
BXHLD	92	336	6	336
BXHLD	93	336	1	336
BXHLD	93	336	4	336
NMTAP	94	336	2
NMTAP	94	336	3
NMTAP	95	48	3
NMTAP	95	48	4
NMTAP	95	144	4
NMTAP	95	144	5
NMTAP	95	240	3
NMTAP	95	240	6
NMTAP	95	288	3
NMTAP	95	288	6
NMHLD	96	0	5	384
NMTTP	96	96	5	D	0	M1
NMTTP	96	192	4	D	0	M1
NMTTP	96	288	3	D	0	M1
NMHLD	97	0	2	384
NMTTP	97	96	3	E	0	M1
NMTTP	97	192	4	E	0	M1
NMTTP	97	288	5	E	0	M1
NMHLD	98	0	6	384
NMTTP	98	96	6	E	0	M1
NMTTP	98	192	4	E	0	M1
NMTTP	98	288	2	E	0	M1
NMTTP	99	0	0	C	1	M1
NMTAP	99	192	0
NMTAP	99	192	7
NMTAP	99	240	0
NMTAP	99	240	7
BRTAP	99	336	2
BRTAP	99	336	6
NMTAP	100	48	4
NMTAP	100	48	5
NMTAP	100	96	4
NMTAP	100	96	5
NMTAP	100	192	6
NMTAP	100	192	7
BRTAP	100	288	0
BRTAP	100	288	5
NMTAP	100	336	0
NMTAP	100	336	5
NMTAP	101	48	2
NMTAP	101	48	3
NMTAP	101	96	2
NMTAP	101	96	3
NMTAP	101	192	0
NMTAP	101	192	1
BRTAP	101	288	2
BRTAP	101	288	7
NMTAP	101	336	2
NMHLD	101	336	7	96
NMTAP	102	48	5
NMHLD	102	96	5	96
NMHLD	102	192	3	96
NMTAP	102	288	1
NMHLD	102	336	1	96
NMTAP	103	48	7
NMTTP	103	144	0	C	1	M1
NMTTP	103	144	3	B	0	M1
NMTTP	103	144	4	B	0	M1
NMTTP	103	144	5	B	0	M1
NMTTP	103	144	6	B	0	M1
NMTAP	104	0	0
NMTAP	104	0	7
NMTAP	104	96	1
NMHLD	104	144	1	192
NMTAP	104	240	0
NMHLD	104	336	6	192
NMTAP	105	48	7
NMHLD	105	144	2	192
NMTAP	105	240	0
NMHLD	105	336	5	192
NMTAP	106	48	7
NMHLD	106	144	3	96
NMTAP	106	240	0
NMTAP	106	336	2
NMTAP	106	336	4
NMTAP	107	48	1
NMTAP	107	96	1
NMTAP	107	144	0
BRTAP	107	240	1
BRTAP	107	240	7
NMTAP	108	0	6
NMTAP	108	0	7
NMTAP	108	96	6
NMTAP	108	96	7
NMTAP	108	192	2
NMTAP	108	192	3
NMTAP	108	288	2
NMTAP	108	288	3
NMTAP	109	0	0
NMTAP	109	0	1
NMTAP	109	96	0
NMTAP	109	96	1
NMTAP	109	192	4
NMTAP	109	192	5
NMTAP	109	288	4
NMTAP	109	288	5
NMTAP	110	0	6
NMTAP	110	0	7
NMTAP	110	96	2
NMTAP	110	96	3
NMTAP	110	192	0
NMTAP	110	192	1
NMTAP	110	288	4
NMTAP	110	288	5
BRHLD	111	0	3	288
BRHLD	111	0	7	288
NMTAP	112	0	0
NMTAP	112	0	1
NMTAP	112	96	4
NMTAP	112	192	6
NMTAP	112	192	7
NMTAP	112	288	3
NMHLD	113	0	2	96
NMHLD	113	96	0	96
NMHLD	113	192	7	96
NMTAP	113	288	5
NMTAP	114	0	6
NMTAP	114	0	7
NMTAP	114	96	3
NMTAP	114	192	0
NMTAP	114	192	1
NMTAP	114	288	4
NMHLD	115	0	5	96
NMHLD	115	96	7	96
NMHLD	115	192	0	96
NMTAP	115	288	2
NMTAP	116	0	2
NMTAP	116	0	3
NMTAP	116	96	7
NMTAP	116	192	4
NMTAP	116	192	5
NMTAP	116	288	0
NMHLD	117	0	1	96
NMHLD	117	96	3	96
NMHLD	117	192	4	96
NMTAP	117	288	6
NMTAP	118	0	0
NMTAP	118	0	7
NMTAP	118	96	4
NMTAP	118	96	6
NMTAP	118	192	3
NMTAP	118	192	4
NMTAP	118	288	1
NMTAP	118	288	3
NMTAP	118	336	1
NMTAP	118	336	3
NMTAP	119	48	4
NMTAP	119	48	6
NMTAP	119	96	4
NMTAP	119	96	6
NMTAP	119	192	0
NMTAP	119	192	7
NMTAP	119	288	1
NMTAP	119	288	6
NMTAP	120	0	1
NMTAP	120	48	1
NMTAP	120	96	0
NMTAP	120	192	2
NMTAP	120	192	7
NMTAP	120	288	6
NMTAP	120	336	6
NMTAP	121	0	7
NMTAP	121	96	0
NMTAP	121	96	5
NMTAP	121	192	0
NMTAP	121	192	7
NMTAP	121	288	1
NMTAP	121	288	6
NMTAP	121	336	1
NMTAP	121	336	6
NMTTP	122	96	0	C	1	M1
NMTTP	122	96	2	B	0	M1
NMTTP	122	96	2	E	0	M1
NMTTP	122	96	5	B	0	M1
NMTTP	122	96	6	E	0	M1

T_REC_TAP	395
T_REC_BRK	25
T_REC_XTP	9
T_REC_BXX	1
T_REC_HLD	79
T_REC_XHO	1
T_REC_BHO	2
T_REC_BXH	6
T_REC_STR	23
T_REC_BST	3
T_REC_XST	0
T_REC_XBS	0
T_REC_TTP	51
T_REC_THO	1
T_REC_SLD	25
T_REC_BSL	1
T_REC_ALL	622
T_NUM_TAP	478
T_NUM_BRK	38
T_NUM_HLD	81
T_NUM_SLD	25
T_NUM_ALL	622
T_JUDGE_TAP	507
T_JUDGE_HLD	329
T_JUDGE_SLD	26
T_JUDGE_ALL	862
TTM_EACHPAIRS	149
TTM_SCR_TAP	239000
TTM_SCR_BRK	98800
TTM_SCR_HLD	81000
TTM_SCR_SLD	37500
TTM_SCR_ALL	456300
TTM_SCR_S	438950
TTM_SCR_SS	452500
TTM_RAT_ACV	10083

