VERSION	0.00.00	1.04.00
FES_MODE	0
BPM_DEF	195.000	195.000	195.000	195.000
MET_DEF	4	4
RESOLUTION	384
CLK_DEF	384
COMPATIBLE_CODE	MA2

BPM	0	0	195.000
MET	0	0	4	4

NMTAP	2	0	6
NMTAP	2	96	6
NMTAP	2	192	6
NMTAP	3	0	5
NMTAP	3	96	5
NMTAP	3	192	5
NMTAP	4	0	4
NMTAP	4	96	4
NMTAP	4	192	4
NMTAP	5	0	2
NMTAP	5	0	3
NMTAP	5	192	2
NMTAP	5	192	3
NMTAP	6	0	1
NMTAP	6	96	1
NMTAP	6	192	1
NMTAP	7	0	2
NMTAP	7	96	2
NMTAP	7	192	2
NMTAP	8	0	3
NMTAP	8	96	3
NMTAP	8	192	3
NMTAP	9	0	4
NMTAP	9	0	5
NMTAP	9	192	4
NMTAP	9	192	5
NMTAP	10	0	6
NMTAP	10	96	6
NMTAP	10	192	6
NMTAP	10	192	7
NMTAP	11	0	5
NMTAP	11	96	5
NMTAP	11	192	4
NMTAP	11	192	5
NMTAP	12	0	3
NMTAP	12	96	3
NMTAP	12	192	2
NMTAP	12	192	3
NMTAP	13	0	0
NMTAP	13	0	1
NMTAP	13	96	0
NMTAP	13	96	1
NMTAP	13	192	0
NMTAP	13	192	1
NMTAP	14	0	1
NMTAP	14	96	1
NMTAP	14	192	0
NMTAP	14	192	1
NMTAP	15	0	2
NMTAP	15	96	2
NMTAP	15	192	2
NMTAP	15	192	3
NMTAP	16	0	4
NMTAP	16	96	4
NMTAP	16	192	4
NMTAP	16	192	5
NMTAP	17	0	6
NMTAP	17	0	7
NMTAP	17	96	6
NMTAP	17	96	7
NMTAP	17	192	6
NMTAP	17	192	7
NMSTR	18	0	6
NMSI_	18	0	6	96	192	3
NMSTR	19	0	2
NMSI_	19	0	2	96	192	5
NMSTR	20	0	6
NMSI_	20	0	6	96	192	3
NMTAP	21	0	2
NMTAP	21	192	2
NMTAP	21	192	3
NMSTR	22	0	1
NMSI_	22	0	1	96	192	4
NMSTR	23	0	5
NMSI_	23	0	5	96	192	0
NMSTR	24	0	1
NMSI_	24	0	1	96	192	5
NMTAP	25	0	6
NMTAP	25	192	6
NMTAP	25	192	7
NMHLD	26	0	6	192
NMHLD	26	192	7	192
NMHLD	27	0	0	192
NMTAP	27	192	1
NMHLD	28	0	1	192
NMHLD	28	192	0	192
NMHLD	29	0	7	192
NMTAP	29	192	6
NMHLD	30	0	5	192
NMHLD	30	192	4	192
NMHLD	31	0	3	192
NMTAP	31	192	2
NMHLD	32	0	2	192
NMHLD	32	192	3	192
NMHLD	33	0	4	192
NMTAP	33	192	5
NMTAP	34	0	6
NMTAP	34	96	6
NMTAP	34	192	6
NMTAP	35	0	5
NMTAP	35	96	5
NMTAP	35	192	5
NMTAP	36	0	4
NMTAP	36	96	4
NMTAP	36	192	4
NMTAP	37	0	2
NMTAP	37	0	3
NMTAP	37	192	2
NMTAP	37	192	3
NMTAP	38	0	1
NMTAP	38	96	1
NMTAP	38	192	1
NMTAP	39	0	2
NMTAP	39	96	2
NMTAP	39	192	2
NMTAP	40	0	3
NMTAP	40	96	3
NMTAP	40	192	3
NMTAP	41	0	4
NMTAP	41	0	5
NMTAP	41	192	4
NMTAP	41	192	5
NMTTP	42	0	6	B	0	L1
NMTTP	42	96	5	B	0	L1
NMTTP	42	192	4	B	0	L1
NMTTP	43	0	1	B	0	L1
NMTTP	43	96	2	B	0	L1
NMTTP	43	192	3	B	0	L1
NMTTP	44	0	6	B	0	L1
NMTTP	44	96	5	B	0	L1
NMTTP	44	192	4	B	0	L1
NMTTP	44	288	3	B	0	L1
NMTTP	45	0	2	B	0	L1
NMTTP	45	96	1	B	0	L1
NMTTP	45	192	0	C	0	L1
NMTTP	46	0	0	B	0	L1
NMTTP	46	96	1	B	0	L1
NMTTP	46	192	2	B	0	L1
NMTTP	46	192	3	B	0	L1
NMTTP	47	0	7	B	0	L1
NMTTP	47	96	6	B	0	L1
NMTTP	47	192	4	B	0	L1
NMTTP	47	192	5	B	0	L1
NMTTP	48	0	2	B	0	L1
NMTTP	48	96	3	B	0	L1
NMTTP	48	192	4	B	0	L1
NMTTP	48	288	5	B	0	L1
NMTTP	49	0	0	C	0	L1
EXTAP	50	0	6
NMTAP	50	96	6
NMTAP	50	192	7
NMTAP	50	288	7
NMTAP	51	0	0
NMTAP	51	96	0
NMTAP	51	192	0
NMTAP	51	192	1
NMTAP	52	0	2
NMTAP	52	96	2
NMTAP	52	192	1
NMTAP	52	288	1
NMTAP	53	0	0
NMTAP	53	96	0
NMTAP	53	192	6
NMTAP	53	192	7
NMTAP	54	0	6
NMTAP	54	96	6
NMTAP	54	192	5
NMTAP	54	288	5
NMTAP	55	0	4
NMTAP	55	96	4
NMTAP	55	192	2
NMTAP	55	192	3
NMTAP	56	0	1
NMTAP	56	96	1
NMTAP	56	192	2
NMTAP	56	288	2
NMTAP	57	0	3
NMTAP	57	96	3
NMTAP	57	192	4
NMTAP	57	192	5
EXTAP	58	0	5
NMTAP	58	96	5
NMTAP	58	192	6
NMTAP	58	192	7
NMTAP	58	288	6
NMTAP	58	288	7
NMTAP	59	0	0
NMTAP	59	96	0
NMTAP	59	192	0
NMTAP	59	192	1
NMTAP	60	0	2
NMTAP	60	96	2
NMTAP	60	192	0
NMTAP	60	192	1
NMTAP	60	288	0
NMTAP	60	288	1
NMTAP	61	0	7
NMTAP	61	96	7
NMTAP	61	192	6
NMTAP	61	192	7
NMTAP	62	0	6
NMTAP	62	96	6
NMTAP	62	192	4
NMTAP	62	192	5
NMTAP	62	288	4
NMTAP	62	288	5
NMTAP	63	0	3
NMTAP	63	96	3
NMTAP	63	192	2
NMTAP	63	192	3
NMTAP	64	0	1
NMTAP	64	96	1
NMTAP	64	192	2
NMTAP	64	192	3
NMTAP	64	288	2
NMTAP	64	288	3
NMTAP	65	0	4
NMTAP	65	96	4
BXTAP	65	192	4
BXTAP	65	192	5
NMSTR	66	0	6
NMSUL	66	0	6	96	480	3
NMSTR	68	0	1
NMSUR	68	0	1	96	480	4
NMSTR	70	0	5
NMSUL	70	0	5	96	480	2
NMSTR	72	0	1
NMSXR	72	0	1	96	480	4
NMTAP	74	0	5
NMTAP	74	96	5
NMTAP	74	192	5
NMTAP	74	288	5
NMTAP	75	0	6
NMTAP	75	96	6
NMTAP	75	192	6
NMTAP	75	288	6
NMTAP	76	0	7
NMTAP	76	96	7
NMTAP	76	192	7
NMTAP	76	288	7
NMTAP	77	0	0
NMTAP	77	0	1
NMTAP	77	192	0
NMTAP	77	192	1
NMTAP	78	0	2
NMTAP	78	96	2
NMTAP	78	192	2
NMTAP	78	288	2
NMTAP	79	0	1
NMTAP	79	96	1
NMTAP	79	192	1
NMTAP	79	288	1
NMTAP	80	0	0
NMTAP	80	96	0
NMTAP	80	192	0
NMTAP	80	288	0
NMTAP	81	0	6
NMTAP	81	0	7
NMTAP	81	192	6
NMTAP	81	192	7
NMHLD	82	0	0	384
NMHLD	82	0	7	384
NMHLD	84	0	1	192
NMTAP	84	192	0
NMTAP	85	0	1
NMTAP	85	96	1
NMTAP	85	192	0
NMTAP	85	192	1
NMHLD	86	0	2	192
NMTAP	86	192	3
NMTAP	87	0	2
NMTAP	87	96	2
NMTAP	87	192	2
NMTAP	87	192	3
NMHLD	88	0	5	192
NMTAP	88	192	4
NMTAP	89	0	5
NMTAP	89	96	5
NMTAP	89	192	4
NMTAP	89	192	5
NMHLD	90	0	6	192
NMTAP	90	192	7
EXTAP	91	0	6
EXTAP	91	0	7
NMSTR	92	0	6
NMSI_	92	0	6	96	192	3
NMSTR	93	0	2
NMSI_	93	0	2	96	192	7
NMSTR	94	0	6
NMSI_	94	0	6	96	192	2
NMSTR	95	0	0
NMSI_	95	0	0	96	192	4
NMTAP	96	0	6
NMTAP	96	96	6
NMTAP	96	192	6
NMTAP	96	192	7
NMTAP	97	0	5
NMTAP	97	96	5
NMTAP	97	192	4
NMTAP	97	192	5
NMTAP	98	0	2
NMTAP	98	96	2
NMTAP	98	192	2
NMTAP	98	192	3
NMTAP	99	0	1
NMTAP	99	96	1
NMTAP	99	192	0
NMTAP	99	192	1
EXTAP	100	0	1
NMTAP	100	96	1
NMTAP	100	192	1
NMTAP	100	288	0
NMTAP	100	288	1
NMTAP	101	0	2
NMTAP	101	96	2
NMTAP	101	192	2
NMTAP	101	288	2
NMTAP	101	288	3
NMTAP	102	0	4
NMTAP	102	96	4
NMTAP	102	192	4
NMTAP	102	288	4
NMTAP	102	288	5
NMTAP	103	0	6
NMTAP	103	96	6
NMTAP	103	192	6
NMTAP	103	192	7
NMTAP	104	0	6
NMTAP	104	96	6
NMTAP	104	192	6
NMTAP	104	288	6
NMTAP	104	288	7
NMTAP	105	0	5
NMTAP	105	96	5
NMTAP	105	192	5
NMTAP	105	288	4
NMTAP	105	288	5
NMTAP	106	0	3
NMTAP	106	96	3
NMTAP	106	192	3
NMTAP	106	288	2
NMTAP	106	288	3
NMTAP	107	0	1
NMTAP	107	96	1
NMTAP	107	192	0
NMTAP	107	192	1
NMTAP	108	0	1
NMTAP	108	96	1
NMTAP	108	192	2
NMTAP	108	288	2
NMTAP	109	0	3
NMTAP	109	96	3
NMTAP	109	192	4
NMTAP	109	288	4
NMTAP	110	0	5
NMTAP	110	96	5
NMTAP	110	192	6
NMTAP	110	288	6
NMTAP	111	0	0
NMTAP	111	0	7
NMTAP	112	0	7
NMTAP	112	96	6
NMTAP	112	192	5
NMTAP	112	288	4
NMTAP	113	0	3
NMTAP	113	96	2
BXTAP	113	192	0
BXTAP	113	192	1
NMTAP	114	0	0
NMTAP	114	96	1
NMTAP	114	192	2
NMTAP	114	288	3
NMTAP	115	0	4
NMTAP	115	96	5
BRTAP	115	192	6
BRTAP	115	192	7
NMTAP	116	0	7
NMTAP	116	96	6
NMTAP	116	192	5
NMTAP	116	288	4
NMTAP	117	0	3
NMTAP	117	96	2
NMTAP	117	192	1
NMTAP	117	288	0
NMTAP	118	0	7
NMTAP	118	96	6
NMTAP	118	192	5
NMTAP	118	288	4
NMTAP	119	0	3
NMTAP	119	0	4
NMTAP	119	96	3
NMTAP	119	96	4
NMTAP	119	192	3
NMTAP	119	192	4
NMTAP	120	0	2
NMTAP	120	96	2
NMTAP	120	192	2
NMTAP	120	192	3
NMTAP	121	0	4
NMTAP	121	96	4
NMHLD	121	192	3	288
NMHLD	121	192	4	288

T_REC_TAP	317
T_REC_BRK	2
T_REC_XTP	5
T_REC_BXX	4
T_REC_HLD	20
T_REC_XHO	0
T_REC_BHO	0
T_REC_BXH	0
T_REC_STR	14
T_REC_BST	0
T_REC_XST	0
T_REC_XBS	0
T_REC_TTP	26
T_REC_THO	0
T_REC_SLD	14
T_REC_BSL	0
T_REC_ALL	402
T_NUM_TAP	362
T_NUM_BRK	6
T_NUM_HLD	20
T_NUM_SLD	14
T_NUM_ALL	402
T_JUDGE_TAP	368
T_JUDGE_HLD	92
T_JUDGE_SLD	14
T_JUDGE_ALL	474
TTM_EACHPAIRS	67
TTM_SCR_TAP	181000
TTM_SCR_BRK	15600
TTM_SCR_HLD	20000
TTM_SCR_SLD	21000
TTM_SCR_ALL	237600
TTM_SCR_S	229900
TTM_SCR_SS	237000
TTM_RAT_ACV	10025

