VERSION	0.00.00	1.04.00
FES_MODE	0
BPM_DEF	108.000	148.000	284.000	 79.000
MET_DEF	4	4
RESOLUTION	384
CLK_DEF	384
COMPATIBLE_CODE	MA2

BPM	0	0	108.000
BPM	2	0	103.000
BPM	2	48	135.000
BPM	2	96	150.000
BPM	2	144	155.000
BPM	2	240	153.000
BPM	2	288	154.000
BPM	2	336	179.000
BPM	3	0	170.000
BPM	3	48	175.000
BPM	3	96	170.000
BPM	3	144	155.000
BPM	3	192	175.000
BPM	3	240	190.000
BPM	3	288	210.000
BPM	4	0	194.000
BPM	4	48	206.000
BPM	4	96	220.000
BPM	4	192	231.000
BPM	4	240	235.000
BPM	4	288	251.000
BPM	5	0	254.000
BPM	5	96	255.000
BPM	5	192	284.000
BPM	6	0	277.000
BPM	6	96	261.000
BPM	6	192	242.000
BPM	6	288	188.000
BPM	7	0	149.000
BPM	7	48	179.000
BPM	7	96	168.000
BPM	7	192	119.000
BPM	7	288	137.000
BPM	8	0	129.000
BPM	8	96	119.000
BPM	8	192	111.000
BPM	8	288	153.000
BPM	8	336	115.000
BPM	9	0	100.000
BPM	9	96	116.000
BPM	10	96	148.000
BPM	42	96	143.000
BPM	42	192	140.000
BPM	42	288	131.500
BPM	43	0	121.000
BPM	43	96	112.000
BPM	43	192	 98.000
BPM	43	288	145.000
BPM	44	192	130.000
BPM	44	288	 97.000
BPM	45	288	170.000
BPM	82	0	165.000
BPM	82	96	145.000
BPM	82	192	105.000
BPM	82	288	 79.000
BPM	83	0	 81.000
MET	0	0	4	4
MET	2	0	4	3
MET	10	96	4	4
MET	43	96	4	2
MET	43	288	4	4

BRTAP	1	0	3
BXTAP	1	0	5
NMTAP	2	0	5
NMTAP	2	48	4
NMTAP	2	96	3
NMTAP	2	144	4
NMTAP	2	192	3
NMTAP	2	240	2
NMTAP	2	288	5
NMTAP	2	336	4
NMTAP	3	0	3
NMTAP	3	48	4
NMTAP	3	96	3
NMTAP	3	144	2
NMTAP	3	192	5
NMTAP	3	240	3
NMTAP	3	288	4
NMTAP	3	336	2
NMTAP	4	0	3
NMTAP	4	48	2
NMTAP	4	96	5
NMTAP	4	144	4
NMTAP	4	192	6
NMTAP	4	240	2
NMTAP	4	288	4
NMTAP	4	336	3
NMTAP	5	0	5
NMTAP	5	48	3
NMTAP	5	96	4
NMTAP	5	144	1
NMTAP	5	192	3
NMTAP	5	240	2
NMTAP	5	288	5
NMTAP	5	336	3
NMTAP	6	0	4
NMTAP	6	48	2
NMTAP	6	96	4
NMTAP	6	144	3
NMTAP	6	192	6
NMTAP	6	240	5
NMTAP	6	288	4
NMTAP	6	336	1
NMTAP	7	0	2
NMTAP	7	48	3
NMTAP	7	96	4
NMTAP	7	144	5
NMTAP	7	192	4
NMTAP	7	240	3
NMTAP	7	288	2
NMSTR	7	288	6
NMSXR	7	288	6	96	384	7
NMHLD	8	0	0	480
NMTTP	9	80	7	E	0	M1
NMTTP	9	88	0	C	0	M1
NMTTP	9	96	3	E	0	M1
NMTAP	10	96	0
BRSTR	10	96	5
NMSI_	10	96	5	96	48	3
NMSTR	10	192	1
NMSI_	10	192	1	96	48	5
NMTAP	10	288	0
NMTAP	11	0	7
NMTAP	11	48	0
NMHLD	11	48	6	96
NMTAP	11	144	4
NMTAP	11	192	4
NMTAP	11	240	3
NMTAP	11	288	1
NMTAP	11	288	5
NMTAP	11	336	6
NMTAP	11	360	7
NMTAP	12	0	6
NMSTR	12	96	2
NMSI_	12	96	2	96	48	4
NMSTR	12	192	6
NMSI_	12	192	6	96	48	2
NMTAP	12	288	7
NMTAP	13	0	0
NMHLD	13	48	1	96
NMTAP	13	48	7
NMTAP	13	144	3
NMSTR	13	192	2
NMSCR	13	192	2	96	48	5
NMTAP	13	288	7
NMTAP	13	336	7
NMTAP	14	0	0
NMSTR	14	0	6
NMSI_	14	0	6	96	48	3
NMSTR	14	96	2
NMSI_	14	96	2	96	48	7
NMTAP	14	192	4
NMTAP	14	288	6
NMTAP	14	336	6
NMTAP	15	0	0
NMHLD	15	48	1	96
NMHLD	15	48	7	96
NMTAP	15	192	1
NMSTR	15	192	7
NMSCL	15	192	7	96	48	4
NMSTR	15	288	0
NMSCR	15	288	0	96	48	3
NMTAP	16	0	6
NMSTR	16	96	4
NMSI_	16	96	4	96	48	1
NMSTR	16	96	5
NMSI_	16	96	5	96	48	0
NMTAP	16	288	2
NMTAP	16	288	7
NMTAP	16	336	2
NMTAP	16	336	7
NMTAP	17	48	0
NMTTP	17	48	5	B	0	M1
NMTTP	17	48	6	E	0	M1
NMTTP	17	144	2	B	0	M1
NMTTP	17	144	2	E	0	M1
NMTAP	17	144	7
EXTAP	17	240	0
EXTAP	17	240	7
EXSTR	17	288	0
NMSI_	17	288	0	96	48	4
EXSTR	17	288	7
NMSI_	17	288	7	96	48	3
BRTAP	18	0	0
BRTAP	18	0	7
NMHLD	18	96	1	96
NMHLD	18	96	5	240
NMHLD	18	240	3	96
NMTAP	19	0	3
NMTAP	19	0	5
NMHLD	19	96	2	240
NMHLD	19	96	6	96
NMHLD	19	240	4	96
NMTAP	20	0	2
NMTAP	20	0	4
NMHLD	20	96	1	96
NMHLD	20	96	5	240
NMHLD	20	240	3	96
NMTAP	21	0	3
NMTAP	21	0	5
NMHLD	21	96	2	96
NMHLD	21	96	6	96
NMTAP	21	240	3
NMTAP	21	240	5
EXTAP	21	336	4
NMTAP	21	352	3
NMTAP	21	368	5
EXTAP	22	0	4
NMTAP	22	96	2
NMHLD	22	96	6	96
NMTAP	22	192	4
NMHLD	22	240	4	96
NMTAP	22	336	3
NMTAP	23	0	3
NMHLD	23	96	1	96
NMTAP	23	96	5
NMTAP	23	192	3
NMHLD	23	240	3	96
NMTAP	23	336	4
NMTAP	24	0	4
NMHLD	24	96	2	96
NMTAP	24	96	6
NMTAP	24	192	3
NMTAP	24	240	4
NMHLD	24	240	5	96
NMSTR	24	336	1
NMSI_	24	336	1	96	48	5
BRHLD	25	48	7	240
NMTAP	25	288	4
NMTAP	25	336	2
NMTAP	25	336	6
EXTAP	26	0	2
EXTAP	26	0	6
BRSTR	26	96	0
NMSI_	26	96	0	96	48	3
NMTAP	26	192	4
NMHLD	26	240	6	96
NMSTR	26	336	7
NMSI_	26	336	7	96	48	2
NMSTR	27	48	5
NMSI_	27	48	5	96	48	0
NMHLD	27	144	1	96
NMTAP	27	240	0
NMTAP	27	288	1
NMTAP	27	336	2
NMTAP	27	336	7
NMTAP	28	0	2
NMTAP	28	0	7
NMTAP	28	96	0
NMHLD	28	96	5	96
NMTAP	28	192	4
NMTAP	28	240	3
NMTAP	28	240	7
NMSTR	28	336	1
NMSCR	28	336	1	96	96	4
NMTAP	29	0	1
NMSTR	29	48	4
NMSCR	29	48	4	96	96	7
NMSTR	29	144	7
NMSCR	29	144	7	96	96	2
NMTAP	29	240	3
NMTAP	29	288	3
NMTAP	29	336	5
NMSTR	30	0	3
NMSI_	30	0	3	96	48	0
NMSTR	30	0	7
NMSI_	30	0	7	96	48	4
EXTAP	30	96	3
EXTAP	30	96	7
NMTAP	30	192	5
NMTAP	30	240	5
NMHLD	30	288	6	96
NMTAP	31	0	4
NMHLD	31	48	4	96
NMHLD	31	144	3	96
NMTAP	31	240	1
NMTAP	31	288	1
NMHLD	31	336	7	96
NMTAP	32	48	0
NMSTR	32	96	1
NMSCL	32	96	1	96	48	6
NMTAP	32	96	6
NMTTP	32	192	3	B	0	M1
NMTTP	32	192	3	E	0	M1
NMSTR	32	288	5
NMSCL	32	288	5	96	48	2
NMTTP	33	0	7	B	0	M1
NMTTP	33	0	7	E	0	M1
NMTHO	33	96	0	288	C	0	M1
NMTTP	33	96	1	B	0	M1
NMTTP	33	96	5	B	0	M1
NMHLD	34	96	0	672
NMSTR	34	96	6
NMSV_	34	96	6	96	144	5
CNSI_	34	336	5	0	96	3
NMSTR	35	96	2
NMSV_	35	96	2	96	144	1
CNSI_	35	336	1	0	96	7
NMSTR	36	96	2
NMSCR	36	96	2	96	48	4
NMHLD	36	96	5	576
NMSTR	36	288	6
NMSCR	36	288	6	96	48	0
NMHLD	37	96	1	192
NMSTR	38	0	6
NMSCL	38	0	6	96	672	0
NMHLD	38	96	6	96
NMHLD	38	288	5	96
NMHLD	39	96	4	96
NMHLD	39	288	3	96
NMHLD	40	96	2	288
NMTAP	40	96	4
NMTAP	40	144	4
NMTAP	40	192	3
NMTAP	40	240	3
NMTAP	40	288	4
NMTAP	40	336	4
NMTAP	41	0	5
NMTAP	41	48	5
NMTAP	41	96	3
NMHLD	41	96	6	288
NMTAP	41	144	3
NMTAP	41	192	4
NMTAP	41	240	4
NMTAP	41	288	3
NMTAP	41	336	3
NMTAP	42	0	2
NMTAP	42	48	2
NMTAP	42	96	1
NMTAP	42	96	5
NMTAP	42	144	2
NMTAP	42	192	3
NMTAP	42	192	6
NMTAP	42	240	5
NMTAP	42	288	2
NMTAP	42	288	4
NMTAP	42	336	3
NMTAP	43	0	4
NMTAP	43	0	5
NMTAP	43	48	3
NMHLD	43	96	2	192
NMTAP	43	144	4
NMTAP	43	192	5
EXSTR	43	240	6
NMSXR	43	240	6	96	336	7
EXTAP	43	264	6
EXTAP	43	288	6
NMHLD	44	288	0	384
NMTTP	45	288	0	E	1	M1
NMTTP	45	288	7	B	0	M1
NMTTP	45	288	7	A	0	M1
NMTAP	46	0	1
NMSTR	46	48	1
NMSI_	46	48	1	96	48	4
NMTAP	46	144	5
NMTAP	46	192	5
NMTAP	46	240	6
NMSTR	46	240	7
NMSCR	46	240	7	96	48	2
NMTAP	46	336	4
NMTAP	47	0	5
NMTAP	47	48	6
NMTAP	47	96	3
NMTAP	47	96	7
NMTAP	47	144	2
NMTAP	47	192	0
NMTAP	47	192	1
NMTAP	47	240	2
NMTAP	47	240	7
EXHLD	47	288	3	144
NMTAP	48	0	6
NMSTR	48	48	6
NMSI_	48	48	6	96	48	3
NMTAP	48	144	2
NMTAP	48	192	2
NMSTR	48	240	0
NMSCL	48	240	0	96	48	5
NMTAP	48	240	1
NMTAP	48	336	3
NMTAP	49	0	2
NMTAP	49	48	0
NMTAP	49	48	4
NMTAP	49	144	6
NMTAP	49	192	7
NMTAP	49	240	0
NMSTR	49	288	1
NMSI_	49	288	1	96	48	4
NMSTR	49	288	5
NMSI_	49	288	5	96	48	0
NMSTR	50	96	2
NMSCR	50	96	2	96	48	5
NMTAP	50	96	6
NMTAP	50	192	7
NMTAP	50	240	7
NMSTR	50	288	6
NMSI_	50	288	6	96	48	2
NMSTR	51	0	7
NMSI_	51	0	7	96	48	3
NMSTR	51	96	0
NMSI_	51	96	0	96	48	4
NMSTR	51	192	1
NMSI_	51	192	1	96	48	5
BRTAP	51	288	7
NMTAP	52	0	0
NMTAP	52	0	6
NMTAP	52	48	0
NMSTR	52	48	6
NMSUL	52	48	6	96	48	2
NMTAP	52	144	7
NMTAP	52	192	0
NMSTR	52	240	1
NMSUR	52	240	1	96	48	5
NMTAP	52	336	0
NMTAP	53	0	7
NMTAP	53	48	1
NMTAP	53	48	6
NMTAP	53	96	3
NMTAP	53	120	4
NMTAP	53	144	3
NMTAP	53	168	4
BRTAP	53	192	1
BRTAP	53	192	5
NMTTP	53	288	2	B	0	M1
NMTTP	53	288	2	E	1	M1
NMTTP	53	288	6	B	0	M1
NMTTP	53	288	6	E	0	M1
NMTAP	54	0	7
NMSTR	54	48	7
NMSI_	54	48	7	96	48	3
NMTAP	54	144	1
NMTAP	54	192	1
NMSTR	54	240	2
NMSCL	54	240	2	96	48	7
NMTAP	54	240	4
NMTAP	54	336	6
NMTAP	55	0	5
NMTAP	55	48	4
NMTAP	55	96	1
NMTAP	55	96	3
NMTAP	55	144	2
NMTAP	55	192	4
NMTAP	55	192	5
NMTAP	55	240	3
NMTAP	55	240	6
EXHLD	55	288	7	144
NMTAP	56	0	2
NMSTR	56	48	2
NMSI_	56	48	2	96	48	7
NMTAP	56	144	6
NMTAP	56	192	6
NMTAP	56	240	4
NMSTR	56	240	5
NMSCR	56	240	5	96	48	0
NMTAP	56	336	1
NMTAP	57	0	2
NMTAP	57	48	3
NMTAP	57	96	4
NMTAP	57	96	5
NMTAP	57	144	6
NMTAP	57	192	0
NMTAP	57	192	7
NMTAP	57	240	1
NMHLD	57	288	2	96
NMSTR	57	288	3
NMSI_	57	288	3	96	48	0
NMHLD	58	96	6	96
NMSTR	58	96	7
NMSI_	58	96	7	96	48	4
NMSTR	58	288	3
NMSCL	58	288	3	96	48	0
NMSTR	59	0	6
NMSCL	59	0	6	96	48	3
NMSTR	59	96	1
NMSCL	59	96	1	96	48	6
NMSTR	59	192	4
NMSI_	59	192	4	96	48	0
BRTAP	59	288	5
NMTAP	60	0	1
NMTAP	60	0	7
NMSTR	60	48	2
NMSI_	60	48	2	96	48	7
NMSTR	60	48	6
NMSI_	60	48	6	96	48	3
NMTAP	60	144	2
NMTAP	60	144	6
EXTAP	60	240	1
EXTAP	60	240	5
NMTAP	60	336	3
NMTAP	60	336	4
NMTAP	61	0	2
NMTAP	61	0	5
NMTAP	61	48	1
NMTAP	61	48	6
NMSTR	61	96	0
NMSCR	61	96	0	96	48	3
NMSTR	61	96	7
NMSCL	61	96	7	96	48	4
BRTAP	61	192	0
BRTAP	61	192	7
EXTAP	61	288	1
NMHLD	61	288	5	96
NMTAP	61	336	2
NMTAP	62	0	3
EXTAP	62	48	0
NMHLD	62	48	4	96
NMTAP	62	96	1
NMTAP	62	144	2
EXTAP	62	192	6
EXTAP	62	192	7
NMTAP	62	240	6
NMTAP	62	240	7
EXTAP	62	288	1
NMHLD	62	288	5	96
NMTAP	62	336	2
NMTAP	63	0	3
EXTAP	63	48	0
NMHLD	63	48	4	96
NMTAP	63	96	1
NMTAP	63	144	2
EXTAP	63	192	6
EXTAP	63	192	7
NMHLD	63	288	2	96
EXTAP	63	288	6
NMTAP	63	336	5
NMTAP	64	0	4
NMHLD	64	48	3	96
EXTAP	64	48	7
NMTAP	64	96	6
NMTAP	64	144	5
EXTAP	64	192	0
EXTAP	64	192	1
NMTAP	64	240	0
NMTAP	64	240	1
NMHLD	64	288	2	96
EXTAP	64	288	6
NMTAP	64	336	5
NMTAP	65	0	4
NMHLD	65	48	3	96
EXTAP	65	48	7
NMTAP	65	96	6
NMTAP	65	144	5
BRTAP	65	192	0
BRTAP	65	192	1
EXTAP	65	288	6
NMTAP	65	312	5
NMTAP	65	336	4
NMTAP	65	360	3
NMTAP	66	0	0
NMTAP	66	24	1
NMTAP	66	48	2
NMTAP	66	72	3
NMTAP	66	96	7
NMTAP	66	120	6
NMTAP	66	144	5
NMTAP	66	168	4
EXSTR	66	192	1
NMSI_	66	192	1	96	48	7
NMTAP	66	240	1
EXSTR	66	288	5
NMSI_	66	288	5	96	48	3
NMTAP	66	336	5
EXSTR	67	0	1
NMSI_	67	0	1	96	48	5
NMTAP	67	48	1
EXSTR	67	96	7
NMSI_	67	96	7	96	48	3
NMTAP	67	144	7
EXTAP	67	192	2
NMTAP	67	240	2
EXTAP	67	288	1
NMTAP	67	312	0
NMTAP	67	336	1
NMTAP	67	360	0
NMTAP	68	0	2
NMTAP	68	48	5
NMTAP	68	72	4
EXTAP	68	96	5
NMTAP	68	120	4
NMTAP	68	144	6
NMTAP	68	192	0
NMTAP	68	240	1
NMTAP	68	240	7
EXTAP	68	288	6
NMTAP	68	312	4
NMTAP	68	336	5
NMTAP	68	360	3
NMTAP	69	0	4
NMTAP	69	24	2
NMTAP	69	48	3
EXTAP	69	96	0
EXTAP	69	96	6
NMTAP	69	144	0
NMTAP	69	144	6
BRSTR	69	192	1
NMSI_	69	192	1	96	48	5
BRTAP	69	192	5
NMHLD	69	288	7	144
NMTAP	70	0	4
NMSTR	70	48	4
NMSCL	70	48	4	96	96	0
NMSTR	70	144	0
NMSCL	70	144	0	96	96	4
NMTAP	70	240	4
NMTAP	70	336	0
NMTAP	71	0	7
NMTAP	71	48	6
NMTAP	71	96	4
NMTAP	71	96	5
NMTAP	71	144	3
NMTAP	71	192	2
NMTAP	71	192	4
NMTAP	71	240	1
NMHLD	71	288	0	144
NMTAP	71	288	7
NMTAP	72	0	3
NMSTR	72	48	3
NMSI_	72	48	3	96	48	7
NMSTR	72	144	1
NMSCR	72	144	1	96	48	4
NMTAP	72	144	3
BRTAP	72	240	0
BRTAP	72	240	1
NMTAP	72	336	5
NMTAP	73	0	6
NMTAP	73	48	0
NMTAP	73	48	7
NMSTR	73	96	0
BRSI_	73	96	0	96	48	4
NMSTR	73	96	7
BRSI_	73	96	7	96	48	3
NMTAP	73	144	1
NMTAP	73	144	6
EXTAP	73	192	0
EXTAP	73	192	7
EXTAP	73	288	1
EXTAP	73	288	6
NMTAP	73	336	2
NMTAP	73	360	3
NMTAP	74	0	2
NMTAP	74	48	7
EXTAP	74	96	0
NMTAP	74	96	6
NMTAP	74	144	5
NMTAP	74	168	4
NMTAP	74	192	5
NMTAP	74	240	0
NMTAP	74	288	1
EXTAP	74	288	7
NMTAP	74	336	2
NMTAP	74	360	3
NMTAP	75	0	1
NMTAP	75	48	7
EXTAP	75	96	0
EXTAP	75	96	6
NMTAP	75	144	5
NMTAP	75	168	4
NMTAP	75	192	6
NMTAP	75	240	0
NMTAP	75	240	1
BRTAP	75	288	2
BRHLD	75	288	7	96
NMTAP	76	0	4
NMSTR	76	48	4
NMSI_	76	48	4	96	48	0
NMTAP	76	144	4
NMSTR	76	144	6
NMSCL	76	144	6	96	48	3
NMTAP	76	240	6
NMTAP	76	240	7
NMTAP	76	336	1
NMSTR	77	0	0
NMSI_	77	0	0	96	48	4
NMSTR	77	0	6
NMSI_	77	0	6	96	48	4
NMTAP	77	48	7
BXSTR	77	96	0
NMSI_	77	96	0	96	48	2
BXSTR	77	96	6
NMSI_	77	96	6	96	48	2
BXTAP	77	192	0
BXTAP	77	192	6
NMHLD	77	288	3	96
NMHLD	77	288	5	96
EXTAP	78	48	3
NMSTR	78	48	5
NMSI_	78	48	5	96	48	0
NMSTR	78	144	1
NMSI_	78	144	1	96	48	4
EXTAP	78	144	5
EXTAP	78	240	1
NMSTR	78	240	7
NMSCL	78	240	7	96	48	4
NMSTR	78	336	0
NMSCR	78	336	0	96	48	3
EXTAP	78	336	7
EXTAP	79	48	0
NMTAP	79	48	6
NMTAP	79	96	5
NMTAP	79	144	4
EXTAP	79	192	2
EXTAP	79	192	3
NMTAP	79	240	1
BRTAP	79	288	0
BRSTR	79	288	5
NMSLL	79	288	5	96	96	6
EXTAP	80	0	3
EXTAP	80	0	5
BRSTR	80	48	1
NMSI_	80	48	1	96	48	5
EXTAP	80	144	0
EXTAP	80	144	1
BRSTR	80	192	7
BRSF_	80	192	7	96	48	3
NMTTP	80	288	0	C	1	M1
NMTAP	81	288	6
NMTAP	81	336	5
NMTAP	82	0	4
NMTAP	82	48	3
NMTAP	82	96	5
NMTAP	82	144	4
NMTAP	82	192	3
NMTAP	82	240	2
NMTAP	82	288	4
NMTAP	82	336	3
NMTAP	83	0	2
NMTAP	83	64	1
NMTAP	83	192	2
NMSTR	83	192	6
NMSXR	83	192	6	96	624	7

T_REC_TAP	349
T_REC_BRK	16
T_REC_XTP	52
T_REC_BXX	3
T_REC_HLD	54
T_REC_XHO	2
T_REC_BHO	2
T_REC_BXH	0
T_REC_STR	68
T_REC_BST	6
T_REC_XST	7
T_REC_XBS	2
T_REC_TTP	21
T_REC_THO	1
T_REC_SLD	80
T_REC_BSL	3
T_REC_ALL	666
T_NUM_TAP	497
T_NUM_BRK	32
T_NUM_HLD	57
T_NUM_SLD	80
T_NUM_ALL	666
T_JUDGE_TAP	524
T_JUDGE_HLD	205
T_JUDGE_SLD	83
T_JUDGE_ALL	812
TTM_EACHPAIRS	123
TTM_SCR_TAP	248500
TTM_SCR_BRK	83200
TTM_SCR_HLD	57000
TTM_SCR_SLD	120000
TTM_SCR_ALL	508700
TTM_SCR_S	490350
TTM_SCR_SS	505500
TTM_RAT_ACV	10063

