VERSION	0.00.00	1.04.00
FES_MODE	0
BPM_DEF	108.000	148.000	284.000	 79.000
MET_DEF	4	4
RESOLUTION	384
CLK_DEF	384
COMPATIBLE_CODE	MA2

BPM	0	0	108.000
BPM	2	0	103.000
BPM	2	48	135.000
BPM	2	96	150.000
BPM	2	144	155.000
BPM	2	240	153.000
BPM	2	288	154.000
BPM	2	336	179.000
BPM	3	0	170.000
BPM	3	48	175.000
BPM	3	96	170.000
BPM	3	144	155.000
BPM	3	192	175.000
BPM	3	240	190.000
BPM	3	288	210.000
BPM	4	0	194.000
BPM	4	48	206.000
BPM	4	96	220.000
BPM	4	192	231.000
BPM	4	240	235.000
BPM	4	288	251.000
BPM	5	0	254.000
BPM	5	96	255.000
BPM	5	192	284.000
BPM	6	0	277.000
BPM	6	96	261.000
BPM	6	192	242.000
BPM	6	288	188.000
BPM	7	0	149.000
BPM	7	48	179.000
BPM	7	96	168.000
BPM	7	192	119.000
BPM	7	288	137.000
BPM	8	0	129.000
BPM	8	96	119.000
BPM	8	192	111.000
BPM	8	288	153.000
BPM	8	336	115.000
BPM	9	0	100.000
BPM	9	96	116.000
BPM	10	96	148.000
BPM	42	96	143.000
BPM	42	192	140.000
BPM	42	288	131.500
BPM	43	0	121.000
BPM	43	96	112.000
BPM	43	192	 98.000
BPM	43	288	145.000
BPM	44	192	130.000
BPM	44	288	 97.000
BPM	45	288	170.000
BPM	82	0	165.000
BPM	82	96	145.000
BPM	82	192	105.000
BPM	82	288	 79.000
BPM	83	0	 81.000
MET	0	0	4	4
MET	2	0	4	3
MET	10	96	4	4
MET	43	96	4	2
MET	43	288	4	4

NMTTP	1	0	0	C	1	M1
NMTTP	1	0	2	B	0	M1
NMTTP	1	0	2	E	0	M1
NMTTP	1	0	3	E	0	M1
NMTTP	1	0	5	B	0	M1
NMTTP	1	0	5	E	0	M1
NMTTP	1	0	6	E	0	M1
BXSTR	2	0	3
NMSI_	2	0	3	96	2616	0
BXSTR	2	0	4
NMSI_	2	0	4	96	2616	7
BXTAP	10	96	2
NMTAP	10	192	1
NMTAP	10	288	7
NMTAP	11	0	0
NMTAP	11	0	6
NMTAP	11	96	5
NMTAP	11	192	6
NMTAP	11	288	0
NMTAP	12	0	1
NMTAP	12	0	7
NMTAP	12	96	2
NMTAP	12	192	2
NMTAP	12	192	3
NMTAP	12	288	5
NMTAP	13	0	4
NMTAP	13	0	5
NMTAP	13	96	3
NMTAP	13	192	2
NMTAP	13	192	4
NMTAP	13	288	1
NMTAP	13	288	5
NMTAP	14	96	5
NMTAP	14	192	6
NMTAP	14	288	0
NMTAP	15	0	1
NMTAP	15	0	7
NMTAP	15	96	2
NMTAP	15	192	2
NMTAP	15	192	3
NMTAP	15	288	1
NMTAP	15	288	4
NMTAP	16	0	3
NMTAP	16	0	6
NMTAP	16	96	4
NMSTR	16	96	5
NMSI_	16	96	5	96	96	2
NMTAP	16	288	1
EXTAP	17	0	0
EXTAP	17	48	0
NMTAP	17	144	1
NMTAP	17	144	7
EXTAP	17	240	2
EXTAP	17	240	6
BXTAP	17	288	2
BXTAP	17	288	6
NMHLD	18	96	5	96
NMTAP	18	192	4
NMTAP	18	240	4
NMTAP	18	240	5
NMTAP	18	336	3
NMTAP	19	0	3
NMTAP	19	48	4
NMHLD	19	96	2	96
NMTAP	19	192	3
NMTAP	19	240	2
NMTAP	19	240	3
NMTAP	19	336	5
NMTAP	20	0	5
NMTAP	20	48	4
NMHLD	20	96	6	96
NMTAP	20	192	7
NMTAP	20	240	6
NMTAP	20	240	7
NMHLD	20	336	0	96
NMTAP	20	336	5
NMHLD	21	48	1	96
NMSTR	21	144	2
NMSCR	21	144	2	96	96	5
EXTAP	21	336	7
EXTAP	22	0	7
NMHLD	22	96	6	96
NMTAP	22	192	4
NMTAP	22	240	4
NMTAP	22	240	5
NMTAP	22	336	2
NMTAP	23	0	2
NMTAP	23	48	2
NMTAP	23	48	3
NMSTR	23	144	0
NMSCL	23	144	0	96	96	5
NMTAP	23	144	1
EXTAP	24	48	4
EXTAP	24	96	3
EXTAP	24	96	5
EXTAP	24	192	3
EXTAP	24	240	2
EXTAP	24	240	4
NMTAP	24	336	3
NMTAP	24	336	5
NMHLD	25	48	1	192
NMHLD	25	48	6	192
EXTAP	25	288	7
EXTAP	25	336	7
BXTAP	26	0	0
BXTAP	26	0	6
EXTAP	26	96	1
EXTAP	26	96	5
NMTAP	26	192	2
NMTAP	26	192	4
NMTAP	26	240	2
NMTAP	26	240	4
NMHLD	26	336	3	288
NMSTR	26	336	5
NMSI_	26	336	5	96	96	3
CNSI_	27	144	3	0	96	6
CNSI_	27	240	6	0	96	0
EXTAP	27	336	2
EXTAP	28	0	2
NMHLD	28	96	1	96
NMTAP	28	96	3
NMTAP	28	192	0
NMTAP	28	240	0
NMTAP	28	336	6
NMTAP	29	0	6
NMTAP	29	48	6
NMTAP	29	48	7
NMTAP	29	144	0
NMTAP	29	144	5
NMTAP	29	240	2
NMTAP	29	288	2
NMTAP	29	336	3
NMTAP	30	0	1
NMTAP	30	0	4
NMTAP	30	96	3
NMTAP	30	96	6
NMTAP	30	192	5
NMTAP	30	240	5
NMTAP	30	288	4
NMTAP	30	288	5
NMTAP	31	0	6
NMTAP	31	0	7
NMTAP	31	48	6
NMTAP	31	48	7
NMTAP	31	144	0
NMTAP	31	144	1
NMTAP	31	240	2
NMTAP	31	288	2
NMTAP	31	336	2
NMTAP	31	336	3
NMTAP	32	48	1
NMTAP	32	48	4
NMSTR	32	96	1
NMSI_	32	96	1	96	48	4
NMTAP	32	96	4
NMSTR	32	288	6
NMSI_	32	288	6	96	48	3
NMTAP	32	288	7
BRTAP	33	96	0
BRTAP	33	96	1
NMTAP	33	192	2
NMTAP	33	192	7
NMTAP	33	240	2
NMTAP	33	240	7
NMTAP	33	336	3
NMTAP	33	336	4
NMTAP	34	0	2
NMTAP	34	0	5
BXHLD	34	96	0	1152
BXSTR	34	96	6
NMSCL	34	96	6	96	288	3
NMTTP	36	96	4	E	0	M1
NMTTP	36	288	0	C	0	M1
NMTTP	37	96	0	E	0	M1
NMTTP	37	288	0	C	0	M1
NMSTR	38	96	0
NMSCR	38	96	0	96	288	3
NMSTR	39	96	7
NMSCL	39	96	7	96	288	4
NMTAP	40	96	3
NMTAP	40	192	2
NMTAP	40	288	1
NMTAP	41	0	0
NMTAP	41	96	7
NMTAP	41	192	6
NMTAP	41	288	5
NMTAP	42	0	4
NMTAP	42	0	5
EXTAP	42	96	6
EXTAP	42	96	7
EXTAP	42	192	6
EXTAP	42	192	7
EXTAP	42	288	0
EXTAP	42	288	1
EXTAP	43	0	0
EXTAP	43	0	1
EXTAP	43	96	0
EXTAP	43	96	7
EXSTR	43	192	0
NMSUL	43	192	0	96	240	3
EXSTR	43	192	7
NMSUR	43	192	7	96	240	4
EXTAP	44	288	2
EXHLD	44	288	5	384
BXSTR	45	288	0
NMSCR	45	288	0	96	96	4
NMTAP	46	96	6
NMSTR	46	192	6
NMSI_	46	192	6	96	48	4
NMSTR	46	192	7
NMSI_	46	192	7	96	48	3
NMSTR	47	0	0
NMSI_	47	0	0	96	48	4
NMSTR	47	0	1
NMSI_	47	0	1	96	48	3
NMTAP	47	192	6
NMTAP	47	192	7
BRTAP	47	288	0
BRTAP	47	288	5
NMTAP	48	0	2
NMTAP	48	0	3
NMTAP	48	48	2
NMTAP	48	48	3
NMTAP	48	144	4
NMTAP	48	144	6
NMTAP	48	240	0
NMTAP	48	240	7
NMTAP	48	336	1
NMTAP	48	336	3
NMTAP	49	48	5
NMSTR	49	96	5
NMSI_	49	96	5	96	48	0
NMTAP	49	192	2
NMHLD	49	288	1	96
NMTAP	50	0	0
NMTAP	50	96	2
NMTAP	50	96	3
NMTAP	50	192	1
NMTAP	50	192	4
NMHLD	50	288	6	96
NMTAP	51	0	7
NMTAP	51	96	4
NMTAP	51	96	5
NMTAP	51	192	2
NMTAP	51	192	3
NMSTR	51	288	0
NMSUR	51	288	0	96	96	5
NMSTR	51	288	1
NMSCR	51	288	1	96	96	4
EXTAP	52	192	6
EXTAP	52	192	7
NMSTR	52	288	6
NMSCL	52	288	6	96	96	3
NMSTR	52	288	7
NMSUL	52	288	7	96	96	2
EXTAP	53	192	0
EXTAP	53	192	1
NMTAP	53	288	0
NMHLD	53	288	1	96
NMTAP	54	0	3
NMTAP	54	96	2
NMTAP	54	96	4
NMTAP	54	192	4
NMTAP	54	192	6
NMSTR	54	288	6
NMSI_	54	288	6	96	48	2
NMSTR	54	288	7
NMSI_	54	288	7	96	48	3
NMSTR	55	96	0
NMSI_	55	96	0	96	48	4
NMSTR	55	96	1
NMSI_	55	96	1	96	48	5
BRTAP	55	288	3
BRTAP	55	288	6
NMTAP	56	0	4
NMTAP	56	0	5
NMTAP	56	96	2
NMTAP	56	96	3
NMSTR	56	192	0
NMSCL	56	192	0	96	192	3
NMSTR	56	192	1
NMSUL	56	192	1	96	192	2
EXTAP	57	192	0
EXTAP	57	192	1
NMHLD	57	288	6	96
NMTAP	58	0	7
NMHLD	58	96	1	96
NMTAP	58	192	0
NMTAP	58	288	4
NMTAP	58	288	6
NMTAP	59	0	2
NMTAP	59	0	3
NMTAP	59	96	5
NMTAP	59	96	6
NMTAP	59	192	0
NMTAP	59	192	1
NMSTR	59	288	2
NMSCL	59	288	2	96	96	7
NMSTR	59	288	7
NMSCL	59	288	7	96	96	4
NMTAP	60	192	7
NMTAP	60	288	0
NMTAP	60	288	6
NMTAP	61	0	2
NMTAP	61	0	3
BRTAP	61	96	3
BRTAP	61	96	4
BRTAP	61	192	0
BRTAP	61	192	7
BRTAP	61	288	1
BRTAP	61	288	6
NMTAP	62	0	2
NMTAP	62	48	2
NMTAP	62	96	4
NMTAP	62	144	4
NMTAP	62	192	3
NMTAP	62	240	3
NMTAP	62	288	5
NMTAP	62	336	5
NMTAP	63	0	1
NMTAP	63	48	1
NMTAP	63	96	7
NMTAP	63	144	7
NMTAP	63	192	2
NMTAP	63	240	2
NMTAP	63	288	0
NMTAP	63	288	1
NMTAP	63	336	0
NMTAP	63	336	1
NMTAP	64	0	0
NMTAP	64	0	1
NMTAP	64	96	2
NMTAP	64	96	7
NMTAP	64	192	4
NMTAP	64	192	5
NMTAP	64	288	6
NMTAP	64	288	7
NMTAP	64	336	6
NMTAP	64	336	7
NMTAP	65	0	6
NMTAP	65	0	7
NMTAP	65	96	0
NMTAP	65	96	5
BRTAP	65	192	2
BRTAP	65	192	3
NMSTR	65	288	1
NMSCL	65	288	1	96	96	6
NMSTR	66	96	5
NMSCL	66	96	5	96	96	2
NMSTR	66	288	0
NMSI_	66	288	0	96	96	4
NMTAP	67	96	5
NMTAP	67	192	4
NMTAP	67	192	6
NMTAP	67	288	5
NMTAP	67	336	5
NMTAP	68	0	4
NMTAP	68	48	6
NMTAP	68	96	2
NMTAP	68	144	2
NMTAP	68	192	3
NMTAP	68	240	1
NMSTR	68	288	0
NMSI_	68	288	0	96	48	4
NMSTR	68	288	1
NMSI_	68	288	1	96	48	4
NMSTR	69	96	6
NMSI_	69	96	6	96	48	3
NMSTR	69	96	7
NMSI_	69	96	7	96	48	3
BRTAP	69	288	0
BRTAP	69	288	1
NMTAP	70	0	2
NMTAP	70	0	7
NMTAP	70	96	4
NMHLD	70	96	5	96
NMTAP	70	192	7
NMTAP	70	288	0
NMTAP	70	288	1
NMTAP	71	0	2
NMTAP	71	0	3
NMSTR	71	96	1
NMSI_	71	96	1	96	48	5
NMTAP	71	96	4
NMSTR	71	192	7
BRSCL	71	192	7	96	192	2
NMSTR	72	192	0
NMSCR	72	192	0	96	192	5
BRTAP	73	192	0
BRTAP	73	192	6
NMHLD	73	288	7	96
NMHLD	74	0	1	96
NMHLD	74	96	3	96
NMHLD	74	192	5	96
NMHLD	74	288	7	96
NMHLD	75	0	1	96
NMHLD	75	96	3	96
NMTAP	75	192	5
NMTAP	75	288	6
NMTAP	75	288	7
NMTAP	75	336	6
NMTAP	75	336	7
NMTAP	76	0	0
NMTAP	76	0	5
NMTAP	76	96	0
NMTAP	76	96	1
NMTAP	76	144	0
NMTAP	76	144	1
NMTAP	76	192	2
NMTAP	76	192	7
NMTAP	76	288	3
NMTAP	76	288	4
NMTAP	76	336	3
NMTAP	76	336	4
NMTAP	77	0	2
NMTAP	77	0	5
BRTAP	77	96	0
BRTAP	77	96	7
NMHLD	77	288	1	96
NMTAP	77	288	5
NMTAP	78	0	0
NMTAP	78	48	0
NMTAP	78	144	2
NMTAP	78	144	3
NMTAP	78	240	0
NMTAP	78	240	5
NMTAP	78	336	2
NMTAP	78	336	7
NMTAP	79	48	3
NMTAP	79	48	4
NMTAP	79	96	3
NMTAP	79	96	4
EXTAP	79	192	2
EXTAP	79	192	5
BRTAP	79	288	0
BRTAP	79	288	7
EXTAP	80	0	2
EXTAP	80	48	1
EXTAP	80	48	3
EXTAP	80	144	5
EXTAP	80	192	4
EXSTR	80	192	6
BRSI_	80	192	6	96	48	2
BXHLD	80	288	0	928
NMHLD	81	288	7	544
BXSTR	83	192	0
NMSI_	83	192	0	96	672	3
BXSTR	83	192	7
NMSI_	83	192	7	96	672	4

T_REC_TAP	251
T_REC_BRK	22
T_REC_XTP	42
T_REC_BXX	5
T_REC_HLD	25
T_REC_XHO	1
T_REC_BHO	0
T_REC_BXH	2
T_REC_STR	35
T_REC_BST	0
T_REC_XST	3
T_REC_XBS	6
T_REC_TTP	11
T_REC_THO	0
T_REC_SLD	42
T_REC_BSL	2
T_REC_ALL	447
T_NUM_TAP	342
T_NUM_BRK	37
T_NUM_HLD	26
T_NUM_SLD	42
T_NUM_ALL	447
T_JUDGE_TAP	375
T_JUDGE_HLD	138
T_JUDGE_SLD	44
T_JUDGE_ALL	557
TTM_EACHPAIRS	136
TTM_SCR_TAP	171000
TTM_SCR_BRK	96200
TTM_SCR_HLD	26000
TTM_SCR_SLD	63000
TTM_SCR_ALL	356200
TTM_SCR_S	341950
TTM_SCR_SS	352500
TTM_RAT_ACV	10104

