VERSION	0.00.00	1.04.00
FES_MODE	0
BPM_DEF	108.000	148.000	284.000	 79.000
MET_DEF	4	4
RESOLUTION	384
CLK_DEF	384
COMPATIBLE_CODE	MA2

BPM	0	0	108.000
BPM	2	0	103.000
BPM	2	48	135.000
BPM	2	96	150.000
BPM	2	144	155.000
BPM	2	240	153.000
BPM	2	288	154.000
BPM	2	336	179.000
BPM	3	0	170.000
BPM	3	48	175.000
BPM	3	96	170.000
BPM	3	144	155.000
BPM	3	192	175.000
BPM	3	240	190.000
BPM	3	288	210.000
BPM	4	0	194.000
BPM	4	48	206.000
BPM	4	96	220.000
BPM	4	192	231.000
BPM	4	240	235.000
BPM	4	288	251.000
BPM	5	0	254.000
BPM	5	96	255.000
BPM	5	192	284.000
BPM	6	0	277.000
BPM	6	96	261.000
BPM	6	192	242.000
BPM	6	288	188.000
BPM	7	0	149.000
BPM	7	48	179.000
BPM	7	96	168.000
BPM	7	192	119.000
BPM	7	288	137.000
BPM	8	0	129.000
BPM	8	96	119.000
BPM	8	192	111.000
BPM	8	288	153.000
BPM	8	336	115.000
BPM	9	0	100.000
BPM	9	96	116.000
BPM	10	96	148.000
BPM	42	96	143.000
BPM	42	192	140.000
BPM	42	288	131.500
BPM	43	0	121.000
BPM	43	96	112.000
BPM	43	192	 98.000
BPM	43	288	145.000
BPM	44	192	130.000
BPM	44	288	 97.000
BPM	45	288	170.000
BPM	82	0	165.000
BPM	82	96	145.000
BPM	82	192	105.000
BPM	82	288	 79.000
BPM	83	0	 81.000
MET	0	0	4	4
MET	2	0	4	3
MET	10	96	4	4
MET	43	96	4	2
MET	43	288	4	4

EXHLD	2	0	3	2784
EXHLD	2	0	4	2784
NMTAP	10	96	2
NMTAP	10	192	2
NMTAP	10	288	2
NMTAP	10	288	3
NMTAP	11	96	1
NMTAP	11	192	1
NMTAP	11	288	0
NMTAP	11	288	1
NMTAP	12	96	7
NMTAP	12	192	7
NMTAP	12	288	6
NMTAP	12	288	7
NMTAP	13	96	4
NMTAP	13	96	5
NMTAP	13	192	4
NMTAP	13	192	5
NMTAP	13	288	4
NMTAP	13	288	5
NMTAP	14	96	5
NMTAP	14	192	5
NMTAP	14	288	4
NMTAP	14	288	5
NMTAP	15	96	6
NMTAP	15	192	6
NMTAP	15	288	6
NMTAP	15	288	7
NMTAP	16	96	0
NMTAP	16	192	0
NMTAP	16	288	0
NMTAP	16	288	1
NMTAP	17	96	2
NMTAP	17	96	3
NMTAP	17	192	2
NMTAP	17	192	3
NMTAP	17	288	2
NMTAP	17	288	3
NMSTR	18	96	1
NMSI_	18	96	1	96	192	4
NMSTR	19	96	5
NMSI_	19	96	5	96	192	2
NMSTR	20	96	1
NMSI_	20	96	1	96	192	5
NMTAP	21	96	6
NMTAP	21	288	6
NMTAP	21	288	7
NMTTP	22	96	6	B	0	L1
NMTTP	22	192	5	B	0	L1
NMTTP	22	288	4	B	0	L1
NMTTP	23	96	1	B	0	L1
NMTTP	23	192	2	B	0	L1
NMTTP	23	288	3	B	0	L1
NMTTP	24	96	5	B	0	L1
NMTTP	24	192	4	B	0	L1
NMTTP	24	288	3	B	0	L1
NMTTP	25	0	2	B	0	L1
NMTTP	25	96	0	C	0	L1
NMTAP	26	96	1
NMTAP	26	192	1
NMTAP	26	288	2
NMTAP	27	0	2
NMTAP	27	96	3
NMTAP	27	192	3
NMTAP	27	288	4
NMTAP	27	288	5
NMTAP	28	96	6
NMTAP	28	192	6
NMTAP	28	288	5
NMTAP	29	0	5
NMTAP	29	96	4
NMTAP	29	192	4
NMTAP	29	288	2
NMTAP	29	288	3
NMTAP	30	96	2
NMTAP	30	192	2
NMTAP	30	288	1
NMTAP	31	0	1
NMTAP	31	96	0
NMTAP	31	192	0
NMTAP	31	288	6
NMTAP	31	288	7
NMTAP	32	96	5
NMTAP	32	192	5
NMTAP	32	288	6
NMTAP	33	0	6
NMTAP	33	96	7
NMTAP	33	192	7
NMTAP	33	288	0
NMTAP	33	288	1
NMHLD	34	96	2	192
NMHLD	34	288	3	192
NMHLD	35	96	4	192
NMTAP	35	288	5
NMHLD	36	96	5	192
NMHLD	36	288	4	192
NMHLD	37	96	3	192
NMTAP	37	288	2
NMHLD	38	96	1	192
NMHLD	38	288	2	192
NMHLD	39	96	3	192
NMTAP	39	288	4
NMHLD	40	96	6	192
NMHLD	40	288	5	192
NMHLD	41	96	4	192
NMTAP	41	288	3
EXTAP	42	96	2
EXTAP	42	192	2
EXTAP	42	288	3
EXTAP	43	0	3
EXTAP	43	96	4
EXTAP	43	192	4
EXHLD	43	288	3	384
EXHLD	43	288	4	384
BXTAP	45	288	2
EXTAP	46	0	2
EXTAP	46	96	0
EXTAP	46	96	1
EXTAP	46	192	0
EXTAP	46	192	1
EXTAP	46	288	7
EXTAP	47	0	7
EXTAP	47	96	6
EXTAP	47	96	7
NMTAP	47	288	5
NMTAP	48	0	5
NMTAP	48	96	6
NMTAP	48	96	7
NMTAP	48	192	6
NMTAP	48	192	7
NMTAP	48	288	0
NMTAP	49	0	0
NMTAP	49	96	0
NMTAP	49	96	1
NMTAP	49	288	1
NMTAP	50	0	1
NMTAP	50	96	2
NMTAP	50	96	3
NMTAP	50	192	2
NMTAP	50	192	3
NMTAP	50	288	4
NMTAP	51	0	4
NMTAP	51	96	4
NMTAP	51	96	5
NMTAP	51	288	6
NMTAP	52	0	6
NMTAP	52	96	4
NMTAP	52	96	5
NMTAP	52	192	4
NMTAP	52	192	5
NMTAP	52	288	3
NMTAP	53	0	3
NMTAP	53	96	2
NMTAP	53	96	3
NMTAP	53	288	2
NMTAP	54	0	2
NMTAP	54	96	0
NMTAP	54	96	1
NMTAP	54	192	0
NMTAP	54	192	1
NMTAP	54	288	7
NMTAP	55	0	6
NMTAP	55	96	4
NMTAP	55	96	5
NMTAP	55	288	5
NMTAP	56	0	5
NMTAP	56	96	6
NMTAP	56	96	7
NMTAP	56	192	6
NMTAP	56	192	7
NMTAP	56	288	0
NMTAP	57	0	1
NMTAP	57	96	2
NMTAP	57	96	3
NMTAP	57	288	1
NMTAP	58	0	1
NMTAP	58	96	2
NMTAP	58	96	3
NMTAP	58	192	2
NMTAP	58	192	3
NMTAP	58	288	4
NMTAP	59	0	5
NMTAP	59	96	6
NMTAP	59	96	7
NMTAP	59	288	6
NMTAP	60	0	6
NMTAP	60	96	4
NMTAP	60	96	5
NMTAP	60	192	4
NMTAP	60	192	5
NMTAP	60	288	3
NMTAP	61	0	2
NMTAP	61	96	0
NMTAP	61	96	1
BRTAP	61	288	1
NMTAP	62	0	1
NMTAP	62	96	1
NMTAP	62	192	0
NMTAP	62	192	1
NMTAP	62	288	2
NMTAP	63	0	2
NMTAP	63	96	2
NMTAP	63	192	2
NMTAP	63	192	3
NMTAP	63	288	4
NMTAP	64	0	4
NMTAP	64	96	4
NMTAP	64	192	4
NMTAP	64	192	5
NMTAP	64	288	6
NMTAP	64	288	7
NMTAP	65	0	6
NMTAP	65	0	7
NMTAP	65	96	6
NMTAP	65	96	7
NMTAP	65	288	6
NMTAP	66	0	6
NMTAP	66	96	6
NMTAP	66	192	6
NMTAP	66	192	7
NMTAP	66	288	5
NMTAP	67	0	5
NMTAP	67	96	5
NMTAP	67	192	4
NMTAP	67	192	5
NMTAP	67	288	3
NMTAP	68	0	3
NMTAP	68	96	3
NMTAP	68	192	2
NMTAP	68	192	3
NMTAP	68	288	0
NMTAP	68	288	1
NMTAP	69	0	0
NMTAP	69	0	1
NMTAP	69	96	0
NMTAP	69	96	1
NMTAP	69	288	0
NMTAP	69	288	1
NMTAP	70	0	0
NMTAP	70	0	1
NMTAP	70	96	2
NMTAP	70	96	7
NMTAP	70	288	2
NMTAP	70	288	3
NMTAP	71	0	2
NMTAP	71	0	3
NMTAP	71	96	1
NMTAP	71	96	4
NMTAP	71	288	4
NMTAP	71	288	5
NMTAP	72	0	4
NMTAP	72	0	5
NMTAP	72	96	3
NMTAP	72	96	6
NMTAP	72	288	6
NMTAP	72	288	7
NMTAP	73	0	6
NMTAP	73	0	7
NMTAP	73	96	0
NMTAP	73	96	5
NMTAP	73	288	6
NMTAP	73	288	7
NMTAP	74	0	6
NMTAP	74	0	7
NMTAP	74	96	0
NMTAP	74	96	5
NMTAP	74	288	4
NMTAP	74	288	5
NMTAP	75	0	4
NMTAP	75	0	5
NMTAP	75	96	3
NMTAP	75	96	6
NMTAP	75	288	2
NMTAP	75	288	3
NMTAP	76	0	2
NMTAP	76	0	3
NMTAP	76	96	1
NMTAP	76	96	4
NMTAP	76	288	0
NMTAP	76	288	1
NMTAP	77	0	0
NMTAP	77	0	1
NMTAP	77	96	2
NMTAP	77	96	7
EXTAP	77	288	1
EXTAP	78	0	1
EXTAP	78	96	0
EXTAP	78	96	1
EXTAP	78	288	6
EXTAP	79	0	6
EXTAP	79	96	6
EXTAP	79	96	7
EXHLD	79	288	0	384
EXHLD	79	288	7	384
NMTAP	81	96	0
NMTAP	81	96	7
NMSTR	81	288	0
NMSXL	81	288	0	96	576	3
NMSTR	81	288	7
NMSXR	81	288	7	96	576	4

T_REC_TAP	236
T_REC_BRK	1
T_REC_XTP	23
T_REC_BXX	1
T_REC_HLD	12
T_REC_XHO	6
T_REC_BHO	0
T_REC_BXH	0
T_REC_STR	5
T_REC_BST	0
T_REC_XST	0
T_REC_XBS	0
T_REC_TTP	11
T_REC_THO	0
T_REC_SLD	5
T_REC_BSL	0
T_REC_ALL	300
T_NUM_TAP	275
T_NUM_BRK	2
T_NUM_HLD	18
T_NUM_SLD	5
T_NUM_ALL	300
T_JUDGE_TAP	277
T_JUDGE_HLD	200
T_JUDGE_SLD	5
T_JUDGE_ALL	482
TTM_EACHPAIRS	84
TTM_SCR_TAP	137500
TTM_SCR_BRK	5200
TTM_SCR_HLD	18000
TTM_SCR_SLD	7500
TTM_SCR_ALL	168200
TTM_SCR_S	163000
TTM_SCR_SS	168000
TTM_RAT_ACV	10011

