VERSION	0.00.00	1.04.00
FES_MODE	0
BPM_DEF	108.000	148.000	284.000	 79.000
MET_DEF	4	4
RESOLUTION	384
CLK_DEF	384
COMPATIBLE_CODE	MA2

BPM	0	0	108.000
BPM	2	0	103.000
BPM	2	48	135.000
BPM	2	96	150.000
BPM	2	144	155.000
BPM	2	240	153.000
BPM	2	288	154.000
BPM	2	336	179.000
BPM	3	0	170.000
BPM	3	48	175.000
BPM	3	96	170.000
BPM	3	144	155.000
BPM	3	192	175.000
BPM	3	240	190.000
BPM	3	288	210.000
BPM	4	0	194.000
BPM	4	48	206.000
BPM	4	96	220.000
BPM	4	192	231.000
BPM	4	240	235.000
BPM	4	288	251.000
BPM	5	0	254.000
BPM	5	96	255.000
BPM	5	192	284.000
BPM	6	0	277.000
BPM	6	96	261.000
BPM	6	192	242.000
BPM	6	288	188.000
BPM	7	0	149.000
BPM	7	48	179.000
BPM	7	96	168.000
BPM	7	192	119.000
BPM	7	288	137.000
BPM	8	0	129.000
BPM	8	96	119.000
BPM	8	192	111.000
BPM	8	288	153.000
BPM	8	336	115.000
BPM	9	0	100.000
BPM	9	96	116.000
BPM	10	96	148.000
BPM	42	96	143.000
BPM	42	192	140.000
BPM	42	288	131.500
BPM	43	0	121.000
BPM	43	96	112.000
BPM	43	192	 98.000
BPM	43	288	145.000
BPM	44	192	130.000
BPM	44	288	 97.000
BPM	45	288	170.000
BPM	82	0	165.000
BPM	82	96	145.000
BPM	82	192	105.000
BPM	82	288	 79.000
BPM	83	0	 81.000
MET	0	0	4	4
MET	2	0	4	3
MET	10	96	4	4
MET	43	96	4	2
MET	43	288	4	4

EXSTR	2	0	7
NMSI_	2	0	7	96	480	4
EXSTR	5	0	0
NMSI_	5	0	0	96	720	3
EXSTR	8	0	4
NMSI_	8	0	4	96	336	7
NMTAP	10	96	0
NMTAP	10	288	0
NMTAP	11	96	1
NMTAP	12	96	2
NMTAP	12	288	2
NMTAP	13	96	3
NMTAP	13	96	4
NMTAP	14	96	4
NMTAP	14	288	4
NMTAP	15	96	5
NMTAP	16	96	6
NMTAP	16	288	6
NMTAP	17	96	0
NMTAP	17	96	7
NMTAP	18	96	7
NMTAP	18	288	7
NMTAP	19	96	6
NMTAP	19	288	6
NMTAP	20	96	5
NMTAP	21	96	4
NMTAP	21	96	5
NMTAP	22	96	3
NMTAP	22	288	3
NMTAP	23	96	2
NMTAP	23	288	2
NMTAP	24	96	1
NMTAP	25	96	0
NMTAP	25	96	1
NMHLD	26	96	0	192
NMHLD	26	96	1	192
NMTAP	27	96	0
NMTAP	27	96	1
NMHLD	28	96	2	192
NMHLD	28	96	3	192
NMTAP	29	96	2
NMTAP	29	96	3
NMHLD	30	96	4	192
NMHLD	30	96	5	192
NMTAP	31	96	4
NMTAP	31	96	5
NMHLD	32	96	6	192
NMHLD	32	96	7	192
NMTAP	33	96	6
NMTAP	33	96	7
NMSTR	34	96	7
NMSI_	34	96	7	96	288	3
NMSTR	36	96	0
NMSI_	36	96	0	96	288	4
NMSTR	38	96	6
NMSI_	38	96	6	96	288	3
NMSTR	40	96	1
NMSI_	40	96	1	96	288	4
NMSTR	42	96	6
NMSI_	42	96	6	96	288	2
EXTAP	44	288	0
EXTAP	44	288	7
BXTAP	45	288	7
EXTAP	46	96	7
NMTAP	46	288	6
NMTAP	47	96	6
NMTAP	47	288	5
NMTAP	48	96	5
NMTAP	48	288	3
NMTAP	48	288	4
NMTAP	49	96	3
NMTAP	49	96	4
NMTAP	49	288	3
NMTAP	50	96	3
NMTAP	50	288	2
NMTAP	51	96	2
NMTAP	51	288	1
NMTAP	52	96	1
NMTAP	52	288	0
NMTAP	52	288	7
NMTAP	53	288	0
NMTAP	54	0	0
NMTAP	54	96	0
NMTAP	54	288	1
NMTAP	55	96	1
NMTAP	55	288	2
NMTAP	56	0	2
NMTAP	56	96	2
NMTAP	56	288	3
NMTAP	56	288	4
NMTAP	57	96	3
NMTAP	57	96	4
NMTAP	57	288	4
NMTAP	58	0	4
NMTAP	58	96	4
NMTAP	58	288	5
NMTAP	59	96	5
NMTAP	59	288	6
NMTAP	60	0	6
NMTAP	60	96	6
NMTAP	60	288	0
NMTAP	60	288	7
NMTTP	61	288	7	B	0	L1
NMTTP	62	288	0	B	0	L1
NMTTP	63	288	6	B	0	L1
NMTTP	64	288	1	B	0	L1
NMTTP	65	288	5	B	0	L1
NMTTP	66	288	2	B	0	L1
NMTHO	67	288	0	384	C	1	L1
BRTAP	69	288	0
NMTAP	70	0	0
NMTAP	70	96	0
NMTAP	70	288	1
NMTAP	71	0	1
NMTAP	71	96	1
NMTAP	71	288	2
NMTAP	72	0	2
NMTAP	72	96	2
NMTAP	72	288	3
NMTAP	73	0	3
NMTAP	73	96	3
NMTAP	73	96	4
NMTAP	73	288	4
NMTAP	74	0	4
NMTAP	74	96	4
NMTAP	74	288	5
NMTAP	75	0	5
NMTAP	75	96	5
NMTAP	75	288	6
NMTAP	76	0	6
NMTAP	76	96	6
BXTAP	76	288	0
BXTAP	76	288	7
NMTAP	77	288	7
NMTAP	78	0	7
NMTAP	78	96	7
NMTAP	78	288	6
NMTAP	78	288	7
NMTAP	79	96	6
NMTAP	79	96	7
NMTAP	79	288	0
NMTAP	80	0	0
NMTAP	80	96	0
BRTAP	80	288	0
BRTAP	80	288	7
NMHLD	81	288	1	672
NMHLD	81	288	6	672

T_REC_TAP	105
T_REC_BRK	3
T_REC_XTP	3
T_REC_BXX	3
T_REC_HLD	10
T_REC_XHO	0
T_REC_BHO	0
T_REC_BXH	0
T_REC_STR	5
T_REC_BST	0
T_REC_XST	3
T_REC_XBS	0
T_REC_TTP	6
T_REC_THO	1
T_REC_SLD	8
T_REC_BSL	0
T_REC_ALL	147
T_NUM_TAP	122
T_NUM_BRK	6
T_NUM_HLD	11
T_NUM_SLD	8
T_NUM_ALL	147
T_JUDGE_TAP	128
T_JUDGE_HLD	84
T_JUDGE_SLD	8
T_JUDGE_ALL	220
TTM_EACHPAIRS	25
TTM_SCR_TAP	61000
TTM_SCR_BRK	15600
TTM_SCR_HLD	11000
TTM_SCR_SLD	12000
TTM_SCR_ALL	99600
TTM_SCR_S	96050
TTM_SCR_SS	99000
TTM_RAT_ACV	10060

