VERSION	0.00.00	1.04.00
FES_MODE	0
BPM_DEF	176.000	176.000	176.000	176.000
MET_DEF	4	4
RESOLUTION	384
CLK_DEF	384
COMPATIBLE_CODE	MA2

BPM	0	0	176.000
MET	0	0	4	4

NMTAP	2	0	4
NMTAP	2	96	5
NMTAP	2	192	6
NMSTR	2	288	7
NMSI_	2	288	7	96	192	4
NMHLD	3	0	0	384
NMTAP	4	0	4
NMTAP	4	96	5
NMTAP	4	192	6
NMSTR	4	288	7
NMSI_	4	288	7	96	192	4
NMHLD	5	0	2	384
NMTAP	6	0	3
NMTAP	6	96	2
NMTAP	6	192	1
NMSTR	6	288	0
NMSLL	6	288	0	96	288	4
NMSLR	6	288	0	96	288	4
NMTAP	8	0	3
NMTAP	8	96	2
NMTAP	8	192	1
NMTAP	8	288	0
NMTAP	9	0	1
NMTAP	9	0	7
NMTAP	9	96	2
NMTAP	9	96	6
NMTAP	9	192	3
NMTAP	9	192	5
NMTAP	10	0	4
NMTAP	10	96	5
NMTAP	10	192	6
NMTAP	10	288	7
NMHLD	11	0	0	384
NMTAP	12	0	4
NMTAP	12	96	5
NMTAP	12	192	6
NMTAP	12	288	7
NMHLD	13	0	0	192
NMHLD	13	0	6	192
NMSTR	14	0	1
NMSUL	14	0	1	96	144	5
CNSCL	14	240	5	0	144	2
NMSTR	15	0	6
NMSUR	15	0	6	96	144	2
CNSCR	15	240	2	0	144	5
NMSTR	16	0	0
NMSUL	16	0	0	96	144	4
CNSCL	16	240	4	0	144	1
NMHLD	17	0	7	384
NMSTR	18	0	0
NMSSL	18	0	0	96	192	4
CNSCL	18	288	4	0	96	3
CNSSR	19	0	3	0	192	7
NMSTR	20	0	0
NMSCR	20	0	0	96	288	4
NMTAP	20	144	5
NMTAP	20	288	6
NMTTP	21	0	7	E	0	M1
NMTTP	21	96	6	E	0	M1
NMTTP	21	192	5	E	0	M1
NMSTR	22	0	7
NMSCL	22	0	7	96	288	3
NMTAP	22	144	2
NMTAP	22	288	1
NMTTP	23	0	1	E	0	M1
NMTTP	23	96	2	E	0	M1
NMTTP	23	192	3	E	0	M1
NMSTR	24	0	0
NMSCR	24	0	0	96	288	4
NMTAP	24	144	5
NMTAP	24	288	6
NMTTP	25	0	7	B	0	M1
NMTTP	25	96	1	B	0	M1
NMTTP	25	96	5	B	0	M1
NMTTP	25	192	3	E	0	M1
NMTTP	25	192	4	E	0	M1
NMSTR	26	0	7
NMSCL	26	0	7	96	288	3
NMTAP	26	144	2
NMTAP	26	288	1
NMHLD	27	0	1	192
NMTTP	27	192	4	E	0	M1
NMTAP	28	0	5
NMTAP	28	96	6
NMTAP	28	144	6
NMTAP	28	192	4
NMTAP	28	288	3
NMTAP	28	288	5
NMTAP	29	0	6
NMTAP	29	48	6
NMSTR	29	96	4
NMSCR	29	96	4	96	96	7
NMSUL	29	96	4	96	96	0
NMTAP	30	0	7
NMTAP	30	96	6
NMTAP	30	144	6
NMTAP	30	192	4
NMTAP	30	288	3
NMTAP	30	288	5
NMTAP	31	0	6
NMTAP	31	48	6
NMSTR	31	96	7
NMSCL	31	96	7	96	96	4
NMSUR	31	96	7	96	96	3
NMTAP	32	0	2
NMTAP	32	96	1
NMTAP	32	144	1
NMTAP	32	192	3
NMTAP	32	288	2
NMTAP	32	288	4
NMTAP	33	0	1
NMTAP	33	48	1
NMTAP	33	96	3
NMHLD	33	192	2	96
NMHLD	33	192	4	96
NMTAP	34	0	0
NMTAP	34	96	1
NMTAP	34	144	1
NMTAP	34	192	3
NMTAP	34	288	2
NMTAP	34	288	4
NMTAP	35	0	1
NMTAP	35	48	1
NMSTR	35	96	0
NMSCR	35	96	0	96	96	3
NMSUL	35	96	0	96	96	4
NMTAP	36	0	5
NMSTR	36	96	6
NMSUL	36	96	6	96	96	2
NMTAP	36	192	3
NMSTR	36	288	1
NMSI_	36	288	1	96	96	3
NMTAP	37	0	5
CNSI_	37	96	3	0	96	0
NMTAP	37	96	6
CNSI_	37	192	0	0	96	4
NMHLD	37	192	6	192
NMTAP	38	0	2
NMSTR	38	96	1
NMSI_	38	96	1	96	96	5
NMTAP	38	192	4
NMSTR	38	288	6
NMSCL	38	288	6	96	96	4
NMTAP	39	0	3
CNSV_	39	96	4	0	96	7
CNSUL	39	192	7	0	96	3
NMTAP	39	336	2
NMHLD	40	0	2	144
NMTAP	40	144	0
NMHLD	40	192	0	144
NMTAP	40	336	7
NMHLD	41	0	7	144
NMTAP	41	144	5
NMTAP	41	192	5
NMTAP	41	336	1
NMHLD	42	0	1	144
NMTAP	42	144	3
NMHLD	42	192	3	144
NMTAP	42	336	4
NMHLD	43	0	4	144
NMTAP	43	144	6
NMTAP	43	168	5
NMTAP	43	192	4
NMTAP	43	240	4
NMTAP	43	288	4
NMTAP	43	288	5
NMTAP	44	0	3
NMTAP	44	0	6
NMSTR	44	96	3
NMSUL	44	96	3	96	96	7
NMTAP	44	96	6
NMTAP	44	192	6
NMTAP	44	288	6
NMTAP	45	0	6
NMTAP	45	0	7
NMTAP	45	96	6
NMSTR	45	96	7
NMSUR	45	96	7	96	96	4
NMTAP	45	192	6
NMTAP	45	288	6
NMTAP	46	0	4
NMTAP	46	0	6
NMSTR	46	96	4
NMSLL	46	96	4	96	96	0
NMTAP	46	96	6
NMTAP	46	192	6
NMTAP	46	288	6
NMTAP	47	0	0
NMTAP	47	0	6
NMSTR	47	96	0
NMSCR	47	96	0	96	96	4
NMTAP	47	96	6
NMTAP	47	192	6
NMTAP	47	288	6
NMTAP	48	0	4
NMTAP	48	0	6
NMTAP	48	96	4
NMTAP	48	96	6
NMTAP	48	192	0
NMTAP	48	192	7
NMTAP	48	288	0
NMTAP	48	288	7
NMTAP	49	0	1
NMTAP	49	0	3
NMTAP	49	96	1
NMTAP	49	96	3
NMTAP	49	192	3
NMTAP	49	192	4
NMTAP	49	288	3
NMTAP	49	288	4
NMSTR	50	0	5
NMSCL	50	0	5	96	96	2
NMTAP	50	96	2
NMSTR	50	192	1
NMSI_	50	192	1	96	96	6
NMSTR	50	288	4
NMSCR	50	288	4	96	192	3
NMTAP	51	240	0
NMTAP	51	288	0
NMTAP	52	0	1
NMTAP	52	0	7
NMTAP	52	96	1
NMSTR	52	96	7
NMSI_	52	96	7	96	48	3
NMTAP	52	192	1
NMSTR	52	192	7
NMSI_	52	192	7	96	48	4
NMTAP	52	288	1
NMTAP	52	288	7
NMTAP	53	0	1
NMTAP	53	0	3
NMTAP	53	96	1
NMSTR	53	96	3
NMSI_	53	96	3	96	48	0
NMTAP	53	192	1
NMSTR	53	192	3
NMSI_	53	192	3	96	48	6
NMTAP	53	288	1
NMTAP	53	288	3
NMTAP	54	0	1
NMTAP	54	0	5
NMTAP	54	96	1
NMSTR	54	96	5
NMSI_	54	96	5	96	48	7
NMTAP	54	192	1
NMSTR	54	192	5
NMSI_	54	192	5	96	48	3
NMTAP	54	288	1
NMTAP	54	288	5
NMTAP	55	0	1
NMTAP	55	0	4
NMTAP	55	96	1
NMSTR	55	96	4
NMSI_	55	96	4	96	48	6
NMTAP	55	192	1
NMSTR	55	192	4
NMSI_	55	192	4	96	48	0
NMTAP	55	288	1
NMTAP	55	288	4
NMTAP	56	0	1
NMTAP	56	0	7
NMTAP	56	96	1
NMTAP	56	96	7
NMTAP	56	192	1
NMTAP	56	192	7
NMTAP	56	288	1
NMSTR	56	288	7
NMSI_	56	288	7	96	48	5
NMSTR	57	0	7
NMSI_	57	0	7	96	48	3
NMSTR	57	96	7
NMSI_	57	96	7	96	48	4
NMSTR	57	192	7
NMSI_	57	192	7	96	48	2
NMTAP	57	288	7
NMTTP	58	0	6	A	0	M1
NMTTP	58	16	6	D	0	M1
NMTTP	58	32	5	A	0	M1
NMTTP	58	48	5	D	0	M1
EXTAP	59	0	0
NMTAP	59	32	7
NMTAP	59	64	0
EXTAP	59	96	7
NMTAP	59	128	0
NMTAP	59	160	7
EXHLD	59	192	0	96
NMSTR	59	288	6
NMSCL	59	288	6	96	192	0
NMTAP	60	0	7
NMSTR	60	96	0
NMSCR	60	96	0	96	192	6
NMTAP	60	192	7
NMTAP	60	288	7
NMTAP	61	0	0
NMSTR	61	96	0
NMSI_	61	96	0	96	48	3
NMTAP	61	192	5
CNSI_	61	240	3	0	48	6
NMSTR	61	288	7
NMSI_	61	288	7	96	48	4
NMTAP	62	0	2
CNSI_	62	48	4	0	48	1
NMSTR	62	96	0
NMSI_	62	96	0	96	48	3
NMTAP	62	192	5
CNSI_	62	240	3	0	48	6
NMSTR	62	288	7
NMSCL	62	288	7	96	96	4
NMSCR	62	288	7	96	96	2
NMTAP	63	192	1
NMTAP	63	240	1
NMTAP	63	288	3
NMTAP	63	336	2
NMTAP	64	0	6
NMTAP	64	48	6
NMTAP	64	96	4
NMTAP	64	144	7
NMSTR	64	192	0
NMSCR	64	192	0	96	96	4
NMSTR	64	288	4
NMSCR	64	288	4	96	96	0
BRTAP	65	0	0
BRTAP	65	96	4
NMSTR	65	192	6
NMSI_	65	192	6	96	48	2
NMSTR	65	288	0
NMSI_	65	288	0	96	48	4
NMTAP	66	0	5
NMTAP	66	48	5
NMTAP	66	96	3
NMTAP	66	144	6
NMTAP	66	192	2
NMTAP	66	240	2
NMSTR	66	288	4
NMSXL	66	288	4	96	192	3
NMTAP	67	0	3
NMTAP	67	192	2
NMSTR	67	288	2
NMSCL	67	288	2	96	192	4
NMTAP	68	0	3
NMSTR	68	96	4
NMSCR	68	96	4	96	192	2
NMTAP	68	192	3
NMTAP	68	288	3
NMTAP	69	0	4
NMSTR	69	96	4
NMSI_	69	96	4	96	48	7
NMTAP	69	192	1
CNSI_	69	240	7	0	48	2
NMSTR	69	288	3
NMSI_	69	288	3	96	48	0
NMTAP	70	0	6
CNSI_	70	48	0	0	48	5
NMSTR	70	96	4
NMSI_	70	96	4	96	48	7
NMTAP	70	192	1
CNSI_	70	240	7	0	48	2
NMSTR	70	288	3
NMSCL	70	288	3	96	96	0
NMSCR	70	288	3	96	96	6
NMTAP	71	192	6
NMTAP	71	240	6
NMTAP	71	288	7
NMTAP	71	336	5
NMTAP	72	0	1
NMTAP	72	48	1
NMTAP	72	96	0
NMTAP	72	144	2
NMTAP	72	192	6
NMTAP	72	240	6
NMSTR	72	288	4
NMSI_	72	288	4	96	48	2
NMSTR	73	0	4
NMSI_	73	0	4	96	48	6
NMTAP	73	96	4
NMTAP	73	192	0
NMTAP	73	288	1
NMTAP	73	288	7
NMTAP	74	0	6
NMTAP	74	48	6
NMTAP	74	96	4
NMTAP	74	144	5
NMTAP	74	192	1
NMTAP	74	240	1
NMSTR	74	288	3
NMSI_	74	288	3	96	48	7
NMHLD	75	0	2	1632
NMTAP	75	0	3
NMTAP	75	192	7
NMSTR	75	288	0
NMSI_	75	288	0	96	48	4
BRTAP	76	0	0
NMSTR	76	96	5
NMSI_	76	96	5	96	48	1
BRTAP	76	192	5
NMSTR	76	288	7
NMSI_	76	288	7	96	48	3
BRTAP	77	0	7
NMSTR	77	96	1
NMSI_	77	96	1	96	48	5
BRTAP	77	192	1
NMSTR	77	288	6
NMSCL	77	288	6	96	48	3
BRTAP	78	0	6
NMSTR	78	96	0
NMSI_	78	96	0	96	48	3
BRTAP	78	192	0
NMSTR	78	288	4
NMSI_	78	288	4	96	48	7
BRTAP	79	0	4
NMSTR	79	96	0
BRSF_	79	96	0	96	96	4
NMTAP	80	0	2
NMTAP	80	0	6
NMTAP	80	96	5
NMTAP	80	144	5
NMTAP	80	192	4
NMTAP	80	192	6
NMTAP	80	288	6
NMTAP	80	288	7
NMTAP	81	0	5
NMTAP	81	0	7
NMTAP	81	96	0
NMTAP	81	96	7
NMTAP	81	192	0
NMTAP	81	192	1
NMTAP	81	288	2
NMTAP	81	288	3
NMTAP	82	0	1
NMTAP	82	0	4
NMTAP	82	96	2
NMTAP	82	144	2
NMTAP	82	192	1
NMSTR	82	192	3
NMSV_	82	192	3	96	48	0
NMSTR	82	288	0
NMSCR	82	288	0	96	192	7
NMTAP	82	288	3
BRTAP	83	288	0
NMSTR	84	0	7
NMSLL	84	0	7	96	96	3
NMTAP	84	96	2
NMTAP	84	144	2
NMTAP	84	240	1
NMHLD	84	288	1	96
NMHLD	85	0	3	96
NMTTP	85	96	4	E	0	M1
NMTTP	85	144	2	E	0	M1
NMTTP	85	192	0	E	0	M1
NMTAP	85	288	4
NMSTR	86	0	0
NMSLR	86	0	0	96	96	4
NMTAP	86	96	5
NMTAP	86	144	5
NMTAP	86	240	6
NMHLD	86	288	6	96
NMHLD	87	0	4	96
NMTTP	87	96	4	E	0	M1
NMTTP	87	144	6	E	0	M1
NMTTP	87	192	0	E	0	M1
NMTAP	87	288	3
NMSTR	88	0	7
NMSLL	88	0	7	96	96	3
NMTAP	88	96	2
NMTAP	88	144	2
NMTAP	88	240	1
NMHLD	88	288	1	96
NMHLD	89	0	3	96
NMTTP	89	96	4	E	0	M1
NMTTP	89	144	2	E	0	M1
NMTTP	89	192	0	E	0	M1
NMTTP	89	288	2	B	0	M1
NMTTP	89	288	3	B	0	M1
NMSTR	90	0	0
NMSLR	90	0	0	96	96	4
NMTAP	90	96	5
NMTAP	90	144	5
NMTAP	90	240	6
NMHLD	90	288	6	96
NMHLD	91	0	4	96
NMTTP	91	96	4	E	0	M1
NMTTP	91	144	6	E	0	M1
NMTTP	91	192	0	E	0	M1
NMTAP	91	288	1
NMSTR	91	288	5
NMSI_	91	288	5	96	48	2
NMTAP	92	0	1
BRTAP	92	0	5
NMTAP	92	96	1
NMSTR	92	96	3
NMSI_	92	96	3	96	48	0
NMTAP	92	192	1
BRTAP	92	192	3
NMTAP	92	288	1
NMSTR	92	288	4
NMSI_	92	288	4	96	48	7
NMTAP	93	0	1
BRTAP	93	0	4
NMSTR	93	96	0
NMSI_	93	96	0	96	48	4
NMTAP	93	96	1
BRTAP	93	192	0
NMTAP	93	192	1
NMSTR	93	288	2
NMSI_	93	288	2	96	48	5
NMTAP	93	288	6
BRTAP	94	0	2
NMTAP	94	0	6
NMSTR	94	96	4
NMSI_	94	96	4	96	48	7
NMTAP	94	96	6
BRTAP	94	192	4
NMTAP	94	192	6
NMSTR	94	288	3
NMSI_	94	288	3	96	48	0
NMTAP	94	288	6
BRTAP	95	0	3
NMTAP	95	0	6
NMTAP	95	96	6
NMSTR	95	96	7
NMSI_	95	96	7	96	48	3
NMTAP	95	192	6
BRTAP	95	192	7
NMSTR	95	288	1
NMSI_	95	288	1	96	48	4
NMSTR	95	288	5
NMSI_	95	288	5	96	48	0
NMTAP	96	0	1
NMTAP	96	0	5
NMSTR	96	96	3
NMSI_	96	96	3	96	48	0
NMSTR	96	96	7
NMSI_	96	96	7	96	48	4
NMTAP	96	192	3
NMTAP	96	192	7
NMSTR	96	288	2
NMSI_	96	288	2	96	48	7
NMSTR	96	288	6
NMSI_	96	288	6	96	48	3
NMTAP	97	0	2
NMTAP	97	0	6
NMTAP	97	96	0
NMTAP	97	96	4
NMTAP	97	192	1
NMTAP	97	192	5
NMTAP	97	288	1
NMTAP	97	288	5
NMTAP	98	0	2
NMTAP	98	32	4
NMTAP	98	64	2
NMTAP	98	96	4
NMTAP	98	128	2
NMTAP	98	160	4
NMTAP	98	192	2
NMTAP	98	224	4
NMTAP	98	256	2
NMTAP	98	288	4
NMTAP	98	320	2
NMTAP	98	352	4
NMTAP	99	0	1
NMTAP	99	32	5
NMTAP	99	64	1
NMTAP	99	96	5
NMTAP	99	128	1
NMTAP	99	160	5
NMTAP	99	192	0
NMTAP	99	224	6
NMTAP	99	256	0
NMTAP	99	288	6
NMTAP	99	320	0
NMTAP	99	352	6
BRHLD	100	0	7	384
NMTAP	102	0	4
NMTAP	102	48	3
NMHLD	102	96	2	96
NMTTP	102	192	4	E	0	M1
NMTAP	103	0	4
NMTAP	103	48	3
NMHLD	103	96	2	96
NMTTP	103	192	4	E	0	M1
NMTAP	104	0	4
NMTAP	104	48	3
NMHLD	104	96	2	480
NMHLD	104	192	4	384
NMTAP	106	0	4
NMTAP	106	48	3
NMHLD	106	96	2	96
NMTTP	106	192	4	E	0	M1
NMTAP	107	0	4
NMTAP	107	48	3
NMHLD	107	96	2	96
NMTTP	107	192	4	E	0	M1
NMTAP	108	0	4
NMTAP	108	48	3
NMHLD	108	96	2	96
NMTTP	108	192	5	E	0	M1
NMTAP	109	0	5
NMTAP	109	24	4
NMTAP	109	48	3
NMTAP	110	64	4
NMTAP	110	96	3
NMHLD	110	128	2	1120

T_REC_TAP	321
T_REC_BRK	18
T_REC_XTP	2
T_REC_BXX	0
T_REC_HLD	33
T_REC_XHO	1
T_REC_BHO	1
T_REC_BXH	0
T_REC_STR	85
T_REC_BST	0
T_REC_XST	0
T_REC_XBS	0
T_REC_TTP	35
T_REC_THO	0
T_REC_SLD	90
T_REC_BSL	1
T_REC_ALL	587
T_NUM_TAP	443
T_NUM_BRK	20
T_NUM_HLD	34
T_NUM_SLD	90
T_NUM_ALL	587
T_JUDGE_TAP	461
T_JUDGE_HLD	182
T_JUDGE_SLD	91
T_JUDGE_ALL	734
TTM_EACHPAIRS	83
TTM_SCR_TAP	221500
TTM_SCR_BRK	52000
TTM_SCR_HLD	34000
TTM_SCR_SLD	135000
TTM_SCR_ALL	442500
TTM_SCR_S	427300
TTM_SCR_SS	440500
TTM_RAT_ACV	10045

