VERSION	0.00.00	1.04.00
FES_MODE	0
BPM_DEF	176.000	176.000	176.000	176.000
MET_DEF	4	4
RESOLUTION	384
CLK_DEF	384
COMPATIBLE_CODE	MA2

BPM	0	0	176.000
MET	0	0	4	4

NMHLD	2	0	5	768
NMTTP	3	0	4	B	0	M1
NMHLD	4	0	4	384
NMTTP	5	0	5	B	0	M1
NMTTP	5	192	4	E	0	M1
NMHLD	6	0	2	768
NMTTP	7	0	3	B	0	M1
NMHLD	8	0	3	384
NMTTP	9	0	2	B	0	M1
NMTTP	9	192	4	E	0	M1
NMHLD	10	0	5	768
NMTTP	10	192	5	B	0	M1
NMTTP	11	0	4	B	0	M1
NMTTP	11	192	4	E	0	M1
NMHLD	12	0	2	768
NMTTP	12	192	2	B	0	M1
NMTTP	13	0	3	B	0	M1
NMTTP	13	192	4	E	0	M1
NMHLD	14	0	5	192
NMHLD	14	192	4	192
NMHLD	15	0	3	192
NMTAP	15	192	2
NMTAP	16	0	2
NMTAP	16	0	4
NMTAP	16	192	3
NMTAP	16	192	5
NMTAP	17	0	4
NMSTR	17	0	6
NMSCR	17	0	6	96	480	4
NMTAP	20	0	1
NMHLD	20	96	1	96
NMTAP	20	192	0
NMTAP	20	288	0
NMTAP	21	0	2
NMTAP	21	96	3
NMTAP	21	192	2
NMTAP	21	192	4
NMTAP	22	0	6
NMHLD	22	96	6	96
NMTAP	22	192	7
NMTAP	22	288	7
NMTAP	23	0	5
NMTAP	23	96	4
NMTAP	23	192	3
NMTAP	23	192	5
NMTAP	24	0	1
NMHLD	24	96	1	96
NMTAP	24	192	0
NMTAP	24	288	0
NMTAP	25	0	2
NMTAP	25	96	3
NMTAP	25	192	3
NMTAP	25	192	4
NMTAP	26	0	1
NMTAP	26	0	6
NMTAP	26	96	2
NMTAP	26	96	5
NMTAP	26	192	3
NMTAP	26	192	4
EXSTR	27	0	0
NMSCR	27	0	0	96	144	3
EXSTR	27	0	7
NMSCL	27	0	7	96	144	4
NMHLD	28	0	1	192
NMHLD	28	192	3	192
NMSTR	29	0	2
NMSI_	29	0	2	96	96	4
NMHLD	30	0	6	192
NMHLD	30	192	4	192
NMSTR	31	0	5
NMSI_	31	0	5	96	96	3
NMTAP	32	0	1
NMTAP	32	96	1
NMHLD	32	192	3	192
NMHLD	33	0	4	192
NMTAP	33	192	5
NMTAP	34	0	6
NMTAP	34	96	6
NMHLD	34	192	4	192
NMSTR	35	0	3
NMSI_	35	0	3	96	144	7
NMTAP	36	0	2
NMHLD	36	96	2	96
NMTAP	36	192	3
NMTAP	36	288	3
NMTAP	37	0	2
NMTAP	37	96	1
NMTAP	37	192	0
NMTAP	37	192	1
NMTAP	38	0	6
NMHLD	38	96	6	96
NMTAP	38	192	7
NMTAP	38	288	7
NMTAP	39	0	6
NMTAP	39	96	5
NMTAP	39	192	4
NMTAP	39	192	5
NMSTR	40	0	5
NMSV_	40	0	5	96	144	2
NMSTR	41	0	1
NMSUR	41	0	1	96	192	6
NMSTR	42	0	4
NMSCR	42	0	4	96	192	7
NMTAP	43	0	2
NMTAP	43	0	6
EXTAP	43	192	4
EXTAP	43	240	4
EXTAP	43	288	3
BRTAP	44	0	6
NMTAP	44	96	4
NMTAP	44	96	5
NMTAP	44	192	3
NMTAP	44	288	2
NMTAP	44	288	4
NMTAP	45	0	1
NMTAP	45	48	1
NMTAP	45	96	0
NMTAP	45	192	2
NMTAP	45	192	7
NMTAP	45	288	3
NMTAP	46	0	4
NMTAP	46	0	5
NMTAP	46	96	6
NMTAP	46	192	5
NMTAP	46	192	7
NMTAP	46	288	0
NMTAP	46	288	1
NMTAP	47	0	2
NMTAP	47	48	2
NMTAP	47	96	3
NMTAP	47	192	1
NMTAP	47	192	4
NMTAP	47	288	5
NMTAP	48	0	6
NMHLD	48	96	6	96
NMTAP	48	192	4
NMHLD	48	288	4	96
NMTAP	49	0	3
NMHLD	49	96	3	96
NMTAP	49	192	1
NMTAP	49	288	1
NMTAP	50	0	0
NMSTR	50	0	2
NMSI_	50	0	2	96	72	4
CNSI_	50	168	4	0	120	6
NMHLD	51	0	0	96
NMHLD	51	0	7	96
NMTAP	51	192	1
NMTAP	51	192	6
NMTAP	52	0	2
NMHLD	52	0	3	480
NMTAP	52	96	2
NMTAP	52	192	1
NMTAP	52	288	1
NMTAP	53	0	0
NMSTR	53	96	0
NMSCR	53	96	0	96	96	3
NMHLD	54	0	4	480
NMTAP	54	0	5
NMTAP	54	96	5
NMTAP	54	192	6
NMTAP	54	288	6
NMTAP	55	0	7
NMSTR	55	96	7
NMSCL	55	96	7	96	96	4
NMTAP	56	0	1
NMTAP	56	96	1
NMTAP	56	192	2
NMTAP	56	192	3
NMTAP	56	288	2
NMTAP	56	288	3
NMTAP	57	0	4
NMTAP	57	0	5
NMTAP	57	96	4
NMTAP	57	96	5
NMTAP	57	192	0
NMTAP	57	192	7
NMTAP	57	288	0
NMTAP	57	288	7
NMHLD	58	0	1	288
NMHLD	58	0	6	288
BXSTR	59	0	1
NMSI_	59	0	1	96	48	6
BXTAP	59	0	6
EXTAP	59	192	5
EXTAP	59	288	5
NMSTR	60	0	3
NMSCL	60	0	3	96	96	7
NMTAP	60	0	4
NMTAP	60	192	4
NMTAP	60	288	5
NMTAP	60	336	5
NMTAP	61	0	7
NMSTR	61	192	6
NMSI_	61	192	6	96	48	3
NMTAP	61	336	2
NMSTR	62	0	2
NMSI_	62	0	2	96	48	7
NMTAP	62	144	5
NMSTR	62	192	5
NMSI_	62	192	5	96	48	0
NMTAP	62	336	1
NMSTR	63	0	1
NMSI_	63	0	1	96	48	4
NMTAP	63	192	6
NMTAP	63	288	6
NMTAP	63	288	7
NMTAP	64	0	1
NMTAP	64	48	1
NMTAP	64	96	0
NMTAP	64	192	6
NMTAP	64	240	6
NMTAP	64	288	7
NMTAP	65	0	0
NMTAP	65	0	6
NMTAP	65	96	1
NMTAP	65	96	7
NMHLD	65	192	2	96
NMTAP	65	288	0
NMTAP	66	0	5
NMTAP	66	48	5
NMTAP	66	96	7
NMTAP	66	192	2
NMTAP	66	240	2
NMTAP	66	288	0
NMTAP	67	0	1
NMSTR	67	0	7
NMSI_	67	0	7	96	48	3
NMTAP	67	192	0
NMTAP	67	288	1
NMTAP	68	0	2
NMSTR	68	0	4
NMSCR	68	0	4	96	96	0
NMTAP	68	192	3
NMTAP	68	288	2
NMTAP	68	336	2
NMTAP	69	0	0
NMSTR	69	192	1
NMSI_	69	192	1	96	48	4
NMTAP	69	336	5
NMSTR	70	0	5
NMSI_	70	0	5	96	48	0
NMTAP	70	144	2
NMSTR	70	192	2
NMSI_	70	192	2	96	48	7
NMTAP	70	336	6
NMSTR	71	0	6
NMSI_	71	0	6	96	48	3
NMTAP	71	192	1
NMTAP	71	288	0
NMTAP	71	288	1
NMTAP	72	0	6
NMTAP	72	48	6
NMTAP	72	96	7
NMTAP	72	192	4
NMTAP	72	192	5
NMTAP	72	288	2
NMTAP	72	288	3
NMTAP	73	0	1
NMTAP	73	48	1
NMSTR	73	96	0
NMSI_	73	96	0	96	48	4
NMTAP	73	288	2
NMTAP	74	0	3
NMTAP	74	0	4
NMTAP	74	96	5
NMTAP	74	192	6
NMTAP	74	192	7
NMTAP	74	288	0
NMTAP	74	288	1
NMTAP	75	0	2
NMSTR	75	0	7
NMSI_	75	0	7	96	48	3
NMTAP	75	192	1
NMTAP	75	192	5
NMTAP	75	288	2
NMTAP	75	288	6
BRTAP	76	0	3
BRTAP	76	0	7
NMTAP	76	96	3
NMTAP	76	96	7
NMTAP	76	192	2
NMTAP	76	192	6
NMTAP	76	288	2
NMTAP	76	288	6
NMTAP	77	0	1
NMTAP	77	0	5
NMTAP	77	96	1
NMTAP	77	96	5
NMTAP	77	192	0
NMTAP	77	192	4
NMTAP	77	288	0
NMTAP	77	288	4
BRSTR	78	0	3
NMSCR	78	0	3	96	96	6
BRSTR	78	0	7
NMSCR	78	0	7	96	96	2
EXTAP	78	288	7
EXTAP	78	336	7
EXTAP	79	0	0
NMTAP	79	96	1
NMTAP	79	96	6
NMTAP	79	144	1
NMTAP	79	144	6
NMTAP	79	240	2
NMTAP	79	240	5
BRTAP	79	288	2
BRTAP	79	288	5
NMTAP	80	0	3
NMTAP	80	96	2
NMTAP	80	192	1
NMTAP	80	288	0
NMTAP	81	0	7
NMTAP	81	96	6
NMTAP	81	192	5
NMTAP	81	288	3
NMTAP	81	288	4
NMHLD	82	0	5	96
NMHLD	82	96	7	96
NMHLD	82	192	1	96
NMHLD	82	288	3	96
NMSTR	83	0	4
NMSI_	83	0	4	96	96	0
NMTAP	84	0	2
NMHLD	84	96	2	96
NMTAP	84	192	0
NMTAP	84	288	7
NMTAP	85	0	6
NMTAP	85	96	5
NMTAP	85	192	2
NMTAP	85	192	4
NMTAP	85	288	2
NMTAP	85	288	4
NMTAP	86	0	3
NMTAP	86	96	4
NMTAP	86	192	5
NMTAP	86	288	6
NMTAP	86	288	7
NMTAP	87	0	0
NMTAP	87	0	1
NMTAP	87	96	2
NMSTR	87	192	3
NMSCL	87	192	3	96	192	5
NMTAP	87	192	4
NMTAP	88	192	7
NMTAP	88	288	6
NMSTR	89	0	5
NMSI_	89	0	5	96	96	1
NMTAP	89	288	2
NMSTR	90	0	3
NMSI_	90	0	3	96	96	0
EXSTR	90	288	7
NMSCL	90	288	7	96	240	3
NMSCR	90	288	7	96	240	3
NMTAP	92	0	0
NMTAP	92	0	1
NMTAP	92	96	2
NMTAP	92	144	2
NMTAP	92	192	3
NMTAP	92	288	5
NMTAP	92	336	5
NMTAP	93	0	4
NMTAP	93	96	2
NMTAP	93	144	2
NMTAP	93	192	3
NMTAP	93	288	4
NMTAP	93	288	5
NMTAP	94	0	6
NMTAP	94	0	7
NMTAP	94	96	1
NMTAP	94	144	1
NMTAP	94	192	0
NMTAP	94	288	6
NMTAP	94	336	6
NMTAP	95	0	7
NMTAP	95	96	1
NMTAP	95	144	1
NMTAP	95	192	0
NMTAP	95	288	2
NMTAP	95	288	7
NMTAP	96	0	0
NMTAP	96	0	1
NMTAP	96	96	4
NMTAP	96	96	5
NMTAP	96	192	6
NMTAP	96	192	7
NMTAP	96	288	2
NMTAP	96	288	3
NMTAP	97	0	1
NMTAP	97	0	7
NMTAP	97	96	4
NMTAP	97	96	5
NMTAP	97	192	0
NMTAP	97	192	6
NMTAP	97	288	2
NMTAP	97	288	3
BXSTR	98	0	0
NMSI_	98	0	0	96	48	4
BXSTR	98	0	1
NMSI_	98	0	1	96	48	3
BXSTR	98	192	6
NMSI_	98	192	6	96	48	4
BXSTR	98	192	7
NMSI_	98	192	7	96	48	3
BRSTR	99	0	0
BRSCR	99	0	0	96	288	7
BRSTR	99	0	7
BRSCL	99	0	7	96	288	0
NMTTP	102	0	5	E	0	M1
NMTTP	102	48	4	E	0	M1
NMTTP	102	96	3	E	0	M1
NMTTP	103	0	2	E	0	M1
NMTTP	103	48	3	E	0	M1
NMTTP	103	96	4	E	0	M1
NMTTP	104	0	6	E	0	M1
NMTTP	104	48	5	E	0	M1
NMTTP	104	96	4	E	0	M1
NMTTP	106	0	2	E	0	M1
NMTTP	106	48	2	B	0	M1
NMTTP	106	96	3	B	0	M1
NMTTP	107	0	6	E	0	M1
NMTTP	107	48	5	B	0	M1
NMTTP	107	96	4	B	0	M1
NMTTP	108	0	3	A	0	M1
NMTTP	108	48	4	D	0	M1
NMTTP	108	96	4	A	0	M1
NMTTP	109	0	0	C	0	M1

T_REC_TAP	266
T_REC_BRK	5
T_REC_XTP	8
T_REC_BXX	1
T_REC_HLD	36
T_REC_XHO	0
T_REC_BHO	0
T_REC_BXH	0
T_REC_STR	27
T_REC_BST	4
T_REC_XST	3
T_REC_XBS	5
T_REC_TTP	31
T_REC_THO	0
T_REC_SLD	38
T_REC_BSL	2
T_REC_ALL	426
T_NUM_TAP	335
T_NUM_BRK	17
T_NUM_HLD	36
T_NUM_SLD	38
T_NUM_ALL	426
T_JUDGE_TAP	350
T_JUDGE_HLD	184
T_JUDGE_SLD	40
T_JUDGE_ALL	574
TTM_EACHPAIRS	82
TTM_SCR_TAP	167500
TTM_SCR_BRK	44200
TTM_SCR_HLD	36000
TTM_SCR_SLD	57000
TTM_SCR_ALL	304700
TTM_SCR_S	293950
TTM_SCR_SS	303000
TTM_RAT_ACV	10056

