VERSION	0.00.00	1.04.00
FES_MODE	0
BPM_DEF	170.000	170.000	170.000	170.000
MET_DEF	4	4
RESOLUTION	384
CLK_DEF	384
COMPATIBLE_CODE	MA2

BPM	0	0	170.000
MET	0	0	4	4

NMTAP	1	192	4
NMTAP	1	216	3
NMTAP	1	240	4
NMTAP	1	264	3
NMSTR	1	288	4
NMSCR	1	288	4	96	144	7
EXHLD	2	0	2	192
NMSTR	2	288	3
NMSCL	2	288	3	96	144	0
EXHLD	3	0	5	192
NMSTR	3	288	0
NMSCR	3	288	0	96	144	3
NMSTR	3	288	7
NMSCL	3	288	7	96	144	4
NMTAP	4	288	3
NMTAP	4	288	4
NMHLD	5	0	2	96
NMHLD	5	0	5	96
NMTAP	5	192	2
NMTAP	5	192	5
NMTAP	5	240	3
NMTAP	5	264	4
NMTAP	5	288	3
NMTAP	5	312	4
NMTAP	5	336	3
NMTAP	5	360	4
NMSTR	6	0	2
NMSI_	6	0	2	96	48	5
NMTAP	6	96	7
NMTAP	6	144	7
NMTAP	6	240	6
NMTAP	6	288	6
NMTAP	6	336	4
NMTAP	7	0	3
NMSTR	7	0	5
NMSI_	7	0	5	96	48	2
NMTAP	7	96	0
NMTAP	7	144	0
NMTAP	7	240	1
NMTAP	7	288	1
NMTAP	7	336	3
NMSTR	8	0	2
NMSXR	8	0	2	96	192	7
NMTAP	8	96	4
NMTAP	8	144	4
NMTAP	8	240	6
NMHLD	8	288	6	96
NMSTR	9	0	0
NMSI_	9	0	0	96	48	4
BRTAP	9	192	2
BRTAP	9	192	6
NMTAP	10	0	2
NMTAP	10	0	4
NMTAP	10	96	2
NMTAP	10	96	4
NMTAP	10	144	5
NMTAP	10	192	4
NMTAP	10	192	6
NMTAP	10	288	4
NMTAP	10	288	6
NMTAP	10	336	3
NMTAP	11	0	2
NMTAP	11	0	4
NMTAP	11	96	2
NMTAP	11	96	4
NMTAP	11	144	5
NMHLD	11	192	4	96
NMHLD	11	192	6	96
NMTAP	12	0	3
NMSTR	12	0	5
NMSCL	12	0	5	96	96	2
NMTAP	12	96	1
NMTAP	12	144	1
NMSTR	12	192	0
NMSI_	12	192	0	96	96	4
NMTAP	12	288	7
NMHLD	13	0	6	96
NMTAP	13	96	4
NMTAP	13	144	4
NMTAP	13	192	5
NMTAP	13	288	4
NMTAP	13	288	6
NMTAP	14	0	3
NMTAP	14	0	5
NMTAP	14	96	3
NMTAP	14	96	5
NMTAP	14	144	2
NMTAP	14	192	1
NMTAP	14	192	3
NMTAP	14	288	1
NMTAP	14	288	3
NMTAP	14	336	4
NMTAP	15	0	3
NMTAP	15	0	5
NMTAP	15	96	3
NMTAP	15	96	5
NMTAP	15	144	2
NMHLD	15	192	1	96
NMSTR	15	288	3
NMSI_	15	288	3	96	96	6
NMTAP	16	0	0
NMTAP	16	96	1
CNSI_	16	96	6	0	96	4
NMTAP	16	192	2
CNSI_	16	192	4	0	96	0
EXTAP	16	288	3
BXHLD	16	336	3	96
NMTAP	17	48	7
NMTAP	17	96	7
NMTAP	17	144	7
NMTAP	17	192	6
NMTAP	17	216	4
NMTAP	17	240	6
NMTAP	17	264	4
EXTAP	17	288	3
EXTAP	17	288	5
NMTAP	18	0	2
NMTAP	18	0	4
NMTAP	18	48	1
NMTAP	18	96	0
NMTAP	18	144	6
NMTAP	18	144	7
NMTAP	18	192	6
NMTAP	18	192	7
NMTAP	18	240	5
NMTAP	18	288	4
NMTAP	18	336	3
NMTAP	18	336	5
NMTAP	19	0	3
NMTAP	19	0	5
NMTAP	19	48	6
NMTAP	19	96	7
NMTAP	19	144	0
NMTAP	19	144	1
NMTAP	19	192	0
NMTAP	19	192	1
NMTAP	19	240	2
NMTAP	19	240	7
NMTAP	19	288	3
NMTAP	19	288	6
NMTAP	19	336	5
NMSTR	20	0	2
NMSCL	20	0	2	96	48	7
NMTAP	20	48	2
NMTAP	20	96	6
NMTAP	20	144	5
NMSTR	20	192	4
NMSI_	20	192	4	96	48	0
NMTAP	20	240	4
NMTAP	20	288	1
NMTAP	20	336	2
NMSTR	21	0	3
NMSI_	21	0	3	96	48	7
NMTAP	21	48	3
NMTAP	21	96	6
NMTAP	21	144	5
EXTAP	21	192	0
NMTAP	21	192	4
NMTAP	21	288	6
NMTAP	21	312	4
NMTAP	21	336	6
NMTAP	21	360	4
NMSTR	22	0	7
BRSLL	22	0	7	96	96	3
NMTAP	22	96	0
NMTAP	22	144	0
NMTAP	22	192	1
NMTAP	22	240	1
NMTAP	22	288	2
NMTAP	22	312	3
NMTAP	22	336	2
NMTAP	22	360	3
NMSTR	23	0	2
BRSLL	23	0	2	96	96	6
NMTAP	23	96	4
NMTAP	23	144	4
NMTAP	23	192	5
NMTAP	23	240	5
NMSTR	23	288	6
NMSI_	23	288	6	96	48	3
NMSTR	23	288	7
NMSI_	23	288	7	96	48	3
BRTAP	24	0	6
BRTAP	24	0	7
NMSTR	24	96	0
NMSI_	24	96	0	96	48	4
NMSTR	24	96	1
NMSI_	24	96	1	96	48	4
BRTAP	24	192	0
BRTAP	24	192	1
NMTAP	24	288	2
NMTAP	24	288	6
NMSTR	24	336	2
NMSLR	24	336	2	96	120	0
NMSTR	24	336	6
NMSLL	24	336	6	96	120	0
NMTAP	25	240	7
NMTAP	25	288	0
NMTAP	25	336	1
NMHLD	26	0	2	336
NMTAP	26	96	4
NMTAP	26	144	4
NMTAP	26	240	3
NMTHO	26	336	0	240	C	0	M1
NMTTP	27	96	3	E	0	M1
NMTTP	27	96	3	D	0	M1
NMTTP	27	192	2	E	0	M1
NMTTP	27	192	2	D	0	M1
NMTTP	27	288	1	E	0	M1
NMTTP	27	288	1	D	0	M1
NMSTR	28	0	0
NMSLL	28	0	0	96	144	2
NMHLD	28	0	1	384
NMTAP	29	0	0
NMTAP	29	96	2
NMTAP	29	96	3
NMTAP	29	144	2
NMTAP	29	144	3
NMTAP	29	240	4
NMTAP	29	240	5
NMTAP	29	288	4
NMTAP	29	288	5
EXHLD	30	0	6	432
NMTAP	30	96	4
BXTAP	30	144	4
BXTAP	30	240	5
BXHLD	30	336	7	96
NMTAP	31	96	6
NMSTR	31	96	7
BRSI_	31	96	7	96	96	2
NMTTP	31	192	7	E	0	M1
NMTTP	31	288	0	C	0	M1
CNSI_	31	288	2	0	96	5
CNSI_	32	0	5	0	96	0
NMTTP	32	0	6	A	0	M1
EXTAP	32	96	7
EXHLD	32	144	7	96
NMSTR	32	240	0
NMSCL	32	240	0	96	144	5
NMSCR	32	240	0	96	144	3
NMHLD	33	192	4	96
NMHLD	33	288	2	96
EXTAP	34	0	0
NMTAP	34	96	6
NMTAP	34	96	7
NMHLD	34	144	6	96
NMTAP	34	144	7
NMSTR	34	240	5
NMSUL	34	240	5	96	96	1
NMTAP	34	336	6
NMTAP	35	48	7
NMTAP	35	96	7
NMTAP	35	192	0
NMTAP	35	192	1
NMTAP	35	288	3
NMTAP	35	288	4
NMTAP	36	0	6
NMTAP	36	0	7
NMTAP	36	96	0
NMTAP	36	96	1
NMTAP	36	144	0
NMHLD	36	144	1	96
NMSTR	36	240	2
NMSUR	36	240	2	96	96	6
NMTAP	36	336	1
NMTAP	37	48	0
NMTAP	37	96	0
NMTAP	37	192	0
NMTAP	37	192	1
NMTAP	37	288	1
NMTAP	37	288	2
NMTAP	38	0	2
NMSTR	38	0	3
NMSCR	38	0	3	96	192	7
NMTAP	38	144	0
NMTAP	38	192	0
NMTAP	38	288	2
NMSTR	39	0	4
BRSCL	39	0	4	96	192	0
NMTAP	39	0	6
NMTAP	39	96	6
NMTAP	39	192	5
NMTAP	39	288	5
EXTAP	40	0	0
EXTAP	40	0	4
NMTAP	40	96	2
NMTAP	40	144	3
NMTAP	40	192	1
NMTAP	40	192	4
NMTAP	40	288	5
NMTAP	40	336	4
NMTAP	41	0	3
NMSTR	41	0	6
NMSCR	41	0	6	96	96	1
NMSTR	41	96	1
NMSCR	41	96	1	96	96	4
NMSTR	41	192	4
NMSCR	41	192	4	96	96	7
NMTAP	41	288	7
NMHLD	42	0	0	96
NMTAP	42	96	7
NMSTR	42	144	1
NMSI_	42	144	1	96	48	4
NMSTR	42	144	6
NMSI_	42	144	6	96	48	3
NMTAP	42	240	1
NMTAP	42	240	6
NMTAP	42	336	2
NMTAP	42	336	5
NMTAP	43	48	0
NMTAP	43	48	7
NMTAP	43	96	0
NMTAP	43	96	7
NMTAP	43	144	1
NMTAP	43	144	6
NMTAP	43	192	3
NMTAP	43	192	4
NMTAP	43	240	5
NMSTR	43	288	6
BRSCL	43	288	6	96	48	3
NMTAP	43	336	7
NMTAP	44	0	0
BRTAP	44	0	6
NMSTR	44	96	7
NMSCL	44	96	7	96	48	4
NMTAP	44	144	0
NMTAP	44	192	1
BRTAP	44	192	7
NMSTR	44	288	0
BRSI_	44	288	0	96	48	5
NMTAP	44	336	1
BRTAP	45	0	0
NMHLD	45	0	2	192
CNSCL	45	48	5	0	96	1
CNSI_	45	144	1	0	48	6
NMTTP	45	192	6	A	1	M1
NMTTP	45	192	7	E	0	M1
NMTTP	45	192	7	D	0	M1
EXTAP	45	288	0
EXTAP	45	336	1
EXTAP	45	336	7
EXTAP	46	0	2
EXTAP	46	0	6
NMTAP	46	48	4
NMTAP	46	96	1
NMTAP	46	96	5
NMTAP	46	144	3
NMTAP	46	192	2
NMTAP	46	192	7
NMTAP	46	240	1
NMTAP	46	240	6
NMTAP	46	288	0
NMTAP	46	288	5
NMTAP	46	336	1
NMTAP	46	336	4
NMTAP	47	0	2
NMSTR	47	0	3
NMSI_	47	0	3	96	48	7
NMSTR	47	48	1
NMSCR	47	48	1	96	48	4
NMTAP	47	96	3
NMTAP	47	144	1
BXTAP	47	192	7
NMSTR	47	288	5
BRSCR	47	288	5	96	48	0
NMTAP	47	336	4
NMTAP	48	0	3
BRTAP	48	0	5
NMSTR	48	96	4
NMSCR	48	96	4	96	48	7
NMTAP	48	144	3
NMTAP	48	192	2
BRTAP	48	192	4
NMSTR	48	288	3
BRSI_	48	288	3	96	48	6
NMTAP	48	336	2
NMHLD	49	0	1	192
BRTAP	49	0	3
CNSCR	49	48	6	0	96	2
CNSI_	49	144	2	0	48	5
NMTTP	49	192	5	E	0	M1
NMTTP	49	192	5	A	1	M1
NMTTP	49	192	5	D	0	M1
EXTAP	49	288	3
EXTAP	49	336	2
EXTAP	49	336	4
NMSTR	50	0	1
NMSI_	50	0	1	96	48	3
NMSTR	50	0	5
NMSI_	50	0	5	96	48	3
NMSTR	50	96	1
NMSI_	50	96	1	96	48	7
NMSTR	50	96	5
NMSI_	50	96	5	96	48	7
NMTAP	50	192	1
NMTAP	50	192	5
NMTAP	50	288	4
NMTAP	50	336	2
EXTAP	50	336	6
NMSTR	51	0	7
NMSI_	51	0	7	96	48	3
NMSTR	51	48	1
NMSI_	51	48	1	96	48	5
NMTAP	51	96	7
NMTAP	51	144	1
BRTAP	51	192	0
NMTAP	51	288	0
NMTAP	51	288	7
NMTAP	51	336	1
NMTAP	51	336	6
NMTAP	52	0	2
NMTAP	52	0	5
NMTAP	52	48	1
NMTAP	52	72	0
NMTAP	52	96	2
NMTAP	52	144	3
NMTAP	52	144	4
NMTAP	52	192	4
NMTAP	52	192	5
NMTAP	52	240	6
NMTAP	52	264	7
NMTAP	52	288	5
NMTAP	52	336	3
NMTAP	52	336	4
NMSTR	53	0	2
NMSCL	53	0	2	96	48	7
NMSTR	53	48	7
NMSCL	53	48	7	96	48	4
NMTAP	53	96	2
NMTAP	53	144	5
BRSTR	53	192	3
BRSI_	53	192	3	96	48	7
NMTAP	53	288	2
NMTAP	53	288	3
NMTAP	53	336	1
NMTAP	54	0	0
NMTAP	54	0	6
NMTAP	54	48	5
NMTAP	54	72	4
NMTAP	54	96	6
NMTAP	54	144	0
NMTAP	54	144	7
NMTAP	54	192	0
NMTAP	54	192	1
NMTAP	54	240	2
NMTAP	54	264	3
NMTAP	54	288	1
NMTAP	54	336	0
NMTAP	54	336	7
NMTAP	55	0	1
NMTAP	55	0	6
NMTAP	55	48	2
NMTAP	55	72	4
NMTAP	55	96	3
NMTAP	55	120	5
NMTAP	55	144	2
NMTAP	55	168	4
BRTAP	55	192	1
BRTAP	55	192	5
NMTAP	55	288	3
NMTAP	55	288	6
NMTAP	55	336	2
NMTAP	55	336	7
NMSTR	56	0	0
NMSI_	56	0	0	96	48	3
NMTAP	56	0	1
NMTAP	56	96	0
NMSTR	56	96	7
NMSI_	56	96	7	96	48	4
NMSTR	56	192	6
NMSCL	56	192	6	96	80	1
NMTAP	56	192	7
NMTAP	56	288	0
NMHLD	56	336	0	96
EXTAP	57	48	2
NMSTR	57	96	4
BRSLL	57	96	4	96	60	0
NMHLD	57	144	6	144
BRTAP	57	192	4
EXTAP	57	288	7
EXTAP	57	336	7
NMSTR	58	0	1
NMSCR	58	0	1	96	48	4
NMTAP	58	0	5
NMSTR	58	96	4
NMSI_	58	96	4	96	48	0
NMTAP	58	192	6
NMTAP	58	288	1
NMTAP	58	288	7
NMTAP	58	336	3
NMTAP	58	336	5
NMTAP	59	48	1
NMTAP	59	48	6
NMSTR	59	96	3
NMSCL	59	96	3	96	48	0
NMSTR	59	96	4
NMSCR	59	96	4	96	48	7
NMTAP	59	144	2
NMTAP	59	144	5
BRTAP	59	192	3
BRTAP	59	192	4
EXTAP	59	288	0
EXTAP	59	288	7
NMTAP	59	336	1
NMTAP	59	336	6
NMSTR	60	0	2
NMSI_	60	0	2	96	48	4
NMTAP	60	0	5
NMTAP	60	96	2
NMSTR	60	96	6
NMSI_	60	96	6	96	48	0
NMSTR	60	192	1
NMSI_	60	192	1	96	48	5
NMTAP	60	192	6
NMTAP	60	288	1
NMTAP	60	288	4
NMHLD	60	336	4	96
NMTAP	61	48	7
NMSTR	61	96	1
NMSI_	61	96	1	96	48	6
NMSTR	61	96	5
NMSI_	61	96	5	96	48	2
NMTAP	61	144	3
NMTAP	61	144	7
NMTAP	61	192	1
NMTAP	61	192	5
BRTAP	61	288	0
BRTAP	61	288	4
NMTAP	62	0	2
NMTAP	62	0	6
NMSTR	62	48	5
NMSCL	62	48	5	96	48	2
NMTAP	62	72	4
NMTAP	62	96	6
EXTAP	62	144	0
NMTAP	62	240	0
NMTAP	62	240	1
NMTAP	62	288	2
NMTAP	62	288	7
NMTAP	62	336	3
NMTAP	62	336	6
NMTAP	63	0	4
NMTAP	63	0	5
NMSTR	63	48	2
NMSCR	63	48	2	96	48	5
NMTAP	63	72	3
NMTAP	63	96	1
EXTAP	63	144	7
NMTAP	63	240	0
NMTAP	63	240	6
NMTAP	63	288	2
NMTAP	63	312	4
NMTAP	63	336	2
NMTAP	63	360	4
NMTAP	64	0	3
NMSTR	64	48	4
NMSI_	64	48	4	96	48	0
NMTAP	64	48	5
NMTAP	64	96	6
BRTAP	64	144	4
BRSTR	64	144	7
NMSI_	64	144	7	96	48	3
BRSTR	64	240	1
NMSCR	64	240	1	96	48	4
BRSTR	64	240	7
NMSCL	64	240	7	96	48	4
BRTAP	64	336	1
BRTAP	64	336	7
NMTAP	65	48	1
NMTAP	65	72	7
NMTAP	65	96	2
NMTAP	65	120	6
NMTAP	65	144	3
NMTAP	65	192	4
NMTAP	65	192	5
BRTAP	65	240	2
BRSTR	65	240	3
NMSCR	65	240	3	96	48	7
BRTAP	65	288	0
BRTAP	65	288	1
BRTAP	65	336	2
BRTAP	65	336	3

T_REC_TAP	335
T_REC_BRK	28
T_REC_XTP	24
T_REC_BXX	3
T_REC_HLD	19
T_REC_XHO	4
T_REC_BHO	0
T_REC_BXH	2
T_REC_STR	66
T_REC_BST	5
T_REC_XST	0
T_REC_XBS	0
T_REC_TTP	15
T_REC_THO	1
T_REC_SLD	62
T_REC_BSL	10
T_REC_ALL	574
T_NUM_TAP	440
T_NUM_BRK	48
T_NUM_HLD	24
T_NUM_SLD	62
T_NUM_ALL	574
T_JUDGE_TAP	476
T_JUDGE_HLD	82
T_JUDGE_SLD	72
T_JUDGE_ALL	630
TTM_EACHPAIRS	133
TTM_SCR_TAP	220000
TTM_SCR_BRK	124800
TTM_SCR_HLD	24000
TTM_SCR_SLD	93000
TTM_SCR_ALL	461800
TTM_SCR_S	443300
TTM_SCR_SS	457000
TTM_RAT_ACV	10105

