VERSION	0.00.00	1.04.00
FES_MODE	0
BPM_DEF	170.000	170.000	170.000	170.000
MET_DEF	4	4
RESOLUTION	384
CLK_DEF	384
COMPATIBLE_CODE	MA2

BPM	0	0	170.000
MET	0	0	4	4

NMTAP	2	0	1
NMSTR	2	0	3
NMSCR	2	0	3	96	144	7
NMSTR	3	0	4
NMSCL	3	0	4	96	144	0
NMTAP	3	0	6
NMSTR	4	0	0
NMSCL	4	0	0	96	144	4
NMSTR	4	0	7
NMSCR	4	0	7	96	144	3
NMHLD	5	0	2	96
NMHLD	5	0	5	96
NMTAP	5	192	3
NMTAP	5	216	4
NMTAP	5	240	3
NMTAP	5	264	4
NMTAP	5	288	3
NMSTR	6	0	4
NMSI_	6	0	4	96	48	0
NMTAP	6	0	6
NMTAP	6	96	5
NMHLD	6	144	5	96
NMTAP	6	240	7
NMTAP	6	288	7
NMTAP	7	0	0
NMSTR	7	0	4
NMSI_	7	0	4	96	48	7
NMTAP	7	96	2
NMHLD	7	144	2	96
NMTAP	7	240	7
NMSTR	7	288	7
NMSCL	7	288	7	96	96	3
NMSTR	8	0	3
NMSCL	8	0	3	96	96	7
NMSTR	8	96	7
NMSCL	8	96	7	96	96	3
NMSTR	8	192	3
NMSCL	8	192	3	96	96	7
NMSTR	8	288	7
NMSCL	8	288	7	96	96	3
NMTAP	9	0	3
NMTAP	9	96	7
BRTAP	9	192	1
BRTAP	9	192	5
NMHLD	10	0	2	384
NMTAP	10	96	3
NMTAP	10	192	3
NMTAP	10	288	3
NMHLD	11	0	4	384
NMTAP	11	96	3
NMTAP	11	192	3
NMTAP	11	288	3
NMSTR	12	0	0
NMSCR	12	0	0	96	48	3
NMTAP	12	96	5
NMSTR	12	192	7
NMSCL	12	192	7	96	48	4
NMHLD	12	288	2	96
NMHLD	13	0	0	96
NMHLD	13	96	7	96
NMHLD	13	192	5	96
NMTAP	13	288	3
NMSTR	14	0	2
NMSI_	14	0	2	96	48	7
NMTAP	14	96	4
NMSTR	14	192	5
NMSI_	14	192	5	96	48	0
NMTAP	14	288	3
NMSTR	15	0	0
NMSI_	15	0	0	96	48	4
NMSTR	15	0	7
NMSI_	15	0	7	96	48	3
NMHLD	15	192	2	96
NMHLD	15	192	5	96
NMTAP	16	0	4
NMTAP	16	0	6
NMTAP	16	96	3
NMTAP	16	96	4
NMTAP	16	192	1
NMTAP	16	192	3
NMTAP	16	288	3
NMTAP	16	288	4
NMTAP	16	336	3
NMTAP	16	336	4
NMTAP	17	48	1
NMTAP	17	48	6
NMTAP	17	96	1
NMTAP	17	96	6
NMTAP	17	192	0
NMTAP	17	216	7
NMTAP	17	240	0
BRTAP	17	288	1
BRTAP	17	288	6
NMSTR	18	0	5
NMSCR	18	0	5	96	96	0
NMTAP	18	96	3
NMTAP	18	192	3
NMTAP	18	288	2
NMSTR	19	0	1
NMSCR	19	0	1	96	96	4
NMTAP	19	96	7
NMTAP	19	192	7
NMSTR	19	288	7
NMSUL	19	288	7	96	48	3
NMTAP	20	0	2
NMSTR	20	96	0
NMSUR	20	96	0	96	48	4
NMTAP	20	192	5
NMSTR	20	288	6
NMSI_	20	288	6	96	48	3
NMHLD	21	0	1	192
NMTAP	21	96	7
NMTTP	21	192	5	B	0	M1
NMTTP	21	192	6	B	0	M1
NMTTP	21	192	6	E	1	M1
NMSTR	22	0	0
NMSI_	22	0	0	96	48	5
NMSTR	22	0	1
NMSI_	22	0	1	96	48	4
NMSTR	22	192	6
NMSI_	22	192	6	96	48	3
NMSTR	22	192	7
NMSI_	22	192	7	96	48	2
NMTAP	23	0	4
NMSTR	23	96	1
NMSI_	23	96	1	96	48	4
NMSTR	23	96	5
NMSI_	23	96	5	96	48	0
NMSTR	23	288	3
NMSI_	23	288	3	96	48	0
NMTAP	23	288	7
NMTAP	24	0	5
NMSTR	24	96	4
NMSI_	24	96	4	96	48	7
NMTAP	24	192	2
NMSTR	24	288	0
NMSCR	24	288	0	96	192	7
NMTAP	24	336	0
EXTAP	25	288	0
EXTAP	25	288	7
NMHLD	26	0	6	96
NMTAP	26	96	4
NMHLD	26	144	4	96
NMHLD	26	240	3	96
NMHLD	26	336	1	96
NMTAP	27	48	7
NMSTR	27	96	7
NMSI_	27	96	7	96	48	3
NMSTR	27	192	1
NMSI_	27	192	1	96	48	5
NMSTR	27	288	6
NMSI_	27	288	6	96	48	1
NMSTR	28	0	2
NMSXR	28	0	2	96	192	4
NMTAP	28	96	7
NMHLD	28	144	7	240
NMTAP	29	0	3
NMTAP	29	96	4
NMTAP	29	96	6
NMTAP	29	192	1
NMTAP	29	240	1
NMTAP	29	288	3
NMTAP	29	336	3
NMHLD	30	0	2	96
NMTAP	30	96	0
NMHLD	30	144	0	96
NMHLD	30	240	7	96
NMHLD	30	336	5	96
NMTAP	31	48	3
NMSTR	31	96	3
NMSI_	31	96	3	96	48	7
NMSTR	31	192	6
NMSCR	31	192	6	96	48	1
NMSTR	31	288	2
NMSCR	31	288	2	96	48	5
NMTAP	32	0	0
NMTAP	32	96	7
NMTAP	32	144	7
NMSTR	32	240	4
NMSI_	32	240	4	96	48	0
NMSTR	32	240	6
NMSI_	32	240	6	96	48	3
NMTAP	33	48	1
NMTAP	33	96	1
EXTAP	33	192	7
EXSTR	33	288	0
NMSI_	33	288	0	96	48	3
EXSTR	33	288	6
NMSI_	33	288	6	96	48	1
EXTAP	34	96	7
NMTAP	34	144	7
NMSTR	34	240	6
NMSCL	34	240	6	96	96	2
NMTAP	34	336	0
NMHLD	35	0	0	528
NMTAP	35	192	3
NMSTR	35	288	1
NMSCR	35	288	1	96	144	6
NMSTR	36	240	6
NMSI_	36	240	6	96	48	3
NMSTR	36	240	7
NMSI_	36	240	7	96	48	2
NMTAP	37	48	1
NMTAP	37	48	4
NMTAP	37	96	1
NMTAP	37	96	4
NMTAP	37	192	3
NMHLD	37	192	6	672
NMSTR	37	288	2
NMSI_	37	288	2	96	96	4
CNSI_	38	96	4	0	96	1
CNSI_	38	192	1	0	96	5
CNSI_	38	288	5	0	96	0
NMTAP	39	96	0
NMTAP	39	192	1
NMTAP	39	192	3
NMSTR	39	288	4
NMSCR	39	288	4	96	48	7
NMHLD	40	0	2	288
NMSTR	40	96	7
NMSI_	40	96	7	96	48	3
NMTAP	40	288	4
NMTAP	41	0	3
NMTAP	41	0	5
NMSTR	41	96	3
NMSI_	41	96	3	96	48	6
NMSTR	41	96	4
NMSI_	41	96	4	96	48	1
NMTAP	41	288	0
NMTAP	41	288	7
NMHLD	42	0	1	96
NMTAP	42	96	3
NMTAP	42	144	3
NMSTR	42	240	3
NMSCL	42	240	3	96	48	0
NMTAP	42	240	5
NMTAP	42	336	4
NMTAP	43	48	4
NMTAP	43	96	5
NMTAP	43	144	6
EXHLD	43	192	2	672
EXTAP	43	192	7
NMSTR	43	288	0
NMSCL	43	288	0	96	48	4
NMSTR	44	96	0
NMSLL	44	96	0	96	48	4
NMSTR	44	288	0
NMSCL	44	288	0	96	48	4
NMSTR	45	96	0
NMSI_	45	96	0	96	48	4
NMTAP	45	288	5
NMTAP	45	336	5
NMTAP	46	0	3
NMTAP	46	96	0
NMTAP	46	96	7
NMSTR	46	192	2
NMSXR	46	192	2	96	192	5
NMTAP	46	192	4
NMTAP	46	288	5
NMTAP	46	336	5
NMTAP	47	48	6
NMTAP	47	96	6
NMHLD	47	192	1	672
BRTAP	47	192	7
NMSTR	47	288	4
NMSCR	47	288	4	96	48	0
NMSTR	48	96	4
NMSLR	48	96	4	96	48	0
NMSTR	48	288	4
NMSCR	48	288	4	96	48	0
NMSTR	49	96	4
NMSI_	49	96	4	96	48	0
NMHLD	49	192	2	384
NMSTR	49	288	3
NMSCL	49	288	3	96	96	6
NMTAP	50	192	3
NMTAP	50	288	1
NMTAP	50	288	3
NMTAP	50	336	1
NMTAP	50	336	3
NMTAP	51	48	4
NMTAP	51	48	6
NMSTR	51	96	4
BRSI_	51	96	4	96	48	7
NMTAP	51	96	6
BRTAP	51	192	5
NMSTR	51	288	0
NMSCR	51	288	0	96	48	2
NMSTR	51	288	4
NMSCR	51	288	4	96	48	6
NMSTR	52	96	1
NMSCR	52	96	1	96	48	3
NMSTR	52	96	5
NMSCR	52	96	5	96	48	7
NMTAP	52	288	1
NMTAP	52	288	5
NMTAP	52	336	1
NMTAP	52	336	5
NMTAP	53	0	4
NMTAP	53	48	2
NMSTR	53	96	1
BRSI_	53	96	1	96	48	4
NMSTR	53	96	5
BRSI_	53	96	5	96	48	3
NMTAP	53	336	0
NMTAP	53	336	6
NMTAP	54	0	0
NMTAP	54	0	6
NMTAP	54	96	1
NMTAP	54	96	3
NMTAP	54	192	4
NMTAP	54	192	6
NMTAP	54	288	0
NMTAP	54	288	7
NMTAP	54	336	0
NMTAP	54	336	7
NMTAP	55	48	4
NMTAP	55	48	5
NMSTR	55	96	4
NMSI_	55	96	4	96	48	1
NMSTR	55	96	5
NMSI_	55	96	5	96	48	1
NMTAP	55	288	0
NMTAP	55	336	0
NMTAP	56	0	3
NMTAP	56	96	1
NMTAP	56	96	2
NMTAP	56	192	0
NMTAP	56	192	7
NMTAP	56	288	4
NMTAP	56	288	6
NMSTR	56	336	4
NMSXL	56	336	4	96	144	0
NMHLD	56	336	6	336
EXTAP	57	288	0
NMSTR	58	0	1
NMSI_	58	0	1	96	48	3
NMTAP	58	0	3
NMTAP	58	96	5
NMTAP	58	192	4
NMTAP	58	192	6
NMTAP	58	288	7
NMHLD	58	336	7	96
NMTAP	59	48	4
NMSTR	59	96	4
NMSI_	59	96	4	96	48	0
NMSTR	59	288	0
NMSI_	59	288	0	96	48	2
NMSTR	59	288	7
NMSI_	59	288	7	96	48	3
EXTAP	60	0	0
EXTAP	60	0	7
NMSTR	60	96	0
NMSI_	60	96	0	96	48	4
NMSTR	60	96	7
NMSI_	60	96	7	96	48	5
EXTAP	60	192	0
EXTAP	60	192	7
NMTAP	60	288	1
NMTAP	60	288	7
NMTAP	60	336	1
NMSTR	60	336	7
NMSI_	60	336	7	96	48	3
NMTAP	61	48	4
NMSTR	61	96	4
BRSCL	61	96	4	96	48	1
BRSCR	61	96	4	96	48	7
NMTAP	62	0	1
NMSTR	62	0	3
NMSI_	62	0	3	96	48	7
NMTAP	62	96	2
NMTAP	62	144	2
NMTAP	62	240	7
NMSTR	62	288	0
NMSI_	62	288	0	96	48	2
NMTAP	62	288	6
NMSTR	63	0	7
NMSI_	63	0	7	96	48	5
NMTAP	63	96	1
NMHLD	63	144	1	96
NMTAP	63	240	3
NMSTR	63	288	3
NMSXR	63	288	3	96	192	6
NMSTR	64	240	0
NMSCL	64	240	0	96	48	5
NMSCR	64	240	0	96	48	3
NMHLD	65	96	7	240
BXTAP	65	192	4
BXTAP	65	240	2
BXTAP	65	288	3
BXTAP	65	336	5

T_REC_TAP	160
T_REC_BRK	6
T_REC_XTP	10
T_REC_BXX	4
T_REC_HLD	32
T_REC_XHO	1
T_REC_BHO	0
T_REC_BXH	0
T_REC_STR	83
T_REC_BST	0
T_REC_XST	2
T_REC_XBS	0
T_REC_TTP	3
T_REC_THO	0
T_REC_SLD	82
T_REC_BSL	5
T_REC_ALL	388
T_NUM_TAP	258
T_NUM_BRK	15
T_NUM_HLD	33
T_NUM_SLD	82
T_NUM_ALL	388
T_JUDGE_TAP	268
T_JUDGE_HLD	146
T_JUDGE_SLD	87
T_JUDGE_ALL	501
TTM_EACHPAIRS	69
TTM_SCR_TAP	129000
TTM_SCR_BRK	39000
TTM_SCR_HLD	33000
TTM_SCR_SLD	123000
TTM_SCR_ALL	324000
TTM_SCR_S	312850
TTM_SCR_SS	322500
TTM_RAT_ACV	10046

