VERSION	0.00.00	1.04.00
FES_MODE	0
BPM_DEF	170.000	170.000	170.000	170.000
MET_DEF	4	4
RESOLUTION	384
CLK_DEF	384
COMPATIBLE_CODE	MA2

BPM	0	0	170.000
MET	0	0	4	4

NMTAP	2	0	2
NMSTR	2	0	4
NMSI_	2	0	4	96	144	7
NMSTR	3	0	3
NMSI_	3	0	3	96	144	0
NMTAP	3	0	5
NMSTR	4	0	7
NMSCL	4	0	7	96	144	4
NMSCR	4	0	7	96	144	2
NMSTR	5	0	3
NMSI_	5	0	3	96	144	0
NMSTR	5	0	4
NMSI_	5	0	4	96	144	7
NMTAP	6	0	0
NMTAP	6	0	7
NMTAP	6	96	1
NMTAP	6	96	3
NMTAP	6	144	1
NMTAP	6	144	3
NMTAP	6	240	4
NMTAP	6	240	6
NMTAP	6	288	4
NMTAP	6	288	6
NMTAP	7	0	2
NMTAP	7	48	2
NMTAP	7	96	3
NMHLD	7	144	1	96
NMTAP	7	240	3
NMTAP	7	288	3
NMTAP	8	0	4
NMTAP	8	0	5
NMTAP	8	96	6
NMTAP	8	96	7
NMTAP	8	144	6
NMTAP	8	144	7
NMTAP	8	240	0
NMTAP	8	240	1
NMTAP	8	288	0
NMTAP	8	288	1
NMTAP	9	0	2
NMTAP	9	0	7
NMTAP	9	96	2
NMTAP	9	96	7
BRTAP	9	192	1
BRTAP	9	192	5
NMTAP	10	0	2
NMHLD	10	96	2	576
NMTAP	10	192	3
NMTAP	10	288	3
NMTAP	11	0	4
NMTAP	11	96	4
NMTAP	11	192	3
NMTAP	11	288	4
NMTAP	12	0	5
NMHLD	12	96	5	192
NMTAP	12	192	4
NMTAP	12	288	4
NMSTR	13	0	3
NMSXL	13	0	3	96	144	5
NMSXR	13	0	3	96	144	1
NMTAP	14	0	6
NMHLD	14	96	6	480
NMTAP	14	192	4
NMTAP	14	288	4
NMTAP	15	0	3
NMTAP	15	96	3
NMTAP	15	192	4
NMTAP	15	288	3
NMTAP	15	288	5
NMTAP	16	0	2
NMTAP	16	0	4
NMTAP	16	96	1
NMTAP	16	192	0
NMTAP	16	192	6
NMTAP	16	288	7
NMSTR	16	336	7
NMSF_	16	336	7	96	144	3
NMTAP	17	288	1
NMTAP	17	288	5
NMTAP	18	0	3
NMTAP	18	0	4
NMTAP	18	96	2
NMTAP	18	144	2
NMTAP	18	192	3
NMTAP	18	288	1
NMTAP	18	288	4
NMTAP	19	0	3
NMTAP	19	0	6
NMTAP	19	96	5
NMTAP	19	144	5
NMTAP	19	192	4
NMTAP	19	288	3
NMTAP	19	288	6
NMTAP	20	0	2
NMTAP	20	0	4
NMTAP	20	96	1
NMTAP	20	144	1
NMTAP	20	192	0
NMTAP	20	288	2
NMTAP	20	288	7
NMTAP	21	0	0
NMTAP	21	0	5
NMTAP	21	96	6
NMTAP	21	144	7
BXTAP	21	192	0
BXTAP	21	192	5
NMTAP	22	0	0
NMTAP	22	0	7
NMTAP	22	96	1
NMTAP	22	144	1
NMTAP	22	192	0
NMTAP	22	288	2
NMTAP	22	288	7
NMTAP	23	0	0
NMTAP	23	0	5
NMTAP	23	96	6
NMTAP	23	144	6
NMTAP	23	192	7
NMTAP	23	288	6
NMTAP	23	288	7
NMTAP	24	0	4
NMTAP	24	0	5
NMTAP	24	96	6
NMTAP	24	96	7
NMTAP	24	192	0
NMTAP	24	192	1
NMTAP	24	288	2
NMTAP	24	288	3
NMTAP	24	336	2
NMTAP	24	336	3
NMTAP	25	48	4
NMTAP	25	48	5
NMTAP	25	96	4
NMTAP	25	96	5
BRTAP	25	192	0
BRTAP	25	192	7
NMTAP	26	0	0
NMHLD	26	0	1	864
NMTAP	26	96	3
NMTAP	26	144	3
NMTAP	26	240	4
NMTAP	26	336	3
NMTAP	27	48	2
NMTAP	27	96	2
NMTAP	27	192	3
NMTAP	27	288	3
NMTAP	28	0	2
NMTAP	28	96	0
NMSTR	28	144	0
NMSCR	28	144	0	96	336	7
NMTAP	30	0	3
NMHLD	30	0	6	864
NMTAP	30	96	4
NMTAP	30	144	4
NMTAP	30	240	3
NMTAP	30	336	4
NMTAP	31	48	5
NMTAP	31	96	5
NMTAP	31	192	4
NMTAP	31	288	4
NMTAP	32	0	5
NMTAP	32	96	7
NMTAP	32	144	7
NMTAP	32	240	0
NMTAP	32	240	6
NMSTR	32	336	1
NMSXL	32	336	1	96	240	0
NMSTR	32	336	5
NMSXL	32	336	5	96	240	4
NMHLD	34	0	1	96
NMTAP	34	96	3
NMTAP	34	144	3
NMTAP	34	240	3
NMTAP	34	240	4
NMHLD	34	336	4	144
NMHLD	34	336	6	144
NMTAP	35	192	0
NMTAP	35	192	7
NMTAP	35	288	0
NMTAP	35	288	1
NMHLD	36	0	1	96
NMHLD	36	0	3	96
EXTAP	36	144	1
BXTAP	36	144	3
EXTAP	36	240	3
BXTAP	36	240	4
BXTAP	36	336	4
EXHLD	36	336	6	144
NMHLD	37	96	4	96
NMHLD	37	192	3	96
NMTAP	37	288	1
NMHLD	38	0	2	96
NMHLD	38	0	3	96
NMTAP	38	144	1
NMTAP	38	144	4
NMHLD	38	192	1	192
NMSTR	38	192	4
NMSUR	38	192	4	96	96	0
NMTAP	39	96	2
NMTAP	39	96	7
NMTAP	39	192	3
NMTAP	39	192	6
NMTAP	39	288	4
NMTAP	39	288	5
NMTAP	40	0	6
NMTAP	40	0	7
NMTAP	40	96	1
NMTAP	40	144	1
NMTAP	40	192	0
NMTAP	40	288	6
NMTAP	40	336	6
NMTAP	41	0	7
NMTAP	41	96	0
NMTAP	41	96	7
NMTAP	41	192	1
NMTAP	41	288	2
NMTAP	41	288	3
NMTAP	42	0	4
NMTAP	42	96	3
NMTAP	42	96	5
NMTAP	42	144	3
NMTAP	42	144	5
NMTAP	42	240	2
NMTAP	42	240	4
NMSTR	42	336	3
NMSCL	42	336	3	96	144	0
NMSTR	42	336	4
NMSCR	42	336	4	96	144	7
NMSTR	43	288	0
NMSCL	43	288	0	96	48	5
NMHLD	43	288	1	480
NMSTR	44	96	0
BRSCL	44	96	0	96	48	5
NMSTR	44	288	0
NMSCL	44	288	0	96	48	5
NMTAP	45	96	0
BRTAP	45	192	0
BRTAP	45	192	1
NMTAP	45	288	3
NMTAP	45	288	4
NMHLD	46	0	5	96
NMHLD	46	96	7	96
NMHLD	46	192	0	96
NMTAP	46	288	2
NMHLD	46	336	2	144
NMTAP	47	48	4
NMTAP	47	96	4
NMTAP	47	192	3
NMTAP	47	192	5
NMHLD	47	288	2	480
NMSTR	47	288	4
NMSCR	47	288	4	96	48	7
NMSTR	48	96	4
BRSCR	48	96	4	96	48	7
NMSTR	48	288	4
NMSCR	48	288	4	96	48	7
NMTAP	49	96	4
BRTAP	49	192	3
BRTAP	49	192	5
NMTAP	49	288	2
NMTAP	49	288	7
NMHLD	50	0	1	96
NMHLD	50	96	3	96
NMHLD	50	192	5	96
NMTAP	50	288	7
NMTAP	50	336	7
NMTAP	51	48	0
NMTAP	51	96	0
BRTAP	51	192	1
BRTAP	51	192	5
NMTAP	51	288	6
NMTAP	51	288	7
NMSTR	52	0	6
NMSUR	52	0	6	96	192	5
NMSTR	52	0	7
NMSCR	52	0	7	96	192	4
EXHLD	53	0	1	96
EXTAP	53	0	7
NMHLD	53	96	3	192
BRHLD	53	192	4	96
NMTAP	54	0	5
NMTAP	54	0	7
NMTAP	54	96	3
NMTAP	54	96	4
NMTAP	54	192	0
NMTAP	54	192	2
NMSTR	54	288	1
NMSUL	54	288	1	96	192	2
NMSTR	54	288	7
NMSCL	54	288	7	96	192	2
EXTAP	55	288	0
EXTAP	55	288	1
EXTAP	56	0	0
EXTAP	56	0	1
NMTAP	56	96	3
NMTAP	56	96	5
NMTAP	56	192	6
NMTAP	56	192	7
NMTAP	56	288	1
NMTAP	56	288	4
NMSTR	56	336	1
NMSCL	56	336	1	96	240	2
NMHLD	56	336	4	336
NMHLD	58	0	1	96
NMTAP	58	96	3
NMHLD	58	192	6	96
NMTAP	58	288	4
NMTAP	58	336	4
NMTAP	59	48	0
NMTAP	59	48	7
NMTAP	59	96	0
NMTAP	59	96	7
BRHLD	59	192	1	96
BRHLD	59	192	5	96
NMTAP	60	0	3
NMTAP	60	0	6
NMTAP	60	96	2
NMTAP	60	96	5
NMHLD	60	192	1	192
NMTAP	60	192	4
NMTAP	60	288	3
NMHLD	61	0	6	192
NMSTR	61	96	4
NMSI_	61	96	4	96	96	0
NMTAP	62	0	1
NMTAP	62	0	7
NMTAP	62	96	4
NMTAP	62	96	6
NMTAP	62	144	4
NMTAP	62	144	6
NMTAP	62	240	1
NMTAP	62	240	3
NMTAP	62	288	1
NMTAP	62	288	3
EXTAP	63	0	2
EXTAP	63	48	3
EXTAP	63	96	4
EXHLD	63	144	5	96
NMTAP	63	240	7
NMTAP	63	288	7
EXTAP	64	0	6
EXTAP	64	48	7
EXTAP	64	96	0
EXTAP	64	144	1
NMSTR	64	240	0
NMSCL	64	240	0	96	144	5
NMSTR	64	240	1
NMSCR	64	240	1	96	144	4
BXTAP	65	192	3
BXTAP	65	192	7
BXTAP	65	240	3
BXTAP	65	240	7
BXTAP	65	288	3
BXTAP	65	288	7
BXTAP	65	336	3
BXTAP	65	336	7

T_REC_TAP	226
T_REC_BRK	10
T_REC_XTP	14
T_REC_BXX	13
T_REC_HLD	31
T_REC_XHO	3
T_REC_BHO	3
T_REC_BXH	0
T_REC_STR	27
T_REC_BST	0
T_REC_XST	0
T_REC_XBS	0
T_REC_TTP	0
T_REC_THO	0
T_REC_SLD	27
T_REC_BSL	2
T_REC_ALL	356
T_NUM_TAP	267
T_NUM_BRK	28
T_NUM_HLD	34
T_NUM_SLD	27
T_NUM_ALL	356
T_JUDGE_TAP	290
T_JUDGE_HLD	159
T_JUDGE_SLD	29
T_JUDGE_ALL	478
TTM_EACHPAIRS	102
TTM_SCR_TAP	133500
TTM_SCR_BRK	72800
TTM_SCR_HLD	34000
TTM_SCR_SLD	40500
TTM_SCR_ALL	280800
TTM_SCR_S	269700
TTM_SCR_SS	278000
TTM_RAT_ACV	10100

