VERSION	0.00.00	1.04.00
FES_MODE	0
BPM_DEF	158.000	158.000	200.000	158.000
MET_DEF	4	4
RESOLUTION	384
CLK_DEF	384
COMPATIBLE_CODE	MA2

BPM	0	0	158.000
BPM	44	0	200.000
MET	0	0	4	4

NMTAP	1	192	3
NMTAP	1	208	4
NMTAP	1	224	3
NMTAP	1	240	4
NMTAP	1	256	3
NMTAP	1	272	4
NMTAP	1	288	3
NMSTR	1	304	4
NMSCL	1	304	4	96	368	5
NMTAP	1	320	3
NMTAP	1	336	4
NMTAP	1	352	3
NMTAP	1	368	4
BRTAP	2	0	3
NMSTR	3	0	1
NMSI_	3	0	1	96	96	4
NMSTR	3	192	5
NMSI_	3	192	5	96	96	0
NMSTR	4	0	1
NMSUR	4	0	1	96	288	4
NMSTR	5	0	5
NMSCR	5	0	5	96	192	2
NMSTR	6	0	3
NMSUR	6	0	3	96	192	0
NMSTR	7	0	7
NMSUR	7	0	7	96	192	4
NMSTR	8	0	3
NMSUR	8	0	3	96	288	4
NMSTR	9	0	5
NMSCR	9	0	5	96	192	2
NMHLD	10	0	3	288
NMTAP	10	96	4
NMTAP	10	192	4
NMSTR	10	288	4
NMSI_	10	288	4	96	96	7
NMTAP	11	192	0
NMTAP	11	216	7
NMTAP	11	240	0
NMTAP	11	288	1
NMTAP	11	288	6
NMSTR	12	0	3
NMSI_	12	0	3	96	48	7
NMSTR	12	0	4
NMSI_	12	0	4	96	48	0
BXTAP	12	96	3
BXTAP	12	96	4
EXTAP	12	192	6
EXTAP	12	192	7
NMTAP	12	240	5
NMTAP	12	288	0
NMTAP	12	288	1
NMTAP	12	336	2
NMTAP	13	0	6
NMTAP	13	0	7
NMTAP	13	48	5
NMTAP	13	96	0
NMTAP	13	96	1
NMTAP	13	144	2
NMTAP	13	168	3
NMTAP	13	192	2
NMTAP	13	216	3
NMTAP	13	240	1
NMTAP	13	264	4
NMTAP	13	288	1
NMTAP	13	312	4
NMTAP	13	336	2
NMSTR	14	0	1
NMSI_	14	0	1	96	48	4
NMTAP	14	0	3
BRTAP	14	96	0
BRTAP	14	96	1
NMTAP	14	192	6
NMSTR	14	240	0
NMSI_	14	240	0	96	48	5
NMSTR	14	240	7
NMSI_	14	240	7	96	48	5
NMTAP	14	288	1
NMSTR	14	336	0
NMSI_	14	336	0	96	48	2
NMSTR	14	336	7
NMSI_	14	336	7	96	48	2
NMSTR	15	48	0
NMSI_	15	48	0	96	48	5
NMSTR	15	48	7
NMSI_	15	48	7	96	48	5
NMTAP	15	144	0
NMTAP	15	144	7
NMTAP	15	240	0
NMTAP	15	240	7
NMTAP	15	288	1
NMTAP	15	288	6
NMSTR	16	0	0
NMSI_	16	0	0	96	48	4
NMSTR	16	0	7
NMSI_	16	0	7	96	48	3
BXTAP	16	96	0
BXTAP	16	96	7
EXTAP	16	192	4
EXTAP	16	192	5
NMTAP	16	240	6
NMTAP	16	288	2
NMTAP	16	288	3
NMTAP	16	336	1
NMTAP	17	0	4
NMTAP	17	0	5
NMTAP	17	48	6
NMTAP	17	96	2
NMTAP	17	96	3
NMTAP	17	144	1
NMTAP	17	168	0
NMTAP	17	192	1
NMTAP	17	216	0
NMTAP	17	240	2
NMTAP	17	264	7
NMTAP	17	288	2
NMTAP	17	312	7
NMTAP	17	336	2
NMTAP	18	0	0
NMTAP	18	0	1
EXHLD	18	48	0	48
EXTAP	18	48	1
EXTAP	18	64	2
EXTAP	18	80	3
EXTAP	18	96	4
NMTAP	18	144	6
NMTAP	18	144	7
EXTAP	18	192	6
EXHLD	18	192	7	48
EXTAP	18	208	5
EXTAP	18	224	4
EXTAP	18	240	3
NMTAP	18	288	0
NMTAP	18	288	1
EXHLD	18	336	0	48
EXTAP	18	336	1
EXTAP	18	352	2
EXTAP	18	368	3
EXTAP	19	0	4
NMTAP	19	48	6
NMTAP	19	48	7
NMTAP	19	96	0
NMTAP	19	96	5
NMTAP	19	144	1
NMTAP	19	144	4
NMTAP	19	192	2
NMTAP	19	216	3
NMTAP	19	240	1
NMTAP	19	288	7
NMTAP	19	312	0
NMTAP	19	336	6
BRSTR	20	0	1
NMSI_	20	0	1	96	72	3
BRHLD	20	0	5	96
NMTAP	20	144	6
CNSI_	20	168	3	0	72	0
NMTAP	20	192	6
CNSI_	20	240	0	0	48	4
NMTAP	20	288	7
NMTAP	21	0	4
NMTAP	21	0	6
NMTAP	21	48	5
NMTAP	21	96	2
NMSTR	21	96	4
NMSI_	21	96	4	96	48	1
NMSI_	21	96	4	96	48	7
NMTAP	21	144	3
NMTAP	21	288	2
NMTAP	21	288	6
NMSTR	22	0	1
NMSI_	22	0	1	96	96	4
NMSTR	22	96	4
NMSI_	22	96	4	96	96	0
NMSTR	22	192	0
NMSI_	22	192	0	96	96	5
NMSTR	22	288	5
NMSI_	22	288	5	96	96	2
EXHLD	23	0	6	192
CNSI_	23	96	2	0	96	7
NMTAP	23	288	1
NMTAP	23	288	5
NMTAP	24	0	2
NMTAP	24	0	3
NMTAP	24	48	2
NMTAP	24	48	3
NMTAP	24	96	1
NMTAP	24	96	4
NMSTR	24	144	0
NMSCR	24	144	0	96	48	2
NMTAP	24	144	5
NMTAP	24	240	5
NMTAP	24	264	6
NMTAP	24	288	7
NMTAP	25	0	4
NMTAP	25	0	5
NMTAP	25	48	4
NMTAP	25	48	5
NMTAP	25	96	3
NMTAP	25	96	6
NMTAP	25	144	2
NMSTR	25	144	7
NMSCL	25	144	7	96	48	5
NMTAP	25	240	2
NMTAP	25	264	1
NMTAP	25	288	0
NMTAP	26	0	2
NMTAP	26	0	3
NMTAP	26	48	2
NMTAP	26	48	3
NMTAP	26	96	1
NMTAP	26	96	4
NMTAP	26	144	1
NMTAP	26	144	4
NMTAP	26	192	0
NMTAP	26	192	5
NMTAP	26	240	0
NMTAP	26	240	5
NMTAP	26	288	6
NMTAP	26	288	7
NMTAP	26	336	6
NMTAP	26	336	7
NMSTR	27	0	0
NMSF_	27	0	0	96	48	4
NMTAP	27	0	5
EXTAP	27	96	0
NMSTR	27	192	2
NMSI_	27	192	2	96	48	7
NMSTR	27	192	6
NMSI_	27	192	6	96	48	3
BRTAP	27	288	2
BRTAP	27	288	6
NMTAP	28	48	0
NMSTR	28	96	0
NMSCR	28	96	0	96	96	4
NMTAP	28	144	4
EXTAP	28	192	4
EXTAP	28	264	6
EXTAP	28	336	7
NMSTR	29	0	7
NMSI_	29	0	7	96	48	3
NMSTR	29	48	4
NMSCR	29	48	4	96	120	2
NMTAP	29	96	7
NMTAP	29	144	4
NMTAP	30	0	4
NMTAP	30	0	6
NMTAP	30	48	5
NMTAP	30	96	1
NMTAP	30	96	3
NMTAP	30	144	2
NMHLD	30	192	6	72
NMHLD	30	264	5	72
NMTAP	30	336	4
NMSTR	31	0	4
NMSCR	31	0	4	96	96	0
NMTAP	31	96	0
CNSCL	31	192	0	0	96	4
NMTAP	31	192	3
NMTAP	31	288	1
NMTAP	32	0	0
NMTAP	32	0	1
NMTAP	32	48	0
NMTAP	32	48	1
NMTAP	32	96	2
NMTAP	32	96	7
NMSTR	32	144	3
NMSCL	32	144	3	96	48	1
NMTAP	32	144	6
NMTAP	32	240	6
NMTAP	32	264	5
NMTAP	32	288	4
NMTAP	33	0	6
NMTAP	33	0	7
NMTAP	33	48	6
NMTAP	33	48	7
NMTAP	33	96	0
NMTAP	33	96	5
NMTAP	33	144	1
NMSTR	33	144	4
NMSCR	33	144	4	96	48	6
NMTAP	33	240	1
NMTAP	33	264	2
NMTAP	33	288	3
NMSTR	34	0	7
NMSCL	34	0	7	96	96	4
NMSTR	34	96	4
NMSUL	34	96	4	96	96	0
NMSTR	34	192	0
NMSCR	34	192	0	96	96	3
NMSTR	34	288	3
NMSUR	34	288	3	96	96	7
NMSTR	35	0	7
NMSCL	35	0	7	96	96	4
NMSTR	35	96	4
NMSUR	35	96	4	96	96	0
NMSTR	35	192	0
NMSCR	35	192	0	96	96	3
NMSTR	35	288	3
NMSXL	35	288	3	96	240	6
NMSXR	35	288	3	96	240	0
NMTAP	36	336	1
NMTAP	36	336	7
NMTAP	37	48	3
NMTAP	37	48	5
NMTAP	37	96	2
NMTAP	37	96	6
NMSTR	37	144	1
NMSI_	37	144	1	96	48	4
NMSTR	37	144	7
NMSI_	37	144	7	96	48	4
EXTAP	37	240	1
EXTAP	37	240	7
NMTAP	38	0	1
NMSTR	38	48	1
NMSI_	38	48	1	96	48	4
NMTAP	38	96	2
NMTAP	38	120	3
NMTAP	38	144	1
NMTAP	38	192	6
NMSTR	38	240	6
NMSI_	38	240	6	96	48	3
NMTAP	38	288	5
NMTAP	38	312	4
NMTAP	38	336	6
NMTAP	39	0	2
NMSTR	39	48	2
NMSI_	39	48	2	96	48	7
NMTAP	39	96	1
NMTAP	39	120	0
NMTAP	39	144	2
NMTAP	39	192	5
NMSTR	39	240	5
NMSI_	39	240	5	96	48	0
NMTAP	39	288	6
NMTAP	39	312	7
NMTAP	39	336	5
NMTAP	40	0	1
NMTAP	40	48	1
NMTAP	40	96	5
NMTAP	40	120	4
NMTAP	40	144	5
NMTAP	40	192	3
NMTAP	40	192	4
NMTAP	40	240	2
NMTAP	40	264	1
NMTAP	40	264	3
NMTAP	40	312	5
NMTAP	40	336	4
NMTAP	40	336	6
NMSTR	41	0	0
NMSI_	41	0	0	96	48	4
NMSTR	41	0	1
NMSI_	41	0	1	96	48	5
NMTAP	41	96	0
NMTAP	41	96	1
NMHLD	41	192	3	48
NMHLD	41	192	7	48
BRTAP	41	264	1
BRTAP	41	264	5
NMSTR	42	0	0
NMSI_	42	0	0	96	48	4
NMSTR	42	48	5
NMSI_	42	48	5	96	48	7
NMTAP	42	96	0
NMTAP	42	144	5
NMTAP	42	192	3
NMTAP	42	240	1
NMTAP	42	264	0
NMTAP	42	312	2
NMTAP	42	336	3
NMSTR	43	0	0
NMSI_	43	0	0	96	48	4
NMTAP	43	96	0
NMSTR	43	96	5
NMSUL	43	96	5	96	144	3
NMTAP	43	192	1
EXTAP	44	0	0
EXTAP	44	96	0
NMTAP	44	192	4
NMTAP	44	216	3
NMTAP	44	240	4
NMTAP	44	264	3
NMTAP	44	288	2
NMTAP	44	288	5
NMTAP	45	0	5
NMTAP	45	48	4
NMTAP	45	96	3
NMTAP	45	96	6
NMTAP	45	144	5
NMTAP	45	192	4
NMTAP	45	240	5
NMTAP	45	288	3
NMTAP	45	288	6
NMTAP	45	336	5
NMTAP	46	0	2
NMTAP	46	48	3
NMTAP	46	96	1
NMTAP	46	96	4
NMTAP	46	144	2
NMTAP	46	192	3
NMTAP	46	240	2
NMTAP	46	288	1
NMTAP	46	288	4
NMTAP	47	0	3
NMTAP	47	0	5
NMTAP	47	48	3
NMTAP	47	48	5
NMTAP	47	96	2
NMTAP	47	96	4
NMTAP	47	144	2
NMTAP	47	144	4
NMTAP	47	192	1
NMTAP	47	216	3
NMTAP	47	240	1
NMTAP	47	264	3
NMTAP	47	288	1
NMTAP	48	0	0
NMTAP	48	0	7
NMTAP	48	96	1
NMTAP	48	96	6
NMTAP	48	192	2
NMTAP	48	192	5
NMTAP	48	240	3
NMTAP	48	264	6
NMTAP	48	288	0
BRTAP	49	0	1
BRTAP	49	0	5
NMTAP	49	48	2
NMTAP	49	72	3
NMSTR	49	96	1
NMSI_	49	96	1	96	48	4
NMTAP	49	144	0
NMSTR	49	192	6
NMSI_	49	192	6	96	48	3
NMTAP	49	240	7
NMTAP	49	288	1
NMTAP	49	336	2
NMTAP	50	0	2
NMTAP	50	24	3
NMTAP	50	48	1
NMTAP	50	96	0
NMTAP	50	96	7
NMTAP	50	144	5
NMTAP	50	168	4
NMTAP	50	192	6
NMTAP	50	240	0
NMTAP	50	240	7
NMSTR	50	288	1
BRSI_	50	288	1	96	48	5
BRSTR	51	0	0
NMSI_	51	0	0	96	48	4
BRTAP	51	0	1
BRTAP	51	96	0
BRSTR	51	96	7
BRSI_	51	96	7	96	48	3
BRSTR	51	192	6
NMSI_	51	192	6	96	48	2
BRTAP	51	192	7
BRTAP	51	288	6
BRTAP	51	288	7
NMSTR	52	0	1
NMSCR	52	0	1	96	48	4
NMTAP	52	0	4
NMTAP	52	96	1
NMTAP	52	96	5
NMTAP	52	112	6
NMTAP	52	128	7
NMSTR	52	144	0
NMSCL	52	144	0	96	48	5
NMTAP	52	240	0
NMTAP	52	240	4
NMTAP	52	256	3
NMTAP	52	272	2
NMTAP	52	288	1
NMTAP	53	0	0
NMTAP	53	0	4
NMTAP	53	48	1
NMTAP	53	72	3
NMSTR	53	96	2
NMSI_	53	96	2	96	48	7
NMTAP	53	144	1
NMSTR	53	192	6
NMSI_	53	192	6	96	48	3
NMTAP	53	240	5
NMTAP	53	288	0
NMTAP	53	336	1
NMTAP	54	0	2
NMTAP	54	24	3
NMTAP	54	48	1
NMTAP	54	96	0
NMTAP	54	96	7
NMTAP	54	144	5
NMTAP	54	168	4
NMTAP	54	192	6
NMTAP	54	240	0
NMTAP	54	240	7
NMSTR	54	288	1
BRSI_	54	288	1	96	48	5
BRTAP	55	0	1
BRSTR	55	0	3
NMSI_	55	0	3	96	48	7
BRTAP	55	96	3
BRSTR	55	96	4
BRSI_	55	96	4	96	48	0
BRTAP	55	192	4
BRSTR	55	192	6
NMSI_	55	192	6	96	48	2
BRTAP	55	288	6
BRTAP	55	288	7
NMSTR	56	0	1
BRSCL	56	0	1	96	48	6
NMTAP	56	96	1
NMTAP	56	96	5
NMTAP	56	120	4
NMTAP	56	144	3
NMTAP	56	168	2
NMTAP	56	192	1
NMTAP	56	216	0
NMTAP	56	240	7
NMTAP	56	264	6
NMTTP	56	288	0	C	0	M1
NMTAP	56	288	5
NMTAP	57	0	0
NMTAP	57	0	7
NMSTR	57	96	1
NMSI_	57	96	1	96	48	5
NMTAP	57	144	5
NMSTR	57	192	1
NMSI_	57	192	1	96	48	3
NMSTR	57	240	3
NMSI_	57	240	3	96	48	7
NMTAP	57	288	1
NMSTR	57	336	6
NMSXR	57	336	6	96	144	3
NMTAP	58	48	2
NMTAP	58	96	2
NMSTR	58	192	0
NMSCL	58	192	0	96	48	5
NMSCR	58	192	0	96	48	3
NMSTR	58	288	0
NMSF_	58	288	0	96	48	4
NMTAP	59	0	0
EXTAP	59	96	2
EXTAP	59	96	6
NMTAP	59	192	0
NMTAP	59	192	1
NMTAP	59	288	3
NMTAP	59	288	7
NMSTR	59	336	3
NMSCL	59	336	3	96	48	0
NMSTR	59	336	7
NMSCL	59	336	7	96	48	4
NMSTR	60	48	3
NMSI_	60	48	3	96	48	6
NMSTR	60	48	7
NMSI_	60	48	7	96	48	2
NMSTR	60	144	3
NMSI_	60	144	3	96	48	7
NMSTR	60	144	7
NMSI_	60	144	7	96	48	3
NMTAP	60	240	3
NMTAP	60	240	7
NMTAP	61	0	6
NMSTR	61	48	6
NMSI_	61	48	6	96	48	3
NMTAP	61	96	7
NMTAP	61	144	0
NMTAP	61	144	6
NMTAP	61	192	2
NMSTR	61	240	2
NMSI_	61	240	2	96	48	7
NMTAP	61	288	3
NMTAP	61	336	2
NMTAP	61	336	4
NMTAP	62	0	5
NMSTR	62	48	5
NMSI_	62	48	5	96	48	0
NMTAP	62	96	4
NMTAP	62	144	3
NMTAP	62	144	5
NMTAP	62	192	1
NMTAP	62	240	1
NMTAP	62	288	0
NMTAP	62	336	2
NMTAP	62	336	7
NMTAP	63	0	3
NMTAP	63	0	6
NMTAP	63	48	5
NMTAP	63	72	4
NMTAP	63	96	5
NMTAP	63	144	1
NMTAP	63	144	4
NMTAP	63	192	2
NMTAP	63	216	3
NMTAP	63	240	2
NMTAP	63	288	3
NMTAP	63	288	6
NMTAP	63	336	3
NMTAP	63	336	6
NMTAP	64	48	1
NMTAP	64	48	4
NMTAP	64	96	1
NMTAP	64	96	4
NMTAP	64	144	2
NMTAP	64	192	3
NMTAP	64	192	5
NMTAP	64	240	2
NMTAP	64	240	6
BRTAP	64	288	1
BRTAP	64	288	7
EXTAP	65	0	3
NMTAP	65	24	5
NMTAP	65	48	3
NMTAP	65	72	5
EXTAP	65	96	3
NMTAP	65	120	5
NMTAP	65	144	3
NMTAP	65	168	5
EXTAP	65	192	2
NMTAP	65	216	5
NMTAP	65	240	2
NMTAP	65	264	5
EXTAP	65	288	2
NMTAP	65	312	5
NMTAP	65	336	2
NMTAP	65	360	5
EXTAP	66	0	2
NMTAP	66	24	4
NMTAP	66	48	2
NMTAP	66	72	4
EXTAP	66	96	2
NMTAP	66	120	4
NMTAP	66	144	2
NMTAP	66	168	4
EXTAP	66	192	1
NMTAP	66	216	4
NMTAP	66	240	1
NMTAP	66	264	4
EXTAP	66	288	1
NMTAP	66	312	4
NMTAP	66	336	1
NMTAP	66	360	4
EXTAP	67	0	2
NMTAP	67	24	3
NMTAP	67	48	2
NMTAP	67	72	3
EXTAP	67	96	1
NMTAP	67	120	4
NMTAP	67	144	1
NMTAP	67	168	4
EXTAP	67	192	0
NMTAP	67	216	5
NMTAP	67	240	0
NMTAP	67	264	5
EXTAP	67	288	7
NMTAP	67	312	6
NMTAP	67	336	7
NMTAP	67	360	6
EXTAP	68	0	0
EXTAP	68	0	5
NMTAP	68	48	2
NMTAP	68	72	3
NMTAP	68	96	2
NMTAP	68	144	3
NMTAP	68	144	6
NMTAP	68	192	5
NMTAP	68	216	4
NMTAP	68	240	5
NMTAP	68	288	2
NMTAP	68	288	6
EXTAP	69	0	1
NMTAP	69	24	0
NMTAP	69	48	1
NMTAP	69	72	0
EXTAP	69	96	1
NMTAP	69	120	0
NMTAP	69	144	1
NMTAP	69	168	0
EXTAP	69	192	2
NMTAP	69	216	7
NMTAP	69	240	2
NMTAP	69	264	7
EXTAP	69	288	2
NMTAP	69	312	7
NMTAP	69	336	2
NMTAP	69	360	7
EXTAP	70	0	3
NMTAP	70	24	6
NMTAP	70	48	3
NMTAP	70	72	6
EXTAP	70	96	2
NMTAP	70	120	5
NMTAP	70	144	2
NMTAP	70	168	5
EXTAP	70	192	1
NMTAP	70	216	4
NMTAP	70	240	1
NMTAP	70	264	4
EXTAP	70	288	0
NMTAP	70	312	5
NMTAP	70	336	0
NMTAP	70	360	5
BRTAP	71	0	7
NMTAP	71	24	6
NMTAP	71	48	0
NMTAP	71	72	5
BRTAP	71	96	7
NMTAP	71	120	6
NMTAP	71	144	0
NMTAP	71	168	5
BRTAP	71	192	7
NMTAP	71	216	6
NMTAP	71	240	0
NMTAP	71	264	5
BRTAP	71	288	7
NMTAP	71	312	6
NMTAP	71	336	0
NMTAP	71	360	5
EXTAP	72	0	1
EXTAP	72	0	4
NMTAP	72	48	2
NMTAP	72	72	3
NMTAP	72	96	2
NMTAP	72	144	3
NMTAP	72	144	4
NMTAP	72	192	5
NMTAP	72	216	4
NMTAP	72	240	6
NMTAP	72	288	3
NMTAP	72	288	7
NMSTR	73	0	2
NMSI_	73	0	2	96	48	7
NMHLD	73	96	4	96
NMSTR	73	192	6
NMSI_	73	192	6	96	48	1
NMTAP	73	240	6
NMSTR	73	288	4
NMSCR	73	288	4	96	48	7
NMTAP	73	336	4
NMTAP	74	48	1
NMTAP	74	96	1
NMTAP	74	192	3
NMTAP	74	192	4
NMTAP	74	288	6
NMSTR	74	288	7
BRSCR	74	288	7	96	96	3
NMSTR	75	0	3
BRSCR	75	0	3	96	96	7
NMSTR	75	96	7
BRSCR	75	96	7	96	96	3
NMTAP	75	192	3
NMTAP	75	288	5
NMTAP	75	336	5
NMTAP	76	48	1
NMTAP	76	48	3
NMTAP	76	144	4
NMTAP	76	144	6
NMTAP	76	240	0
NMTAP	76	240	7
NMSTR	76	288	1
NMSI_	76	288	1	96	48	4
NMTAP	76	288	6
NMTAP	77	0	1
NMSTR	77	0	5
NMSI_	77	0	5	96	48	0
NMSTR	77	96	2
NMSI_	77	96	2	96	48	7
NMTAP	77	96	5
NMTAP	77	192	2
NMSTR	77	192	6
NMSI_	77	192	6	96	48	3
NMSTR	77	288	0
NMSI_	77	288	0	96	48	4
NMTAP	77	288	6
NMTAP	78	0	0
NMSTR	78	0	7
NMSI_	78	0	7	96	48	3
NMTAP	78	48	7
NMSTR	78	96	1
NMSI_	78	96	1	96	48	4
NMTAP	78	96	7
NMTAP	78	144	1
NMTAP	78	192	1
NMSTR	78	192	5
NMSI_	78	192	5	96	48	0
NMTAP	78	240	5
NMTAP	78	288	1
NMTAP	78	288	5
NMTAP	78	336	1
NMTAP	79	0	1
NMTAP	79	0	7
NMTAP	79	48	5
NMTAP	79	72	4
NMTAP	79	96	5
NMTAP	79	144	0
NMTAP	79	144	6
NMTAP	79	192	2
NMTAP	79	216	3
NMTAP	79	240	2
NMTAP	79	288	1
NMTAP	79	288	7
NMTAP	79	336	5
NMTAP	79	360	4
NMTAP	80	0	5
NMTAP	80	48	3
NMTAP	80	72	4
NMTAP	80	96	2
NMTAP	80	120	5
NMTAP	80	144	1
NMTAP	80	168	6
NMSTR	80	192	0
NMSI_	80	192	0	96	48	4
NMTAP	80	216	4
NMTAP	80	240	2
NMTAP	80	264	6
BRSTR	80	288	0
NMSCR	80	288	0	96	384	7
NMTTP	81	0	5	B	0	M1
NMTTP	81	0	6	B	0	M1
NMTTP	81	0	6	E	1	M1

T_REC_TAP	510
T_REC_BRK	25
T_REC_XTP	50
T_REC_BXX	4
T_REC_HLD	6
T_REC_XHO	4
T_REC_BHO	1
T_REC_BXH	0
T_REC_STR	96
T_REC_BST	8
T_REC_XST	0
T_REC_XBS	0
T_REC_TTP	4
T_REC_THO	0
T_REC_SLD	99
T_REC_BSL	8
T_REC_ALL	815
T_NUM_TAP	660
T_NUM_BRK	46
T_NUM_HLD	10
T_NUM_SLD	99
T_NUM_ALL	815
T_JUDGE_TAP	697
T_JUDGE_HLD	23
T_JUDGE_SLD	107
T_JUDGE_ALL	827
TTM_EACHPAIRS	151
TTM_SCR_TAP	330000
TTM_SCR_BRK	119600
TTM_SCR_HLD	10000
TTM_SCR_SLD	148500
TTM_SCR_ALL	608100
TTM_SCR_S	585400
TTM_SCR_SS	603500
TTM_RAT_ACV	10076

