VERSION	0.00.00	1.04.00
FES_MODE	0
BPM_DEF	158.000	158.000	200.000	158.000
MET_DEF	4	4
RESOLUTION	384
CLK_DEF	384
COMPATIBLE_CODE	MA2

BPM	0	0	158.000
BPM	44	0	200.000
MET	0	0	4	4

NMHLD	1	192	2	864
NMSTR	1	288	3
NMSCL	1	288	3	96	480	4
NMSTR	3	288	3
NMSXL	3	288	3	96	192	4
EXSTR	4	288	4
NMSV_	4	288	4	96	72	7
CNSCL	5	72	7	0	72	5
EXSTR	5	96	3
NMSV_	5	96	3	96	72	0
CNSCR	5	264	0	0	72	2
EXTAP	5	288	4
NMTAP	6	0	5
NMTAP	6	96	6
NMHLD	6	144	6	96
NMHLD	6	240	4	96
NMHLD	6	336	3	96
NMHLD	7	48	1	96
NMTAP	7	144	3
NMTAP	7	240	3
NMSTR	7	288	4
NMSI_	7	288	4	96	192	7
NMTAP	8	0	0
NMTAP	8	96	1
NMTAP	8	192	2
NMTAP	8	288	3
NMTAP	8	288	6
NMSTR	9	0	4
NMSXR	9	0	4	96	192	3
NMSTR	9	0	5
NMSUR	9	0	5	96	192	3
NMTTP	10	192	2	B	0	M1
NMTTP	10	192	2	E	0	M1
NMTTP	10	192	2	A	0	M1
NMTTP	10	192	5	B	0	M1
NMTTP	10	192	5	A	0	M1
NMTTP	10	192	6	E	0	M1
NMTAP	11	0	3
NMTAP	11	0	4
BRHLD	11	96	7	96
NMTAP	11	192	0
NMTAP	11	240	0
NMTAP	11	288	1
NMTAP	11	288	5
NMSTR	12	0	2
NMSI_	12	0	2	96	48	0
NMSTR	12	0	4
NMSI_	12	0	4	96	48	7
EXTAP	12	96	2
EXTAP	12	96	4
EXTAP	12	192	0
EXTAP	12	192	6
EXTAP	12	240	0
EXTAP	12	240	6
NMHLD	12	336	5	96
NMHLD	13	48	7	96
NMHLD	13	144	0	96
NMTAP	13	240	2
NMTAP	13	288	2
NMSTR	14	0	3
NMSI_	14	0	3	96	48	0
NMSTR	14	0	5
NMSI_	14	0	5	96	48	7
EXTAP	14	96	3
EXTAP	14	96	5
EXTAP	14	192	1
EXTAP	14	192	7
EXTAP	14	240	1
EXTAP	14	240	7
NMSTR	14	336	0
NMSCR	14	336	0	96	48	3
NMSTR	15	48	6
NMSCL	15	48	6	96	48	3
NMHLD	15	144	1	96
NMTAP	15	240	4
NMTAP	15	288	4
NMSTR	16	0	2
NMSI_	16	0	2	96	48	0
NMSTR	16	0	3
NMSCR	16	0	3	96	48	5
EXTAP	16	96	2
EXTAP	16	96	3
NMTAP	16	192	1
NMTAP	16	192	4
NMHLD	16	240	1	96
NMHLD	16	240	4	96
NMTTP	17	48	2	B	0	M1
NMTTP	17	48	3	B	0	M1
NMTTP	17	48	3	E	0	M1
NMTAP	17	144	1
NMTAP	17	144	4
NMTAP	17	240	5
NMSTR	17	288	6
NMSI_	17	288	6	96	48	1
NMTAP	18	0	3
NMSTR	18	48	2
NMSI_	18	48	2	96	48	5
NMTAP	18	144	5
NMSTR	18	192	6
NMSI_	18	192	6	96	48	1
NMTAP	18	288	3
NMSTR	18	336	2
NMSI_	18	336	2	96	48	5
NMTAP	19	48	5
NMHLD	19	96	6	96
NMTAP	19	192	3
NMTAP	19	288	2
NMTAP	19	288	5
NMTAP	20	0	1
NMTAP	20	0	4
NMSTR	20	96	2
NMSXR	20	96	2	96	96	1
NMSTR	20	96	5
NMSXL	20	96	5	96	96	6
EXSTR	21	0	3
NMSI_	21	0	3	96	96	0
EXSTR	21	0	4
NMSI_	21	0	4	96	96	7
NMTAP	21	288	0
NMTAP	21	288	7
NMHLD	22	0	6	192
NMTAP	22	96	4
NMHLD	22	192	1	192
NMTAP	22	288	3
NMTAP	23	0	5
NMTAP	23	48	5
NMTAP	23	96	3
NMTAP	23	96	6
NMTAP	23	192	2
NMTAP	23	240	2
NMTAP	23	288	1
NMTAP	23	288	4
NMTAP	24	0	6
NMTAP	24	48	6
NMTTP	24	144	2	B	0	M1
NMTTP	24	144	3	B	0	M1
NMTTP	24	144	4	B	0	M1
NMTAP	24	240	1
NMTAP	24	240	5
NMTAP	24	288	1
NMTAP	24	288	5
NMHLD	25	0	7	96
NMTAP	25	96	0
NMSTR	25	144	0
NMSCL	25	144	0	96	48	5
NMSCR	25	144	0	96	48	3
NMTAP	26	0	4
NMTAP	26	0	6
NMTAP	26	96	0
NMTAP	26	96	7
NMTAP	26	192	1
NMTAP	26	192	3
NMTAP	26	288	3
NMTAP	26	288	5
NMHLD	27	0	1	96
NMTAP	27	0	7
BRTAP	27	96	3
NMTAP	27	192	2
NMTAP	27	192	6
NMTTP	27	288	4	B	0	M1
NMHLD	28	0	0	96
NMHLD	28	0	5	96
NMTAP	28	192	1
NMSTR	28	288	3
NMSCR	28	288	3	96	192	7
NMSTR	28	288	4
NMSCL	28	288	4	96	192	0
NMHLD	29	288	0	384
NMTAP	29	288	7
NMSTR	30	0	6
NMSCR	30	0	6	96	144	1
EXTAP	31	0	1
EXTAP	31	0	7
NMTTP	31	96	2	E	0	M1
NMTTP	31	96	7	E	0	M1
EXTAP	31	192	0
EXTAP	31	192	6
NMTTP	31	288	1	E	0	M1
NMTTP	31	288	6	E	0	M1
NMTAP	32	0	7
NMSTR	32	48	7
NMSUR	32	48	7	96	96	5
NMHLD	32	144	1	96
NMTAP	32	336	7
NMTAP	33	0	0
NMSTR	33	48	0
NMSUL	33	48	0	96	96	2
NMHLD	33	144	6	96
NMTAP	33	336	4
NMTAP	34	0	4
NMTAP	34	96	2
NMTAP	34	96	3
NMTAP	34	192	4
NMTAP	34	192	6
NMTAP	34	288	1
NMTAP	34	288	3
NMHLD	35	0	2	48
NMHLD	35	0	7	48
NMHLD	35	96	0	48
NMHLD	35	96	5	48
NMHLD	35	192	2	48
NMHLD	35	192	7	48
NMTAP	35	288	0
NMSTR	35	288	5
NMSCL	35	288	5	96	192	7
NMTTP	36	0	0	C	1	M1
NMHLD	36	336	1	288
NMTAP	36	336	6
EXTAP	37	48	7
EXTAP	37	96	7
EXTAP	37	144	7
NMTTP	37	240	0	E	0	M1
NMSTR	38	0	2
NMSCL	38	0	2	96	48	0
NMSTR	38	0	4
NMSCR	38	0	4	96	48	6
EXTAP	38	96	2
EXTAP	38	96	4
NMSTR	38	192	3
NMSCL	38	192	3	96	48	1
NMSTR	38	192	5
NMSCR	38	192	5	96	48	7
EXTAP	38	288	3
EXTAP	38	288	5
NMTAP	39	0	1
NMTAP	39	0	5
NMTTP	39	96	2	E	0	M1
NMTTP	39	96	5	E	0	M1
NMTAP	39	192	2
NMTAP	39	192	6
NMTTP	39	288	3	E	0	M1
NMTTP	39	288	6	E	0	M1
NMTAP	40	0	4
NMTAP	40	48	3
NMTAP	40	96	2
NMTAP	40	96	6
NMTTP	40	192	5	B	0	M1
NMTAP	40	288	1
NMTAP	40	288	7
NMTAP	41	0	0
NMTAP	41	0	6
NMTAP	41	48	1
NMTAP	41	48	5
NMTAP	41	96	2
NMSTR	41	96	4
NMSCL	41	96	4	96	96	7
NMTAP	42	0	7
NMTAP	42	48	7
NMTAP	42	96	4
NMTAP	42	144	4
NMTAP	42	192	5
NMTAP	42	240	5
NMSTR	42	288	2
NMSXL	42	288	2	96	240	7
NMHLD	43	0	4	480
EXTAP	44	0	5
EXTAP	44	96	5
NMTAP	44	192	3
BRTAP	44	288	2
BRTAP	44	288	4
NMSTR	45	0	1
NMSI_	45	0	1	96	48	3
NMTAP	45	0	5
NMTAP	45	96	4
NMTAP	45	192	2
NMSTR	45	192	6
NMSI_	45	192	6	96	48	4
NMTAP	45	288	3
NMSTR	46	0	1
NMSI_	46	0	1	96	48	3
NMTAP	46	0	5
NMTAP	46	96	4
NMTAP	46	192	2
NMTAP	46	192	6
NMSTR	46	288	7
NMSCL	46	288	7	96	96	3
NMSTR	47	0	3
NMSCL	47	0	3	96	96	7
NMSTR	47	96	7
NMSCL	47	96	7	96	96	3
NMSTR	47	192	3
NMSCL	47	192	3	96	96	7
BRTAP	47	288	7
BRTAP	48	0	3
BRTAP	48	96	4
BRTAP	48	192	4
BRTAP	48	192	5
BRSTR	48	288	6
NMSCL	48	288	6	96	48	3
BRSTR	48	288	7
NMSCR	48	288	7	96	48	2
NMSTR	49	96	6
NMSCL	49	96	6	96	48	3
NMSTR	49	96	7
NMSCR	49	96	7	96	48	2
NMSTR	49	288	6
NMSV_	49	288	6	96	48	4
NMSTR	49	288	7
NMSV_	49	288	7	96	48	1
EXTAP	50	96	0
EXTAP	50	96	3
NMTAP	50	192	1
NMTAP	50	192	4
NMTAP	50	288	2
NMSTR	50	288	5
NMSXL	50	288	5	96	240	2
NMHLD	51	0	1	384
NMTAP	52	0	0
NMTAP	52	96	3
NMTAP	52	96	5
NMTAP	52	192	7
NMTAP	52	288	2
NMTAP	52	288	4
NMHLD	53	0	1	48
NMHLD	53	0	5	48
NMHLD	53	96	1	48
NMHLD	53	96	4	48
NMHLD	53	192	2	48
NMHLD	53	192	6	48
NMHLD	53	288	3	48
NMHLD	53	288	6	48
NMHLD	54	0	1	48
NMHLD	54	0	5	48
NMHLD	54	96	1	48
NMHLD	54	96	4	48
NMHLD	54	192	3	48
NMHLD	54	192	6	48
NMTAP	54	288	1
NMSTR	54	288	3
NMSUR	54	288	3	96	72	7
BRTAP	55	0	0
CNSCR	55	72	7	0	72	2
CNSUR	55	144	2	0	144	6
NMTAP	56	0	2
NMSTR	56	0	3
NMSI_	56	0	3	96	48	7
NMSTR	56	192	4
NMSI_	56	192	4	96	48	0
NMTAP	56	192	5
NMTAP	57	0	2
NMSTR	57	96	1
NMSXR	57	96	1	96	288	4
NMTTP	57	192	5	E	0	M1
NMTTP	57	288	6	E	0	M1
NMHLD	58	96	7	96
NMTAP	58	192	5
NMTAP	58	288	3
NMTAP	59	0	1
NMSTR	59	96	0
NMSI_	59	96	0	96	48	4
NMSTR	59	192	6
NMSI_	59	192	6	96	48	2
NMSTR	59	288	1
NMSI_	59	288	1	96	48	5
NMSTR	60	0	7
NMSI_	60	0	7	96	48	3
NMSTR	60	96	0
NMSI_	60	96	0	96	48	4
NMTAP	60	192	5
NMTAP	60	288	5
NMTAP	61	0	3
NMHLD	61	0	4	96
NMHLD	61	96	2	96
NMHLD	61	192	0	96
NMHLD	61	288	7	96
NMHLD	62	0	5	96
NMTAP	62	96	3
NMTAP	62	192	2
NMTAP	62	192	4
NMTAP	62	288	0
NMTAP	62	288	7
NMTAP	63	0	2
NMTAP	63	0	5
NMTAP	63	48	2
NMTAP	63	48	5
NMTAP	63	144	7
EXSTR	63	192	7
NMSCL	63	192	7	96	96	3
EXHLD	63	288	2	1248
CNSUL	64	0	3	0	192	0
BXTAP	64	288	7
NMSTR	65	0	0
BRSCL	65	0	0	96	48	4
NMSTR	65	192	0
BRSLL	65	192	0	96	48	4
NMSTR	66	0	0
BRSI_	66	0	0	96	48	4
NMSTR	66	192	0
BRSI_	66	192	0	96	48	4
NMTAP	67	0	0
NMTAP	67	96	0
NMTAP	67	96	1
NMTAP	67	192	2
NMTAP	67	240	2
NMTAP	67	288	4
NMTAP	67	336	4
NMTAP	68	0	0
NMTAP	68	48	0
NMTAP	68	96	6
NMTAP	68	144	6
NMTAP	68	192	3
NMSTR	68	288	1
NMSCR	68	288	1	96	48	3
EXSTR	68	288	4
NMSCR	68	288	4	96	48	7
EXSTR	69	96	3
NMSCL	69	96	3	96	48	0
NMSTR	69	96	6
NMSCL	69	96	6	96	48	4
NMSTR	69	288	1
NMSCR	69	288	1	96	48	3
EXSTR	69	288	4
NMSCR	69	288	4	96	48	7
EXSTR	70	96	3
NMSCL	70	96	3	96	48	0
NMSTR	70	96	6
NMSCL	70	96	6	96	48	4
NMTAP	70	288	1
NMTTP	71	0	2	B	0	M1
NMTTP	71	0	2	E	0	M1
NMTTP	71	0	3	E	0	M1
NMTTP	71	0	5	B	0	M1
NMTTP	71	0	5	E	0	M1
NMTTP	71	0	6	E	0	M1
EXTAP	71	96	1
EXTAP	71	96	6
EXSTR	71	192	0
NMSCR	71	192	0	96	48	3
EXSTR	71	192	7
NMSCL	71	192	7	96	48	4
EXHLD	72	0	1	96
EXTAP	72	0	6
NMTAP	72	96	3
NMTAP	72	144	3
BRTAP	72	240	0
BRTAP	72	240	6
BRTAP	72	288	0
BRTAP	72	288	6
NMTAP	73	0	3
NMTAP	73	0	5
NMTAP	73	96	6
NMTAP	73	192	4
NMHLD	73	192	7	96
NMTAP	73	288	3
NMTAP	74	0	2
NMTAP	74	96	1
NMTAP	74	192	0
NMTAP	74	192	6
NMSTR	74	288	0
NMSXL	74	288	0	96	144	1
NMSTR	74	288	7
NMSXR	74	288	7	96	144	6
EXTAP	75	288	1
EXTAP	75	288	7
EXTAP	75	336	1
EXTAP	75	336	7
EXTAP	76	48	0
EXTAP	76	48	6
NMHLD	76	144	2	912
NMSTR	76	144	4
NMSI_	76	144	4	96	48	0
BXTAP	77	0	7
BXTAP	77	96	1
BXTAP	77	192	6
BXTAP	77	288	3
BXTAP	78	0	7
BXTAP	78	96	3
BXTAP	78	192	4
BXSTR	78	288	7
NMSCL	78	288	7	96	48	3
NMSTR	79	0	1
NMSXL	79	0	1	96	192	4
EXTAP	79	144	5
NMTAP	79	288	6
NMHLD	79	336	6	96
NMTAP	80	48	4
NMTAP	80	96	4
NMTAP	80	144	7
NMTAP	80	192	7
NMTAP	80	240	3
NMSTR	80	288	3
NMSCL	80	288	3	96	432	0
NMSCR	80	288	3	96	432	6

T_REC_TAP	167
T_REC_BRK	13
T_REC_XTP	40
T_REC_BXX	8
T_REC_HLD	53
T_REC_XHO	2
T_REC_BHO	1
T_REC_BXH	0
T_REC_STR	66
T_REC_BST	2
T_REC_XST	11
T_REC_XBS	1
T_REC_TTP	32
T_REC_THO	0
T_REC_SLD	78
T_REC_BSL	4
T_REC_ALL	478
T_NUM_TAP	316
T_NUM_BRK	29
T_NUM_HLD	55
T_NUM_SLD	78
T_NUM_ALL	478
T_JUDGE_TAP	340
T_JUDGE_HLD	177
T_JUDGE_SLD	82
T_JUDGE_ALL	599
TTM_EACHPAIRS	103
TTM_SCR_TAP	158000
TTM_SCR_BRK	75400
TTM_SCR_HLD	55000
TTM_SCR_SLD	117000
TTM_SCR_ALL	405400
TTM_SCR_S	390450
TTM_SCR_SS	402500
TTM_RAT_ACV	10072

