VERSION	0.00.00	1.04.00
FES_MODE	0
BPM_DEF	158.000	158.000	200.000	158.000
MET_DEF	4	4
RESOLUTION	384
CLK_DEF	384
COMPATIBLE_CODE	MA2

BPM	0	0	158.000
BPM	44	0	200.000
MET	0	0	4	4

BXSTR	2	0	5
BRSCL	2	0	5	96	480	6
NMHLD	4	0	5	672
NMTTP	4	96	3	E	0	M1
NMTTP	4	192	4	E	0	M1
NMTTP	4	288	5	E	0	M1
NMTTP	5	0	6	E	0	M1
NMTTP	5	96	7	E	0	M1
NMTTP	5	192	0	E	0	M1
NMTTP	5	288	1	E	0	M1
BXSTR	6	0	2
BRSCR	6	0	2	96	480	1
NMHLD	8	0	2	672
NMTTP	8	96	5	E	0	M1
NMTTP	8	192	4	E	0	M1
NMTTP	8	288	3	E	0	M1
NMTTP	9	0	2	E	0	M1
NMTTP	9	96	1	E	0	M1
NMTTP	9	192	0	E	0	M1
NMTTP	9	288	7	E	0	M1
NMTAP	10	192	3
NMTAP	10	192	4
NMTAP	11	0	2
NMTAP	11	0	4
NMTAP	11	96	7
BXTAP	12	0	0
NMTAP	12	96	1
NMTAP	12	96	7
NMTAP	12	192	2
NMTAP	12	240	2
NMTAP	12	336	3
NMTAP	13	48	4
NMTAP	13	144	5
NMTAP	13	192	5
NMTAP	13	288	7
NMTAP	14	0	2
NMTAP	14	96	1
NMTAP	14	96	7
NMTAP	14	192	6
NMTAP	14	240	6
NMTAP	14	288	6
EXTAP	14	336	7
EXTAP	15	48	0
EXTAP	15	144	1
EXTAP	15	240	0
EXTAP	15	240	1
NMTAP	15	288	0
NMTAP	15	288	1
BRTAP	16	0	7
NMTAP	16	96	0
NMTAP	16	96	6
NMTAP	16	192	5
NMTAP	16	240	5
NMTAP	16	336	4
NMTAP	17	48	3
NMTAP	17	144	5
NMTAP	17	192	5
NMTAP	17	240	3
NMTAP	17	288	3
EXTAP	18	0	1
EXTAP	18	0	7
EXTAP	18	48	1
EXTAP	18	48	7
EXTAP	18	144	0
EXTAP	18	144	6
EXTAP	18	192	0
EXTAP	18	192	6
EXTAP	18	288	2
EXTAP	18	336	2
EXTAP	19	48	4
EXTAP	19	96	4
NMTAP	19	192	3
NMTAP	19	192	5
NMTAP	19	288	3
NMTAP	19	288	5
NMTAP	20	0	6
NMTAP	20	96	6
NMTAP	20	192	5
NMTAP	20	288	4
NMSTR	21	0	3
NMSXR	21	0	3	96	144	1
NMSTR	21	0	4
NMSXL	21	0	4	96	144	6
NMTAP	22	0	0
NMTAP	22	96	1
NMTAP	22	192	2
NMTAP	22	288	3
NMTAP	22	288	4
NMTAP	23	0	5
NMTAP	23	96	4
NMTAP	23	192	3
NMTAP	23	288	2
NMTAP	24	0	1
NMTAP	24	0	7
NMTAP	24	96	0
NMTAP	24	144	0
NMTAP	24	288	6
NMTAP	25	0	5
NMTAP	25	0	7
NMTAP	25	96	6
NMTAP	25	144	6
NMTAP	25	288	0
NMTAP	26	0	1
NMTAP	26	48	1
NMTAP	26	96	0
NMTAP	26	192	6
NMTAP	26	240	6
NMTAP	26	288	7
NMTAP	27	0	4
NMTAP	27	0	6
NMTAP	27	96	3
NMTAP	27	96	5
NMTAP	27	192	2
NMTAP	27	192	4
NMTAP	27	288	1
NMTAP	27	288	3
NMTAP	28	0	2
NMTAP	28	96	2
NMTAP	28	192	3
NMTAP	28	288	3
NMSTR	29	0	3
NMSCL	29	0	3	96	192	0
NMSTR	29	0	4
NMSCR	29	0	4	96	192	7
NMTAP	30	0	7
NMTAP	30	96	6
NMTAP	30	192	5
NMTAP	30	288	3
NMTAP	30	288	4
NMTAP	31	0	2
NMTAP	31	96	3
NMTAP	31	192	4
NMTAP	31	288	5
NMTAP	32	0	0
NMTAP	32	0	6
NMTAP	32	96	7
NMTAP	32	144	7
NMTAP	32	288	1
NMTAP	33	0	0
NMTAP	33	0	2
NMTAP	33	96	1
NMTAP	33	144	1
NMTAP	33	288	7
NMTAP	34	0	6
NMTAP	34	48	6
NMTAP	34	96	7
NMTAP	34	192	1
NMTAP	34	240	1
NMTAP	34	288	0
NMTAP	35	0	2
NMTAP	35	0	7
NMTAP	35	96	0
NMTAP	35	96	5
NMTAP	35	192	2
NMTAP	35	192	7
NMSTR	35	288	5
NMSCL	35	288	5	96	288	6
NMTAP	36	336	0
NMTAP	37	48	1
NMTAP	37	48	6
NMTAP	37	96	1
NMTAP	37	96	6
NMTAP	37	144	1
NMTAP	37	144	6
NMTAP	37	240	0
NMTAP	37	240	7
NMTAP	38	0	6
NMTAP	38	48	6
NMTAP	38	96	6
NMTAP	38	96	7
NMTAP	38	192	1
NMTAP	38	240	1
NMTAP	38	288	0
NMTAP	38	288	1
NMTAP	39	0	5
NMTAP	39	48	5
NMTAP	39	96	4
NMTAP	39	96	5
NMTAP	39	192	2
NMTAP	39	240	2
NMTAP	39	288	2
NMTAP	39	288	3
NMTTP	40	0	1	B	0	M1
NMTTP	40	96	3	B	0	M1
NMTTP	40	192	4	B	0	M1
NMTTP	40	288	6	B	0	M1
NMTHO	41	0	0	192	C	1	M1
NMTTP	42	0	7	E	0	M1
NMTTP	42	96	0	E	0	M1
NMTTP	42	192	1	E	0	M1
NMTTP	42	288	2	E	0	M1
NMTTP	43	0	3	E	0	M1
NMTTP	43	96	4	E	0	M1
NMTTP	43	192	1	B	0	M1
NMTTP	43	192	2	B	0	M1
NMTTP	43	192	2	E	0	M1
NMTTP	43	192	5	B	0	M1
NMTTP	43	192	6	B	0	M1
NMTTP	43	192	6	E	0	M1
NMTAP	44	0	3
NMTAP	44	96	3
NMTAP	44	192	3
NMTAP	44	288	3
NMTAP	45	0	2
NMHLD	45	0	4	96
NMHLD	45	96	3	192
NMTAP	45	192	5
NMHLD	45	288	4	192
NMTAP	46	0	1
NMHLD	46	96	3	192
NMTAP	46	192	6
NMTAP	46	288	6
NMTAP	47	0	1
NMTAP	47	96	0
NMTAP	47	192	7
NMTAP	47	288	6
NMHLD	48	0	1	96
NMHLD	48	96	0	96
NMHLD	48	192	7	96
BRTAP	48	288	6
NMTAP	49	0	0
NMTAP	49	96	1
NMTAP	49	96	7
NMTAP	49	192	2
NMTAP	49	192	4
NMTAP	49	288	6
NMTAP	49	288	7
NMTAP	50	0	3
NMTAP	50	0	5
NMTAP	50	96	0
NMTAP	50	96	1
NMTAP	50	192	2
NMTAP	50	192	4
NMTAP	50	288	6
NMTAP	50	288	7
NMTAP	51	0	6
NMTAP	51	0	7
NMTAP	51	96	4
NMTAP	51	96	5
NMTAP	51	192	2
NMTAP	51	192	3
NMTAP	51	288	1
NMTAP	51	288	7
NMTAP	52	0	0
NMTAP	52	96	1
NMTAP	52	96	7
NMTAP	52	144	1
NMTAP	52	144	7
NMTAP	52	240	0
NMTAP	52	240	6
NMTAP	52	288	0
NMTAP	52	288	6
NMTAP	53	0	7
NMTAP	53	96	0
NMTAP	53	96	6
NMTAP	53	192	3
NMTAP	53	192	5
NMTAP	53	288	0
NMTAP	53	288	1
NMTAP	54	0	2
NMTAP	54	0	4
NMTAP	54	96	0
NMTAP	54	96	6
NMTAP	54	192	4
NMHLD	54	192	5	384
BRSTR	54	288	7
NMSCR	54	288	7	96	240	4
NMHLD	56	0	4	96
NMHLD	56	0	6	96
EXHLD	56	192	1	96
EXHLD	56	192	3	96
NMTAP	57	0	0
NMTAP	57	96	0
NMTAP	57	192	0
NMTAP	57	288	1
NMHLD	57	336	1	432
NMTAP	58	96	7
NMTAP	58	192	7
NMTAP	58	288	6
NMTAP	59	0	5
NMTAP	59	192	0
NMTAP	59	192	7
NMTAP	59	288	1
NMTAP	59	288	6
NMTAP	59	336	1
NMTAP	59	336	6
NMSTR	60	48	0
NMSI_	60	48	0	96	96	4
NMSTR	60	48	7
NMSI_	60	48	7	96	96	3
NMTAP	61	0	2
NMTAP	61	96	1
NMTAP	61	96	3
NMTAP	61	192	5
NMTAP	61	288	4
NMTAP	61	288	6
NMTAP	62	0	0
NMTAP	62	96	1
NMTAP	62	96	7
NMTAP	62	192	3
NMTAP	62	192	4
NMTAP	62	288	3
NMTAP	62	288	4
NMHLD	63	0	6	144
NMTAP	63	144	4
NMTAP	63	288	2
NMHLD	63	336	2	144
NMHLD	64	96	0	96
NMHLD	64	192	7	96
NMTAP	64	288	5
NMTAP	65	0	0
NMTAP	65	96	2
NMTAP	65	96	4
NMTAP	65	144	2
NMTAP	65	144	4
NMTAP	65	240	0
NMTAP	65	240	6
NMTAP	65	336	0
NMTAP	65	336	6
NMTAP	66	48	1
NMTAP	66	96	0
NMTAP	66	144	2
NMTAP	66	144	7
NMTAP	66	240	0
NMTAP	66	240	5
NMTAP	66	288	0
NMTAP	66	288	5
NMTAP	67	0	6
NMTAP	67	0	7
NMTAP	67	96	6
NMTAP	67	96	7
NMTAP	67	192	4
NMTAP	67	192	5
NMTAP	67	288	2
NMTAP	67	288	3
NMTAP	68	0	0
NMTAP	68	0	1
NMTAP	68	96	2
NMTAP	68	96	7
NMTAP	68	144	2
NMTAP	68	144	7
NMTAP	68	240	0
NMTAP	68	240	5
NMTAP	68	288	0
NMTAP	68	288	5
NMSTR	69	0	1
NMSUR	69	0	1	96	72	5
NMSTR	69	192	6
NMSUL	69	192	6	96	72	2
EXSTR	70	0	1
NMSCR	70	0	1	96	72	4
NMTAP	70	192	6
NMHLD	70	288	3	192
NMTAP	70	288	4
BXSTR	71	0	2
BRSCL	71	0	2	96	192	5
NMTAP	72	0	0
NMTAP	72	96	3
NMTAP	72	96	4
NMTAP	72	144	3
NMTAP	72	144	4
NMTAP	72	240	1
NMTAP	72	240	6
NMTAP	72	288	1
NMTAP	72	288	6
NMTAP	73	0	7
NMTAP	73	96	0
NMTAP	73	96	6
NMTAP	73	192	1
NMTAP	73	288	2
NMTAP	73	288	3
NMTAP	73	336	2
NMTAP	73	336	3
NMTAP	74	48	1
NMTAP	74	48	4
NMTAP	74	96	1
NMTAP	74	96	4
NMTAP	74	192	3
NMTAP	74	192	6
NMTAP	74	288	1
NMTAP	75	0	0
NMTAP	75	96	6
NMTAP	75	144	6
NMTAP	75	192	7
NMTAP	75	288	4
NMTAP	75	288	5
NMTAP	75	336	4
NMTAP	75	336	5
NMTAP	76	48	3
NMTAP	76	48	6
NMTAP	76	144	1
NMTAP	76	144	4
NMTAP	76	240	0
NMTAP	76	240	7
NMHLD	77	0	5	96
NMHLD	77	96	7	96
NMHLD	77	192	0	96
NMHLD	77	288	2	96
NMHLD	78	0	4	96
NMHLD	78	96	6	96
NMHLD	78	192	0	96
NMHLD	78	288	2	96
BRTAP	79	0	4
NMTAP	79	144	0
NMTAP	79	288	1
NMTAP	79	288	6
NMTAP	79	336	1
NMTAP	79	336	6
NMTAP	80	48	0
NMTAP	80	48	7
NMSTR	80	96	0
NMSCR	80	96	0	96	96	3
NMSTR	80	96	7
NMSCL	80	96	7	96	96	4
NMHLD	81	0	1	384
NMHLD	81	0	6	384

T_REC_TAP	302
T_REC_BRK	3
T_REC_XTP	17
T_REC_BXX	1
T_REC_HLD	28
T_REC_XHO	2
T_REC_BHO	0
T_REC_BXH	0
T_REC_STR	11
T_REC_BST	1
T_REC_XST	1
T_REC_XBS	3
T_REC_TTP	30
T_REC_THO	1
T_REC_SLD	13
T_REC_BSL	3
T_REC_ALL	416
T_NUM_TAP	361
T_NUM_BRK	11
T_NUM_HLD	31
T_NUM_SLD	13
T_NUM_ALL	416
T_JUDGE_TAP	369
T_JUDGE_HLD	123
T_JUDGE_SLD	16
T_JUDGE_ALL	508
TTM_EACHPAIRS	106
TTM_SCR_TAP	180500
TTM_SCR_BRK	28600
TTM_SCR_HLD	31000
TTM_SCR_SLD	19500
TTM_SCR_ALL	259600
TTM_SCR_S	250750
TTM_SCR_SS	258500
TTM_RAT_ACV	10042

