VERSION	0.00.00	1.04.00
FES_MODE	0
BPM_DEF	166.000	 55.333	166.000	 55.333
MET_DEF	4	4
RESOLUTION	384
CLK_DEF	576
COMPATIBLE_CODE	MA2

BPM	0	0	166.000
BPM	1	192	 55.333
MET	0	0	4	4
MET	1	0	4	2
MET	1	192	4	4

NMSTR	1	192	7
NMSCL	1	192	7	96	64	3
NMTAP	1	224	0
NMTAP	1	288	2
NMTAP	1	320	1
NMSTR	2	0	0
NMSCR	2	0	0	96	64	4
NMTAP	2	32	7
NMTAP	2	96	5
NMTAP	2	128	6
NMSTR	2	192	7
NMSCL	2	192	7	96	64	3
NMTAP	2	224	0
NMTAP	2	288	2
NMTAP	2	320	1
NMTAP	3	0	0
NMTAP	3	32	7
NMTAP	3	64	6
NMTAP	3	96	5
BRTAP	3	128	6
NMSTR	3	192	3
NMSI_	3	192	3	96	64	7
NMTAP	3	224	3
NMSTR	3	288	5
NMSCL	3	288	5	96	64	2
NMTAP	3	320	5
NMSTR	4	0	0
NMSV_	4	0	0	96	64	3
NMTAP	4	32	0
NMTAP	4	96	3
NMSTR	4	192	4
NMSI_	4	192	4	96	64	0
NMTAP	4	224	4
NMSTR	4	288	2
NMSCR	4	288	2	96	64	5
NMTAP	4	320	2
NMSTR	5	0	7
NMSXR	5	0	7	96	96	7
NMTAP	5	32	7
NMTAP	5	96	3
NMSTR	5	192	3
NMSI_	5	192	3	96	64	7
NMTAP	5	224	3
NMSTR	5	288	5
NMSCL	5	288	5	96	64	2
NMTAP	5	320	5
NMSTR	6	0	0
NMSV_	6	0	0	96	64	3
NMTAP	6	32	0
NMTAP	6	96	3
NMSTR	6	192	4
NMSI_	6	192	4	96	64	0
NMTAP	6	224	4
NMSTR	6	288	2
NMSCR	6	288	2	96	64	5
NMTAP	6	320	2
NMSTR	7	0	7
NMSCR	7	0	7	96	96	5
NMTAP	7	32	7
NMTAP	7	96	3
NMHLD	7	192	1	96
NMTAP	7	256	0
NMSTR	7	288	0
NMSCL	7	288	0	96	160	1
NMTAP	8	0	3
NMTAP	8	32	3
NMTAP	8	64	2
NMTAP	8	96	1
NMTAP	8	128	0
NMTAP	8	160	7
NMHLD	8	192	0	32
NMHLD	8	224	7	32
NMHLD	8	256	6	32
NMHLD	8	288	5	32
NMHLD	8	320	4	32
NMHLD	8	352	3	32
NMHLD	9	0	2	160
NMTTP	9	32	1	E	0	M1
NMTTP	9	32	1	D	0	M1
NMTTP	9	64	0	E	0	M1
NMTTP	9	64	0	D	0	M1
NMTTP	9	96	7	E	0	M1
NMTTP	9	96	7	D	0	M1
NMTTP	9	128	6	E	0	M1
NMTTP	9	128	6	D	0	M1
NMTTP	9	160	5	E	0	M1
NMTTP	9	160	5	D	0	M1
NMHLD	9	192	6	96
NMTAP	9	256	7
NMSTR	9	288	7
NMSCR	9	288	7	96	160	6
NMTAP	10	0	4
NMTAP	10	32	4
NMTAP	10	64	5
NMTAP	10	96	6
NMTAP	10	128	7
NMTAP	10	160	0
NMSTR	10	192	7
NMSCL	10	192	7	96	64	4
NMTAP	10	224	7
NMTAP	10	256	7
NMSTR	10	288	3
BRSV_	10	288	3	96	32	1
NMTAP	10	288	7
NMTAP	10	320	3
NMTAP	10	352	3
NMTAP	11	0	3
CNSCL	11	32	1	0	64	5
NMTAP	11	96	4
BRTAP	11	128	2
BRTAP	11	128	6
EXSTR	11	192	0
NMSUR	11	192	0	96	64	4
NMTAP	11	224	4
NMTAP	11	245	5
NMTAP	11	256	5
NMSTR	11	288	6
NMSUL	11	288	6	96	64	2
NMTAP	11	320	7
NMTAP	11	341	0
NMTAP	11	352	0
NMTAP	12	0	3
NMSTR	12	32	1
NMSI_	12	32	1	96	32	5
NMTAP	12	53	1
NMTAP	12	85	7
NMTAP	12	96	7
NMTAP	12	128	6
EXSTR	12	192	6
NMSI_	12	192	6	96	32	3
NMSTR	12	224	3
NMSI_	12	224	3	96	32	6
NMTAP	12	245	3
NMTAP	12	277	1
NMTAP	12	288	1
NMTAP	12	320	0
NMTAP	12	352	1
NMTAP	13	0	2
NMSTR	13	32	4
NMSI_	13	32	4	96	32	0
NMSTR	13	32	5
NMSI_	13	32	5	96	32	1
NMTAP	13	64	0
NMTAP	13	64	7
NMTAP	13	85	2
NMTAP	13	96	3
BRTAP	13	128	4
BRTAP	13	128	5
NMSTR	13	192	2
NMSI_	13	192	2	96	32	7
NMSTR	13	224	6
NMSI_	13	224	6	96	32	3
NMTAP	13	245	6
NMTAP	13	277	4
NMTAP	13	288	2
NMTAP	13	320	6
NMTAP	13	352	0
NMSTR	14	0	1
NMSI_	14	0	1	96	32	4
NMSTR	14	32	5
NMSI_	14	32	5	96	32	0
NMTAP	14	53	5
NMTAP	14	85	7
NMTAP	14	96	1
NMTAP	14	128	5
NMSTR	14	192	3
NMSI_	14	192	3	96	32	0
NMSTR	14	224	0
NMSI_	14	224	0	96	32	5
NMTAP	14	256	5
NMSTR	14	288	4
NMSXR	14	288	4	96	96	6
NMTAP	14	320	4
NMTAP	14	352	4
EXSTR	15	192	7
NMSUL	15	192	7	96	64	3
NMTAP	15	224	3
NMTAP	15	245	2
NMTAP	15	256	2
NMSTR	15	288	1
NMSUR	15	288	1	96	64	5
NMTAP	15	320	0
NMTAP	15	341	7
NMTAP	15	352	7
NMTAP	16	0	4
NMSTR	16	32	6
NMSI_	16	32	6	96	32	2
NMTAP	16	53	6
NMTAP	16	85	0
NMTAP	16	96	0
NMTAP	16	117	1
EXSTR	16	192	1
NMSI_	16	192	1	96	32	4
NMSTR	16	224	4
NMSI_	16	224	4	96	32	1
NMTAP	16	245	4
NMTAP	16	277	6
NMTAP	16	288	6
NMTAP	16	320	7
NMTAP	16	352	6
NMTAP	17	0	5
NMSTR	17	32	2
NMSI_	17	32	2	96	32	6
NMSTR	17	32	3
NMSI_	17	32	3	96	32	7
NMTAP	17	64	0
NMTAP	17	64	7
NMTAP	17	85	5
NMTAP	17	96	4
BRTAP	17	128	2
BRTAP	17	128	3
BRTAP	17	192	1
BRTAP	17	192	4
BRTAP	17	240	0
BRTAP	17	240	7
NMSTR	17	288	3
NMSI_	17	288	3	96	32	0
NMSI_	17	288	3	96	32	6
NMTAP	17	288	6
NMTAP	17	320	2
NMTAP	17	320	5
NMTAP	17	352	1
NMTAP	17	352	4
NMTAP	18	0	3
NMTAP	18	64	1
NMTAP	18	64	5
NMTAP	18	85	4
NMTAP	18	96	3
NMTAP	18	128	2
NMTAP	18	128	6
NMSTR	18	192	3
NMSI_	18	192	3	96	32	0
NMSTR	18	224	0
NMSI_	18	224	0	96	32	5
NMTAP	18	256	5
NMSTR	18	288	4
NMSXL	18	288	4	96	96	4
NMSXR	18	288	4	96	96	4
NMTAP	18	320	4
NMTAP	18	352	4
NMTAP	19	224	3
NMTAP	19	224	7
NMTAP	19	256	2
NMTAP	19	256	6
NMSTR	19	288	1
NMSCR	19	288	1	96	64	4
NMSTR	19	288	5
NMSCR	19	288	5	96	64	0
NMTAP	19	320	0
NMTAP	19	320	4
NMTAP	19	352	0
NMTAP	19	352	4
NMTAP	20	0	1
NMTAP	20	0	5
BRTAP	20	96	3
BRTAP	20	96	7
BRTAP	20	128	2
BRTAP	20	128	5
BRTAP	20	160	0
BRTAP	20	160	4
NMTAP	20	192	1
NMSTR	20	224	1
NMSI_	20	224	1	96	32	5
NMTAP	20	288	7
NMSTR	20	320	7
NMSV_	20	320	7	96	64	4
NMTAP	21	0	3
NMTAP	21	32	3
NMTAP	21	64	2
NMHLD	21	96	1	64
NMTAP	21	160	0
NMTAP	21	192	7
NMSTR	21	224	7
NMSI_	21	224	7	96	32	3
NMTAP	21	288	1
NMSTR	21	320	1
NMSI_	21	320	1	96	32	5
NMSTR	22	0	6
NMSCL	22	0	6	96	32	3
NMSTR	22	32	6
NMSCR	22	32	6	96	32	1
NMTAP	22	96	6
NMTAP	22	128	6
NMSTR	22	192	4
NMSXL	22	192	4	96	64	6
NMTAP	22	256	1
NMSTR	22	288	1
NMSXR	22	288	1	96	160	3
NMTAP	23	0	4
NMTAP	23	32	4
NMTAP	23	64	4
NMTAP	23	96	5
NMTAP	23	128	5
NMTAP	23	160	5
NMSTR	23	192	7
NMSXR	23	192	7	96	128	3
NMTAP	23	224	7
NMTAP	23	256	7
NMSTR	23	288	0
NMSI_	23	288	0	96	32	2
NMTAP	23	320	0
NMTAP	23	352	0
NMTAP	24	96	2
NMTAP	24	107	3
NMTAP	24	117	2
NMTAP	24	128	5
NMTAP	24	139	4
NMTAP	24	149	5
NMTAP	24	160	2
NMSTR	24	192	7
NMSXR	24	192	7	96	64	5
NMTAP	24	256	2
NMSTR	24	288	2
NMSXL	24	288	2	96	160	0
NMTAP	25	0	6
NMTAP	25	32	6
NMTAP	25	64	6
NMTAP	25	96	5
NMTAP	25	128	5
NMTAP	25	160	5
NMSTR	25	192	4
NMSCR	25	192	4	96	64	7
NMTAP	25	224	4
NMTAP	25	256	4
NMSTR	25	288	3
BRSV_	25	288	3	96	32	1
NMTAP	25	288	4
NMTAP	25	320	3
NMTAP	25	352	3
NMTAP	26	0	3
CNSCL	26	32	1	0	64	5
NMTAP	26	96	4
BRTAP	26	128	1
BRTAP	26	128	7
EXSTR	26	192	4
NMSUR	26	192	4	96	64	0
NMTAP	26	224	0
NMTAP	26	245	1
NMTAP	26	256	1
NMSTR	26	288	2
NMSUL	26	288	2	96	64	6
NMTAP	26	320	3
NMTAP	26	341	4
NMTAP	26	352	4
NMTAP	27	0	7
NMSTR	27	32	5
NMSI_	27	32	5	96	32	1
NMTAP	27	53	5
NMTAP	27	85	3
NMTAP	27	96	3
NMTAP	27	128	2
EXSTR	27	192	2
NMSI_	27	192	2	96	32	7
NMSTR	27	224	7
NMSI_	27	224	7	96	32	2
NMTAP	27	245	7
NMTAP	27	277	5
NMTAP	27	288	5
NMTAP	27	320	4
NMTAP	27	352	5
NMTAP	28	0	6
NMSTR	28	32	0
NMSI_	28	32	0	96	32	4
NMSTR	28	32	1
NMSI_	28	32	1	96	32	5
NMTAP	28	64	3
NMTAP	28	64	4
NMTAP	28	85	6
NMTAP	28	96	7
BRTAP	28	128	0
BRTAP	28	128	1
NMTAP	28	192	3
NMTAP	28	192	6
NMSTR	28	224	2
NMSV_	28	224	2	96	32	7
NMSTR	28	224	4
NMSV_	28	224	4	96	32	7
NMTAP	28	245	2
NMTAP	28	245	4
NMTAP	28	277	1
NMTAP	28	288	3
NMTAP	28	320	2
NMTAP	28	320	4
NMTAP	29	0	0
NMTAP	29	0	6
NMSTR	29	32	1
NMSXL	29	32	1	96	32	3
NMSTR	29	32	7
NMSXR	29	32	7	96	32	5
NMTAP	29	53	1
NMTAP	29	53	7
NMTAP	29	85	2
NMTAP	29	96	0
NMTAP	29	128	1
NMTAP	29	128	7
NMSTR	29	192	1
NMSI_	29	192	1	96	32	6
NMSTR	29	224	6
NMSI_	29	224	6	96	32	3
NMSTR	29	256	3
NMSI_	29	256	3	96	32	0
NMTAP	29	288	0
NMTAP	30	0	5
NMSTR	30	32	1
NMSI_	30	32	1	96	32	5
NMTAP	30	43	2
NMTAP	30	53	3
NMTAP	30	64	4
NMTAP	30	75	5
NMTAP	30	85	6
EXTAP	30	96	7
EXTAP	30	117	1
BRTAP	30	160	6
EXSTR	30	192	3
NMSUL	30	192	3	96	64	7
NMTAP	30	224	7
NMTAP	30	245	6
NMTAP	30	256	6
NMSTR	30	288	5
NMSUR	30	288	5	96	64	1
NMTAP	30	320	4
NMTAP	30	341	3
NMTAP	30	352	3
NMTAP	31	0	0
NMSTR	31	32	2
NMSI_	31	32	2	96	32	6
NMTAP	31	53	2
NMTAP	31	85	4
NMTAP	31	96	4
NMTAP	31	117	5
EXSTR	31	192	5
NMSI_	31	192	5	96	32	0
NMSTR	31	224	0
NMSI_	31	224	0	96	32	5
NMTAP	31	245	0
NMTAP	31	277	2
NMTAP	31	288	2
NMTAP	31	320	3
NMTAP	31	352	4
NMTAP	32	0	3
NMSTR	32	32	2
NMSV_	32	32	2	96	32	0
BRSV_	32	32	2	96	32	4
NMTAP	32	32	5
NMTAP	32	64	1
NMTAP	32	64	4
NMTAP	32	85	1
NMTAP	32	96	3
BRTAP	32	128	2
NMTTP	32	192	0	C	1	M1
NMSTR	32	256	7
NMSI_	32	256	7	96	32	3
NMTAP	32	277	1
NMTAP	32	288	1
NMTAP	32	320	0
NMTAP	32	320	6
NMTAP	32	352	5
NMTAP	32	352	7
NMSTR	33	0	6
NMSCR	33	0	6	96	32	1
NMSTR	33	32	1
NMSCL	33	32	1	96	32	6
NMTAP	33	64	2
NMTAP	33	96	3
NMTAP	33	96	6
NMSTR	33	192	1
NMSI_	33	192	1	96	32	4
NMSTR	33	224	4
NMSI_	33	224	4	96	32	7
NMTAP	33	256	7
NMSTR	33	288	0
NMSXL	33	288	0	96	96	0
NMSXR	33	288	0	96	96	0
NMTAP	33	320	0
NMTAP	33	352	0
NMSTR	34	192	3
NMSSR	34	192	3	96	96	7
NMSTR	34	288	7
NMSSR	34	288	7	96	96	3
NMTAP	35	0	3
NMSTR	35	96	7
NMSUL	35	96	7	96	144	3
NMTHO	35	192	0	288	C	0	M1
CNSI_	35	336	3	0	72	5
CNSUR	36	24	5	0	48	1
CNSCL	36	72	1	0	24	6

T_REC_TAP	250
T_REC_BRK	23
T_REC_XTP	2
T_REC_BXX	0
T_REC_HLD	10
T_REC_XHO	0
T_REC_BHO	0
T_REC_BXH	0
T_REC_STR	82
T_REC_BST	0
T_REC_XST	8
T_REC_XBS	0
T_REC_TTP	11
T_REC_THO	1
T_REC_SLD	91
T_REC_BSL	3
T_REC_ALL	481
T_NUM_TAP	353
T_NUM_BRK	26
T_NUM_HLD	11
T_NUM_SLD	91
T_NUM_ALL	481
T_JUDGE_TAP	376
T_JUDGE_HLD	78
T_JUDGE_SLD	94
T_JUDGE_ALL	548
TTM_EACHPAIRS	42
TTM_SCR_TAP	176500
TTM_SCR_BRK	67600
TTM_SCR_HLD	11000
TTM_SCR_SLD	136500
TTM_SCR_ALL	391600
TTM_SCR_S	377350
TTM_SCR_SS	389000
TTM_RAT_ACV	10066

