VERSION	0.00.00	1.04.00
FES_MODE	0
BPM_DEF	166.000	 55.333	166.000	 55.333
MET_DEF	4	4
RESOLUTION	384
CLK_DEF	576
COMPATIBLE_CODE	MA2

BPM	0	0	166.000
BPM	1	192	 55.333
MET	0	0	4	4
MET	1	0	4	2
MET	1	192	4	4

NMSTR	1	192	2
NMSXL	1	192	2	96	192	5
NMTAP	1	224	2
NMSTR	2	192	5
NMSXR	2	192	5	96	192	2
NMTAP	2	224	5
NMTAP	3	192	1
NMHLD	3	224	1	64
NMTAP	3	288	3
NMHLD	3	320	3	64
NMTAP	4	0	4
NMHLD	4	32	4	64
NMTAP	4	96	5
NMTAP	4	192	6
NMHLD	4	224	6	64
NMTAP	4	288	4
NMHLD	4	320	4	64
NMTAP	5	0	3
NMHLD	5	32	3	64
NMTAP	5	96	2
NMTAP	5	192	1
NMHLD	5	224	1	64
NMTAP	5	288	3
NMHLD	5	320	3	64
NMTAP	6	0	4
NMHLD	6	32	4	64
NMTAP	6	96	5
NMTAP	6	192	6
NMHLD	6	224	6	64
NMTAP	6	288	4
NMHLD	6	320	4	64
NMTAP	7	0	3
NMTAP	7	32	3
NMTAP	7	96	2
NMTAP	7	96	3
NMTAP	7	192	1
NMHLD	7	192	3	64
NMTAP	7	224	0
NMTAP	7	256	7
NMTAP	7	288	7
NMHLD	8	0	4	64
NMTAP	8	0	6
NMTAP	8	32	7
NMTAP	8	64	0
NMTAP	8	96	0
NMHLD	8	192	1	64
NMTAP	8	192	3
NMTAP	8	224	4
NMTAP	8	256	5
NMTAP	8	288	5
NMTAP	9	0	4
NMHLD	9	0	6	64
NMTAP	9	32	3
NMTAP	9	64	2
NMTAP	9	96	2
NMHLD	9	192	1	96
NMTAP	9	224	2
NMTAP	9	256	3
NMTAP	9	288	4
NMTAP	9	320	5
NMTAP	9	352	5
NMHLD	10	0	6	96
NMTAP	10	32	5
NMTAP	10	64	4
NMTAP	10	96	3
NMTAP	10	128	2
NMTAP	10	160	2
NMTAP	10	192	1
NMTAP	10	192	3
NMTAP	10	224	0
NMTAP	10	256	7
NMTAP	10	288	2
NMTAP	10	288	6
NMTAP	10	320	5
NMTAP	10	352	4
NMTAP	11	0	3
NMTAP	11	32	2
NMTAP	11	32	4
NMTAP	11	64	1
NMTAP	11	64	5
BRTAP	11	96	0
BRTAP	11	96	6
BRTAP	11	128	0
BRTAP	11	128	6
NMTAP	11	192	2
NMTAP	11	192	4
NMTAP	11	224	1
NMHLD	11	224	3	32
NMTAP	11	256	1
NMTAP	11	288	3
NMTAP	11	288	5
NMHLD	11	320	4	32
NMTAP	11	320	6
NMTAP	11	352	6
NMTAP	12	0	3
NMTAP	12	0	5
NMTAP	12	32	2
NMTAP	12	64	1
NMTAP	12	96	0
NMTAP	12	96	3
NMTAP	12	128	0
NMTAP	12	128	3
NMTAP	12	160	4
NMTAP	12	192	3
NMTAP	12	192	5
NMHLD	12	224	4	32
NMTAP	12	224	6
NMTAP	12	256	6
NMTAP	12	288	2
NMTAP	12	288	4
NMTAP	12	320	1
NMHLD	12	320	3	32
NMTAP	12	352	1
NMTAP	13	0	2
NMTAP	13	0	4
NMTAP	13	32	5
NMTAP	13	64	6
NMTAP	13	96	3
NMTAP	13	96	7
NMTAP	13	128	1
NMTAP	13	128	5
NMTAP	13	192	0
NMTAP	13	192	2
NMHLD	13	224	0	32
NMHLD	13	224	2	32
NMTAP	13	288	5
NMTAP	13	288	7
NMHLD	13	320	5	32
NMHLD	13	320	7	32
NMTAP	14	0	2
NMSTR	14	0	4
NMSSL	14	0	4	96	96	0
NMTAP	14	32	2
NMTAP	14	32	4
NMTAP	14	64	2
NMTAP	14	64	4
NMTAP	14	192	1
NMTAP	14	224	1
NMTAP	14	256	2
NMTAP	14	288	3
NMTAP	14	320	4
NMTAP	14	352	5
NMHLD	15	0	6	64
NMTAP	15	64	4
NMTAP	15	96	3
NMTAP	15	96	7
NMTAP	15	192	3
NMTAP	15	192	5
NMHLD	15	224	4	32
NMTAP	15	224	6
NMTAP	15	256	6
NMTAP	15	288	2
NMTAP	15	288	4
NMTAP	15	320	1
NMHLD	15	320	3	32
NMTAP	15	352	1
NMTAP	16	0	2
NMTAP	16	0	4
NMTAP	16	32	5
NMTAP	16	64	6
NMTAP	16	96	4
NMTAP	16	96	7
NMTAP	16	128	4
NMTAP	16	128	7
NMTAP	16	160	3
NMTAP	16	192	2
NMTAP	16	192	4
NMTAP	16	224	1
NMHLD	16	224	3	32
NMTAP	16	256	1
NMTAP	16	288	3
NMTAP	16	288	5
NMHLD	16	320	4	32
NMTAP	16	320	6
NMTAP	16	352	6
NMTAP	17	0	3
NMTAP	17	0	5
NMTAP	17	32	2
NMTAP	17	64	1
NMTAP	17	96	0
NMTAP	17	96	4
NMTAP	17	128	2
NMTAP	17	128	6
NMTAP	17	192	5
NMTAP	17	192	7
NMHLD	17	224	5	32
NMHLD	17	224	7	32
NMTAP	17	288	0
NMTAP	17	288	2
NMHLD	17	320	0	32
NMHLD	17	320	2	32
NMSTR	18	0	3
NMSSR	18	0	3	96	96	7
NMTAP	18	0	5
NMTAP	18	32	3
NMTAP	18	32	5
NMTAP	18	64	3
NMTAP	18	64	5
NMTAP	18	192	6
NMTAP	18	224	6
NMTAP	18	256	5
NMTAP	18	288	4
NMTAP	18	320	3
NMTAP	18	352	2
NMHLD	19	0	1	64
NMTAP	19	64	3
NMTAP	19	96	2
NMTAP	19	96	4
NMTAP	19	192	6
NMTAP	19	224	6
NMTAP	19	256	7
NMTAP	19	288	1
NMTAP	19	320	1
NMTAP	19	352	0
NMTAP	20	0	2
NMTAP	20	32	3
NMTAP	20	64	4
NMTAP	20	96	5
NMSTR	20	192	4
NMSXR	20	192	4	96	192	1
NMSTR	20	192	5
NMSXL	20	192	5	96	192	0
NMTAP	20	224	4
NMTAP	20	224	5
NMTAP	20	256	4
NMTAP	20	256	5
NMSTR	21	192	2
NMSXR	21	192	2	96	192	7
NMSTR	21	192	3
NMSXL	21	192	3	96	192	6
NMTAP	21	224	2
NMTAP	21	224	3
NMTAP	21	256	2
NMTAP	21	256	3
NMHLD	22	192	5	384
NMTTP	22	288	5	E	0	M1
NMTTP	22	320	6	E	0	M1
NMTTP	22	352	7	E	0	M1
NMTTP	23	0	0	E	0	M1
NMTTP	23	32	1	E	0	M1
NMTTP	23	64	2	E	0	M1
NMTTP	23	96	3	E	0	M1
NMTTP	23	128	4	E	0	M1
NMHLD	23	192	2	384
NMTTP	23	288	3	E	0	M1
NMTTP	23	320	2	E	0	M1
NMTTP	23	352	1	E	0	M1
NMTTP	24	0	0	E	0	M1
NMTTP	24	32	7	E	0	M1
NMTTP	24	64	6	E	0	M1
NMTTP	24	96	5	E	0	M1
NMTTP	24	128	4	E	0	M1
NMHLD	24	192	6	384
NMTTP	24	288	0	E	0	M1
NMTTP	24	320	7	E	0	M1
NMTTP	24	352	6	E	0	M1
NMTTP	25	0	5	E	0	M1
NMTTP	25	32	4	E	0	M1
NMTTP	25	64	3	E	0	M1
NMTTP	25	96	2	E	0	M1
NMTTP	25	128	1	E	0	M1
NMTAP	25	192	0
NMTAP	25	224	0
NMTAP	25	256	2
NMTAP	25	256	4
NMTAP	25	288	6
NMTAP	25	320	6
NMTAP	25	352	3
NMTAP	25	352	5
NMTAP	26	0	2
NMTAP	26	32	1
NMTAP	26	64	0
BRTAP	26	96	7
BRTAP	26	128	7
NMHLD	26	192	0	64
NMHLD	26	192	6	64
NMHLD	26	288	1	64
NMHLD	26	288	7	64
NMTAP	27	0	0
NMTAP	27	0	6
NMTAP	27	32	1
NMTAP	27	64	2
NMTAP	27	96	3
NMTAP	27	96	7
NMTAP	27	128	2
NMTAP	27	128	6
NMTAP	27	160	1
NMTAP	27	160	5
NMTAP	27	192	0
NMTAP	27	192	6
NMTAP	27	224	5
NMHLD	27	224	7	32
NMTAP	27	256	5
NMTAP	27	288	1
NMTAP	27	288	7
NMHLD	27	320	0	32
NMTAP	27	320	2
NMTAP	27	352	2
NMTAP	28	0	1
NMTAP	28	0	7
NMTAP	28	32	6
NMTAP	28	64	5
NMTAP	28	96	0
NMTAP	28	96	4
NMTAP	28	128	2
NMTAP	28	128	6
NMTAP	28	192	1
NMTAP	28	192	3
NMTAP	28	224	1
NMTAP	28	224	3
NMTAP	28	256	3
NMTAP	28	256	4
NMTAP	28	288	3
NMTAP	28	288	4
NMTAP	28	320	4
NMTAP	28	320	6
NMTAP	28	352	4
NMTAP	28	352	6
NMTAP	29	0	0
NMSTR	29	0	7
NMSSR	29	0	7	96	96	3
NMTAP	29	32	0
NMTAP	29	32	7
NMTAP	29	64	0
NMTAP	29	64	7
NMTAP	29	192	2
NMTAP	29	224	2
NMTAP	29	256	1
NMTAP	29	288	0
NMTAP	29	320	7
NMTAP	29	352	6
NMTAP	30	0	5
NMTAP	30	32	4
NMTAP	30	64	3
BRTAP	30	96	1
BRTAP	30	96	5
BRTAP	30	160	1
BRTAP	30	160	5
NMTAP	30	192	0
NMTAP	30	192	6
NMTAP	30	224	5
NMHLD	30	224	7	32
NMTAP	30	256	5
NMTAP	30	288	1
NMTAP	30	288	7
NMHLD	30	320	0	32
NMTAP	30	320	2
NMTAP	30	352	2
NMTAP	31	0	1
NMTAP	31	0	7
NMTAP	31	32	6
NMTAP	31	64	5
NMTAP	31	96	0
NMTAP	31	96	4
NMTAP	31	128	1
NMTAP	31	128	5
NMTAP	31	160	2
NMTAP	31	160	6
NMTAP	31	192	1
NMTAP	31	192	7
NMHLD	31	224	0	32
NMTAP	31	224	2
NMTAP	31	256	2
NMTAP	31	288	0
NMTAP	31	288	6
NMTAP	31	320	5
NMHLD	31	320	7	32
NMTAP	31	352	5
NMTAP	32	0	0
NMTAP	32	0	6
NMTAP	32	32	1
NMTAP	32	64	2
NMTAP	32	96	3
NMTAP	32	96	7
NMTAP	32	128	3
NMHLD	32	128	7	64
BRTAP	32	192	0
NMTAP	32	256	3
NMTAP	32	288	4
NMTAP	32	320	5
NMTAP	32	352	2
NMTAP	32	352	6
NMTAP	33	0	1
NMTAP	33	0	7
BRTAP	33	64	0
BRTAP	33	64	6
BRTAP	33	96	1
BRTAP	33	96	5
BRTAP	33	128	2
BRTAP	33	128	4
NMTAP	33	192	5
NMTAP	33	224	5
NMTAP	33	256	6
NMTAP	33	288	7
NMTAP	33	320	0
NMTAP	33	352	1
NMHLD	34	0	2	64
NMTAP	34	64	3
NMTAP	34	96	3
NMTTP	34	192	4	E	0	M1
NMTTP	34	288	3	E	0	M1
NMTTP	34	288	5	E	0	M1
NMTTP	35	0	2	E	0	M1
NMTTP	35	0	6	E	0	M1
NMSTR	35	96	0
NMSUR	35	96	0	96	288	3
BRSTR	35	96	7
NMSUL	35	96	7	96	288	4

T_REC_TAP	290
T_REC_BRK	17
T_REC_XTP	0
T_REC_BXX	0
T_REC_HLD	50
T_REC_XHO	0
T_REC_BHO	0
T_REC_BXH	0
T_REC_STR	10
T_REC_BST	1
T_REC_XST	0
T_REC_XBS	0
T_REC_TTP	29
T_REC_THO	0
T_REC_SLD	11
T_REC_BSL	0
T_REC_ALL	408
T_NUM_TAP	329
T_NUM_BRK	18
T_NUM_HLD	50
T_NUM_SLD	11
T_NUM_ALL	408
T_JUDGE_TAP	347
T_JUDGE_HLD	316
T_JUDGE_SLD	11
T_JUDGE_ALL	674
TTM_EACHPAIRS	108
TTM_SCR_TAP	164500
TTM_SCR_BRK	46800
TTM_SCR_HLD	50000
TTM_SCR_SLD	16500
TTM_SCR_ALL	277800
TTM_SCR_S	267750
TTM_SCR_SS	276000
TTM_RAT_ACV	10065

