VERSION	0.00.00	1.04.00
FES_MODE	0
BPM_DEF	140.000	140.000	140.000	140.000
MET_DEF	4	4
RESOLUTION	384
CLK_DEF	384
COMPATIBLE_CODE	MA2

BPM	0	0	140.000
MET	0	0	4	4

NMTAP	1	0	1
NMHLD	1	0	5	144
NMHLD	1	144	3	144
NMTAP	1	288	4
NMTAP	1	336	3
NMHLD	2	0	2	144
NMHLD	2	144	3	144
NMTAP	2	288	4
NMHLD	3	0	2	144
NMTAP	3	0	6
NMHLD	3	144	4	144
NMTAP	3	288	3
NMTAP	3	336	4
NMHLD	4	0	5	264
NMHLD	4	144	4	120
NMTAP	4	336	2
NMTAP	4	336	3
NMHLD	5	0	2	144
NMTAP	5	0	3
NMHLD	5	144	4	144
NMTAP	5	288	3
NMTAP	5	336	4
NMTAP	6	0	3
NMHLD	6	0	5	144
NMHLD	6	144	3	144
NMTAP	6	288	4
NMTAP	6	336	3
NMHLD	7	0	2	96
NMHLD	7	0	4	96
NMTAP	7	192	3
NMTAP	7	192	5
NMSTR	7	288	6
NMSI_	7	288	6	96	48	2
BRTAP	8	0	0
NMTAP	8	288	1
NMTAP	8	336	1
NMTAP	9	0	2
NMTAP	9	0	3
NMTAP	9	48	5
NMTAP	9	72	4
NMTAP	9	96	6
NMTAP	9	144	2
NMTAP	9	144	3
NMTAP	9	192	4
NMTAP	9	240	1
NMTAP	9	240	3
EXTAP	9	288	0
NMTAP	9	336	2
NMTAP	9	360	3
NMTAP	10	0	2
EXTAP	10	48	0
NMTAP	10	96	5
NMTAP	10	120	4
NMTAP	10	144	5
NMTAP	10	168	4
NMTAP	10	192	7
EXTAP	10	240	0
NMTAP	10	240	6
NMTAP	10	288	1
NMTAP	10	336	2
NMTAP	10	360	3
NMTAP	11	0	2
NMTAP	11	48	4
NMTAP	11	96	3
NMTAP	11	96	5
NMTAP	11	144	2
NMTAP	11	144	6
NMTAP	11	192	1
NMTAP	11	216	7
NMTAP	11	240	1
NMTAP	11	264	7
EXTAP	11	288	0
EXTAP	11	336	0
NMTAP	12	0	6
NMTAP	12	24	4
NMTAP	12	48	6
NMTAP	12	72	4
NMTAP	12	96	5
NMTAP	12	120	3
NMTAP	12	144	5
NMTAP	12	168	3
NMTAP	12	192	4
NMTAP	12	216	2
NMTAP	12	240	3
BXTAP	12	288	0
BRTAP	12	288	7
NMTAP	13	0	6
NMTAP	13	24	4
NMTAP	13	48	5
NMTAP	13	72	4
NMTAP	13	96	5
NMTAP	13	144	1
NMTAP	13	168	0
NMTAP	13	192	1
NMTAP	13	216	0
NMTAP	13	240	1
NMTAP	13	288	6
NMTAP	13	288	7
NMTAP	13	336	4
NMTAP	13	336	5
NMTAP	14	0	6
NMTAP	14	0	7
NMTAP	14	48	0
NMTAP	14	72	4
NMTAP	14	96	1
NMTAP	14	120	3
NMTAP	14	144	2
NMTAP	14	168	6
NMTAP	14	192	4
NMTAP	14	216	5
NMTAP	14	240	0
NMTAP	14	288	2
NMTAP	14	288	3
BRTAP	14	336	1
BRTAP	14	336	7
NMSTR	15	0	6
NMSCL	15	0	6	96	48	3
NMTAP	15	48	6
NMSTR	15	96	2
NMSI_	15	96	2	96	48	5
NMTAP	15	144	2
NMTAP	15	192	7
EXTAP	15	240	7
NMTAP	15	288	5
NMTAP	15	312	4
NMTAP	15	336	5
NMSTR	16	0	1
NMSCL	16	0	1	96	48	6
NMTAP	16	48	1
NMSTR	16	96	5
NMSI_	16	96	5	96	48	2
NMTAP	16	144	5
NMTAP	16	192	0
EXTAP	16	240	0
NMTAP	16	288	2
NMTAP	16	312	3
NMTAP	16	336	2
NMSTR	17	0	4
NMSI_	17	0	4	96	48	7
NMTAP	17	48	0
EXTAP	17	96	0
NMTAP	17	144	2
NMTAP	17	192	6
NMTAP	17	240	4
EXTAP	17	240	5
NMTAP	17	288	2
NMTAP	17	312	3
NMTAP	17	336	2
NMTAP	17	360	3
EXTAP	18	0	1
NMTAP	18	48	2
NMTAP	18	48	4
EXTAP	18	96	3
NMTAP	18	96	5
NMTAP	18	144	6
NMTAP	18	144	7
EXTAP	18	192	1
EXTAP	18	192	5
NMTAP	18	288	2
NMTAP	18	312	3
NMTAP	18	336	2
NMTAP	18	360	3
EXTAP	19	0	1
NMTAP	19	48	5
NMTAP	19	72	4
EXTAP	19	96	6
NMTAP	19	144	2
NMTAP	19	168	3
NMTAP	19	192	0
NMTAP	19	240	1
NMTAP	19	240	7
NMTAP	19	288	6
NMTAP	19	312	4
NMTAP	19	336	5
NMTAP	19	360	4
NMTAP	20	24	3
NMTAP	20	24	5
NMTAP	20	72	2
NMTAP	20	96	3
NMTAP	20	144	0
NMTAP	20	144	1
EXTAP	20	192	2
EXTAP	20	192	6
NMTAP	20	288	5
NMTAP	20	312	4
NMTAP	20	336	5
NMTAP	20	360	4
EXTAP	21	0	6
NMHLD	21	48	2	24
EXTAP	21	72	3
NMHLD	21	120	5	24
EXTAP	21	144	4
NMHLD	21	192	1	24
EXTAP	21	216	3
NMHLD	21	264	6	24
NMTAP	21	288	4
NMTAP	21	336	0
NMTAP	21	336	7
EXTAP	22	0	1
NMTAP	22	48	0
NMTAP	22	48	7
EXTAP	22	96	6
NMTAP	22	120	4
NMTAP	22	144	5
NMTAP	22	168	3
NMTAP	22	192	4
NMTAP	22	216	2
NMTAP	22	240	3
BRTAP	22	288	0
BRTAP	22	288	6
BRTAP	22	336	1
BRTAP	22	336	7
NMTAP	23	0	2
NMTAP	23	24	4
NMTAP	23	48	2
NMTAP	23	72	4
NMTAP	23	96	3
NMTAP	23	120	5
NMTAP	23	144	3
NMTAP	23	168	5
NMTAP	23	192	4
NMTAP	23	216	6
NMTAP	23	240	4
NMTAP	23	264	6
NMTAP	23	288	5
BRTAP	23	336	0
NMHLD	24	0	1	48
NMHLD	24	0	7	48
NMHLD	24	72	3	48
NMHLD	24	72	4	48
BRTAP	24	144	1
BRTAP	24	144	5
NMTAP	24	240	6
NMTAP	24	264	6
NMSTR	24	288	3
NMSI_	24	288	3	96	48	7
NMTAP	24	312	4
NMTAP	24	336	2
BRSTR	25	0	0
NMSCR	25	0	0	96	240	6
NMTTP	25	192	0	C	0	M1
NMSTR	26	0	7
NMSI_	26	0	7	96	96	5
EXTAP	26	72	0
EXTAP	26	144	0
NMTTP	26	192	0	C	0	M1
CNSLL	26	192	5	0	144	1
NMSTR	27	0	0
NMSI_	27	0	0	96	96	2
NMTTP	27	192	0	C	0	M1
CNSLR	27	192	2	0	144	6
NMSTR	28	0	7
NMSCL	28	0	7	96	240	1
EXTAP	28	72	0
EXTAP	28	144	0
NMTTP	28	192	0	C	0	M1
NMSTR	28	288	0
NMSI_	28	288	0	96	48	4
BRHLD	29	0	7	288
NMSTR	29	288	0
NMSI_	29	288	0	96	48	4
BRHLD	30	0	3	288
NMTAP	30	288	7
BRTAP	30	336	0
BRTAP	30	336	4
NMHLD	31	0	1	72
NMHLD	31	72	2	72
NMTAP	31	144	3
NMHLD	31	192	7	72
NMHLD	31	264	6	72
NMTAP	31	336	5
NMTAP	32	0	0
NMTAP	32	0	4
NMTAP	32	48	2
NMTAP	32	72	3
NMTAP	32	120	5
NMTAP	32	144	4
NMSTR	32	192	4
NMSI_	32	192	4	96	48	0
NMTAP	32	192	6
NMTAP	32	288	5
NMTAP	32	336	5
BRTAP	33	0	6
BRSTR	33	0	7
NMSCL	33	0	7	96	48	4
NMTAP	33	48	0
NMTAP	33	96	1
NMTAP	33	96	7
NMTAP	33	144	2
NMTAP	33	192	1
NMTAP	33	192	3
NMTAP	33	240	6
NMTAP	33	264	7
NMTAP	33	288	6
NMTAP	33	336	0
NMTAP	33	336	5
NMHLD	34	0	2	96
NMTAP	34	0	3
EXTAP	34	48	7
NMHLD	34	96	4	96
EXTAP	34	144	7
NMHLD	34	192	2	96
EXTAP	34	240	7
NMHLD	34	288	5	48
EXTAP	34	336	7
NMTAP	35	0	0
NMSTR	35	0	4
NMSCR	35	0	4	96	48	7
NMTAP	35	48	3
NMTAP	35	96	2
NMTAP	35	96	4
NMTAP	35	144	1
NMTAP	35	192	0
NMTAP	35	192	2
NMTAP	35	240	5
NMTAP	35	264	4
NMTAP	35	288	5
NMTAP	35	336	0
NMTAP	35	336	7
NMHLD	36	0	2	96
NMTAP	36	0	5
EXTAP	36	48	7
NMHLD	36	96	4	96
EXTAP	36	144	7
NMHLD	36	192	2	96
EXTAP	36	240	7
NMHLD	36	288	3	48
EXTAP	36	336	7
NMTAP	37	0	0
NMTAP	37	0	5
NMTAP	37	48	6
NMTAP	37	72	7
NMTAP	37	96	6
NMTAP	37	144	0
NMTAP	37	144	5
NMTAP	37	192	2
NMTAP	37	192	7
NMTAP	37	240	1
NMTAP	37	264	0
NMTAP	37	288	1
NMTAP	37	336	2
NMTAP	37	336	7
EXSTR	38	0	4
BRSCL	38	0	4	96	48	1
EXSTR	38	0	6
BRSCL	38	0	6	96	48	4
NMTAP	38	96	4
NMTAP	38	96	6
EXSTR	38	192	0
BRSSL	38	192	0	96	48	4
EXTAP	38	192	4
NMTAP	38	288	0
NMTAP	38	288	7
NMTAP	39	0	2
NMTAP	39	0	6
NMTAP	39	48	5
NMTAP	39	96	0
NMTAP	39	96	4
NMTAP	39	144	1
NMTAP	39	192	2
NMTAP	39	192	7
NMTAP	39	240	5
NMTAP	39	264	4
NMSTR	39	288	5
NMSUL	39	288	5	96	96	3
NMTAP	39	336	0
NMTTP	40	0	0	C	1	M1
CNSCL	40	96	3	0	192	4
NMTAP	40	288	1
NMTAP	40	336	2
NMSTR	41	0	3
NMSLL	41	0	3	96	192	5
NMTAP	41	0	5
NMHLD	41	192	4	192
NMTAP	42	0	6
NMTAP	42	72	6
NMSTR	42	96	5
NMSI_	42	96	5	96	48	2
NMTAP	42	144	5
NMSTR	42	192	3
NMSCL	42	192	3	96	48	0
NMTAP	42	288	6
NMTAP	43	0	2
NMSTR	43	0	4
NMSLR	43	0	4	96	192	2
NMHLD	43	192	3	192
NMTAP	44	0	1
NMTAP	44	72	1
NMSTR	44	96	2
NMSI_	44	96	2	96	48	5
NMTAP	44	144	2
NMSTR	44	192	4
NMSCR	44	192	4	96	48	7
NMTAP	44	288	1
NMTAP	44	336	1
NMTAP	45	0	2
NMSTR	45	0	6
NMSV_	45	0	6	96	96	5
NMHLD	45	192	2	96
CNSI_	45	192	5	0	48	3
NMHLD	45	288	4	96
NMTAP	46	0	6
NMTAP	46	72	6
NMSTR	46	96	5
NMSI_	46	96	5	96	48	2
NMTAP	46	144	5
NMSTR	46	192	3
NMSCL	46	192	3	96	48	0
NMTAP	46	288	6
NMSTR	47	0	1
NMSI_	47	0	1	96	32	3
NMSTR	47	0	5
NMSI_	47	0	5	96	32	3
NMTAP	47	192	1
NMTAP	47	192	5
NMTAP	47	240	2
NMTAP	47	288	4
NMTAP	47	336	3
NMTAP	47	336	5
NMTAP	48	0	2
NMTAP	48	0	6
NMTAP	48	48	1
NMTAP	48	72	3
NMTAP	48	96	2
NMTAP	48	144	6
NMTAP	48	168	4
NMTAP	48	192	5
NMTAP	48	240	3
NMTAP	48	264	4
NMTAP	48	288	2
NMTAP	48	288	5
NMSTR	49	0	4
NMSI_	49	0	4	96	48	0
NMSTR	49	48	4
NMSI_	49	48	4	96	32	6
NMSTR	49	192	3
NMSI_	49	192	3	96	48	7
NMSTR	49	240	3
NMSI_	49	240	3	96	32	1
BRHLD	50	0	4	192
BRTAP	50	96	2
BRSTR	50	192	6
NMSI_	50	192	6	96	48	2
BRTAP	50	288	0
NMTAP	51	0	1
NMTAP	51	0	7
NMTAP	51	48	1
NMTAP	51	72	3
NMTAP	51	96	2
NMTAP	51	120	4
NMTAP	51	144	3
NMTAP	51	168	5
NMTAP	51	192	4
NMTAP	51	216	6
NMTAP	51	240	4
NMTAP	51	264	5
NMTAP	51	288	2
NMTAP	51	312	3
NMTAP	51	336	1
NMTAP	52	0	0
NMTAP	52	0	6
NMTAP	52	24	0
NMTAP	52	24	6
NMTAP	52	72	2
NMTAP	52	96	3
NMTAP	52	120	2
NMTAP	52	144	4
EXSTR	52	168	0
BRSF_	52	168	0	96	48	4
EXTAP	52	216	1
EXTAP	52	216	7
EXTAP	52	240	1
EXTAP	52	240	7
NMTTP	52	288	0	C	1	M1
NMSTR	53	0	2
NMSI_	53	0	2	96	48	5
NMSTR	53	0	6
NMSI_	53	0	6	96	48	3
NMTAP	53	48	1
NMTAP	53	48	7
BRTAP	53	96	2
BRTAP	53	96	6
NMTAP	53	192	0
NMTAP	53	192	7
NMTAP	53	240	6
NMTAP	53	264	7
NMTAP	53	288	6
NMTAP	53	336	0
NMTAP	53	336	5
NMTAP	54	0	2
NMHLD	54	0	3	48
EXTAP	54	48	0
NMTAP	54	96	4
NMHLD	54	96	5	48
EXTAP	54	144	0
NMTAP	54	192	2
NMHLD	54	192	3	48
EXTAP	54	240	0
NMTAP	54	288	4
NMHLD	54	288	5	48
EXTAP	54	336	0
NMSTR	55	0	3
NMSCL	55	0	3	96	48	0
NMTAP	55	0	7
NMTAP	55	48	4
NMTAP	55	96	3
NMTAP	55	96	5
NMTAP	55	144	6
NMTAP	55	192	5
NMTAP	55	192	7
NMTAP	55	240	2
NMTAP	55	264	3
NMTAP	55	288	2
NMTAP	55	336	0
NMTAP	55	336	7
NMHLD	56	0	4	48
NMTAP	56	0	5
EXTAP	56	48	7
NMHLD	56	96	2	48
NMTAP	56	96	3
EXTAP	56	144	7
NMHLD	56	192	4	48
NMTAP	56	192	5
EXTAP	56	240	7
NMHLD	56	288	2	48
NMTAP	56	288	3
EXTAP	56	336	7
NMTAP	57	0	0
NMTAP	57	0	5
NMTAP	57	48	6
NMTAP	57	72	7
NMTAP	57	96	6
NMTAP	57	144	0
NMTAP	57	144	5
NMTAP	57	192	2
NMTAP	57	192	7
NMTAP	57	240	1
NMTAP	57	264	0
NMTAP	57	288	1
NMTAP	57	336	2
NMTAP	57	336	7
BRTAP	58	0	0
EXTAP	58	0	5
EXTAP	58	12	4
EXTAP	58	24	3
BRTAP	58	96	0
EXTAP	58	96	5
EXTAP	58	108	4
EXTAP	58	120	3
BRSTR	58	192	0
NMSI_	58	192	0	96	48	3
NMSI_	58	192	0	96	48	5
EXTAP	58	192	5
EXTAP	58	204	4
EXTAP	58	216	3
BRTAP	58	288	0
NMTAP	59	0	1
NMTAP	59	0	7
NMTAP	59	48	6
NMTAP	59	96	0
NMTAP	59	96	5
NMTAP	59	144	1
NMTAP	59	192	2
NMTAP	59	192	4
NMTAP	59	240	6
NMTAP	59	264	7
NMSTR	59	288	6
NMSCL	59	288	6	96	96	2
NMTAP	59	336	0
NMSTR	60	0	2
NMSCL	60	0	2	96	96	6
NMSTR	60	96	6
NMSCL	60	96	6	96	72	3
NMTAP	60	192	2
NMTAP	60	288	0
NMTAP	60	288	7
NMTAP	60	336	1
NMTAP	60	336	6
NMSTR	61	0	3
NMSI_	61	0	3	96	48	0
NMSTR	61	0	4
NMSI_	61	0	4	96	48	7
BRTAP	61	96	3
BRTAP	61	96	4
NMTAP	61	192	2
NMTAP	61	192	5
NMTAP	61	240	6
NMTAP	61	264	7
NMTAP	61	288	6
NMTAP	61	336	1
NMTAP	61	336	5
NMTAP	62	0	4
NMHLD	62	0	6	48
EXTAP	62	48	0
NMHLD	62	96	3	48
NMTAP	62	96	4
EXTAP	62	144	0
NMTAP	62	192	4
NMHLD	62	192	5	48
EXTAP	62	240	0
NMHLD	62	288	2	48
NMTAP	62	288	4
EXTAP	62	336	0
NMSTR	63	0	3
NMSCL	63	0	3	96	48	0
NMTAP	63	0	7
NMTAP	63	48	4
NMTAP	63	96	3
NMTAP	63	96	5
NMTAP	63	144	6
NMTAP	63	192	5
NMTAP	63	192	7
NMTAP	63	240	2
NMTAP	63	264	3
NMSTR	63	288	2
NMSUR	63	288	2	96	96	4
NMTAP	63	336	6
NMTAP	64	0	6
NMHLD	64	96	5	96
EXTAP	64	144	7
NMHLD	64	192	4	96
EXTAP	64	240	0
NMHLD	64	288	3	96
EXTAP	64	336	1
NMTTP	65	0	6	B	1	M1
NMTTP	65	0	6	E	0	M1
NMTTP	65	0	6	A	0	M1
NMTTP	65	48	2	B	1	M1
NMTTP	65	48	2	A	0	M1
NMTTP	65	48	3	E	0	M1
NMTTP	65	96	4	B	1	M1
NMTTP	65	96	4	A	0	M1
NMTTP	65	96	5	E	0	M1
NMTTP	65	144	0	B	1	M1
NMTTP	65	144	0	A	0	M1
NMTTP	65	144	1	E	0	M1
EXTAP	65	192	6
EXTAP	65	192	7
NMTAP	65	240	5
NMTAP	65	264	4
NMTAP	65	288	5
NMTAP	65	336	0
NMTAP	65	336	6
EXTAP	66	0	2
BRTAP	66	0	7
EXTAP	66	12	3
EXTAP	66	24	4
EXTAP	66	96	2
BRTAP	66	96	7
EXTAP	66	108	3
EXTAP	66	120	4
EXTAP	66	192	2
BRSTR	66	192	7
NMSI_	66	192	7	96	48	2
NMSI_	66	192	7	96	48	4
EXTAP	66	204	3
EXTAP	66	216	4
BRTAP	66	288	7
NMTAP	67	0	0
NMTAP	67	0	5
NMTAP	67	48	1
NMTAP	67	96	2
NMTAP	67	96	7
NMTAP	67	144	3
NMTAP	67	144	6
NMTAP	67	192	0
NMTAP	67	216	5
NMTAP	67	240	0
NMTAP	67	264	3
NMSTR	67	288	0
NMSCL	67	288	0	96	192	1
NMTAP	67	336	1
NMTTP	68	0	0	C	1	M1
NMTAP	68	288	0
NMTAP	68	336	6
NMTAP	69	0	2
NMTAP	69	0	4
NMTAP	69	48	0
NMTAP	69	96	3
NMTAP	69	96	5
NMTAP	69	144	7
NMTAP	69	192	2
NMTAP	69	192	6
NMTAP	69	240	1
NMTAP	69	240	5
NMSTR	69	288	0
NMSCL	69	288	0	96	192	1
NMTAP	69	288	4
NMTAP	69	336	1
NMTTP	70	0	0	C	1	M1
NMSTR	70	192	0
NMSI_	70	192	0	96	48	4
NMTAP	70	288	0
NMHLD	70	288	7	336
NMTTP	71	0	6	A	0	M1
NMTTP	71	48	5	A	0	M1
NMTTP	71	96	4	A	0	M1
NMTTP	71	144	3	A	0	M1
NMTTP	71	192	2	A	0	M1
NMTTP	71	240	1	A	0	M1
NMSTR	71	288	0
NMSSL	71	288	0	96	192	4
NMSTR	71	288	6
NMSCL	71	288	6	96	384	1
CNSSL	72	192	4	0	192	0
NMSTR	73	240	4
BRSI_	73	240	4	96	48	0
NMTAP	73	240	5
BRTAP	73	288	7
BRTAP	73	336	7
NMSTR	74	0	6
NMSCL	74	0	6	96	48	3
NMTAP	74	48	6
NMSTR	74	96	2
NMSI_	74	96	2	96	48	6
NMTAP	74	144	2
NMSTR	74	192	7
NMSUL	74	192	7	96	48	3
NMTAP	74	240	7
NMSTR	74	288	2
NMSI_	74	288	2	96	48	6
NMTAP	74	336	2
NMSTR	75	0	0
NMSI_	75	0	0	96	48	3
NMTAP	75	48	0
NMTAP	75	96	2
NMTAP	75	144	2
NMSTR	75	192	4
NMSI_	75	192	4	96	48	0
NMSTR	75	192	5
NMSI_	75	192	5	96	48	0
BRTAP	75	288	4
BRTAP	75	288	5
NMSTR	76	0	1
NMSCR	76	0	1	96	48	4
NMTAP	76	0	7
NMTAP	76	48	1
NMSTR	76	96	5
NMSI_	76	96	5	96	48	1
NMTAP	76	144	5
NMSTR	76	192	0
NMSUR	76	192	0	96	48	4
NMTAP	76	240	0
NMSTR	76	288	5
NMSI_	76	288	5	96	48	1
NMTAP	76	336	5
NMSTR	77	0	7
NMSI_	77	0	7	96	48	4
NMTAP	77	48	7
NMTAP	77	96	5
NMTAP	77	144	5
NMSTR	77	192	2
NMSI_	77	192	2	96	48	7
NMSTR	77	192	3
NMSI_	77	192	3	96	48	7
BRTAP	77	288	2
BRTAP	77	288	3
NMTAP	78	0	0
NMTAP	78	0	6
NMTAP	78	48	1
NMTAP	78	96	2
NMTAP	78	96	7
NMTAP	78	144	6
NMTAP	78	192	4
NMTAP	78	192	5
NMTAP	78	240	2
NMTAP	78	264	3
NMTAP	78	288	2
NMTAP	78	336	5
EXTAP	79	0	3
EXSTR	79	0	7
BRSSR	79	0	7	96	48	3
BRTAP	79	96	0
BRTAP	79	96	7
EXSTR	79	192	1
BRSCR	79	192	1	96	48	3
EXSTR	79	192	3
BRSCR	79	192	3	96	48	6
BRTAP	79	288	1
BRTAP	79	288	3
NMTAP	80	0	2
NMTAP	80	0	7
NMTAP	80	48	5
NMTAP	80	72	4
NMTAP	80	120	2
NMHLD	80	144	3	144
NMTAP	80	192	6
NMTAP	80	240	7
NMTAP	80	288	0
NMTAP	80	336	1
NMTAP	81	0	2
NMTAP	81	0	7
NMTAP	81	48	5
NMTAP	81	72	4
NMTAP	81	120	2
NMTAP	81	144	3
NMSTR	81	192	3
NMSCL	81	192	3	96	48	0
NMSTR	81	192	4
NMSCR	81	192	4	96	48	7
BRTAP	81	288	3
BRTAP	81	288	4
NMTAP	82	0	1
NMTAP	82	24	3
NMTAP	82	48	2
NMTAP	82	72	3
EXTAP	82	96	0
EXTAP	82	144	0
NMTAP	82	192	5
NMTAP	82	216	4
NMTAP	82	240	6
NMTAP	82	264	3
NMTAP	82	288	4
NMTAP	82	312	2
NMTAP	82	336	5
NMTAP	82	360	1
NMTAP	83	0	3
NMTAP	83	24	2
NMTAP	83	48	4
NMTAP	83	72	1
NMSTR	83	96	5
NMSI_	83	96	5	96	32	3
NMTAP	83	144	6
BRTAP	83	192	5
NMSTR	83	240	6
NMSI_	83	240	6	96	48	2
NMTAP	83	288	7
BRTAP	83	336	6
NMTAP	84	0	1
NMTAP	84	48	0
NMTAP	84	48	1
NMTAP	84	96	6
NMTAP	84	120	4
NMTAP	84	144	5
NMTAP	84	168	4
EXTAP	84	192	7
EXTAP	84	240	7
NMTAP	84	288	2
NMTAP	84	312	3
NMTAP	84	336	1
NMTAP	84	360	6
NMTAP	85	0	4
NMTAP	85	24	5
NMTAP	85	48	3
NMTAP	85	72	6
NMSTR	85	96	2
NMSI_	85	96	2	96	32	4
NMTAP	85	144	1
BRTAP	85	192	2
NMSTR	85	240	1
NMSI_	85	240	1	96	48	5
NMTAP	85	288	0
BRTAP	85	336	1
NMTAP	86	0	6
NMTAP	86	48	6
NMTAP	86	72	4
NMTAP	86	96	5
NMTAP	86	144	3
NMTAP	86	144	4
NMTAP	86	192	2
NMTAP	86	216	3
NMTAP	86	240	1
NMTAP	86	264	1
NMTAP	86	288	5
NMTAP	86	312	4
NMTAP	86	336	6
NMTAP	86	360	6
EXSTR	87	0	0
BRSSL	87	0	0	96	48	4
BRTAP	87	96	0
BRTAP	87	96	7
EXSTR	87	192	4
BRSCL	87	192	4	96	48	1
EXSTR	87	192	6
BRSCL	87	192	6	96	48	4
BRTAP	87	288	4
BRTAP	87	288	6
NMTAP	88	0	6
NMTAP	88	0	7
NMTAP	88	48	4
NMTAP	88	48	5
NMTAP	88	96	2
NMTAP	88	96	3
NMTAP	88	144	0
NMTAP	88	144	1
NMTAP	88	192	6
NMTAP	88	216	7
NMTAP	88	240	6
NMTAP	88	264	7
NMTAP	88	288	5
NMTAP	88	336	2
NMTAP	88	336	3
NMTAP	89	0	1
NMTAP	89	0	7
NMTAP	89	48	4
NMTAP	89	48	5
NMTAP	89	96	0
NMTAP	89	96	6
NMTAP	89	144	2
NMTAP	89	144	3
NMTAP	89	192	1
NMTAP	89	192	5
NMSTR	89	240	0
NMSI_	89	240	0	96	48	3
NMSTR	89	240	4
NMSI_	89	240	4	96	48	7
NMTAP	89	288	3
NMTAP	89	288	7
BRTAP	89	336	0
BRTAP	89	336	4

T_REC_TAP	524
T_REC_BRK	48
T_REC_XTP	80
T_REC_BXX	1
T_REC_HLD	55
T_REC_XHO	0
T_REC_BHO	3
T_REC_BXH	0
T_REC_STR	68
T_REC_BST	5
T_REC_XST	10
T_REC_XBS	0
T_REC_TTP	26
T_REC_THO	0
T_REC_SLD	74
T_REC_BSL	11
T_REC_ALL	905
T_NUM_TAP	708
T_NUM_BRK	68
T_NUM_HLD	55
T_NUM_SLD	74
T_NUM_ALL	905
T_JUDGE_TAP	762
T_JUDGE_HLD	129
T_JUDGE_SLD	85
T_JUDGE_ALL	976
TTM_EACHPAIRS	162
TTM_SCR_TAP	354000
TTM_SCR_BRK	176800
TTM_SCR_HLD	55000
TTM_SCR_SLD	111000
TTM_SCR_ALL	696800
TTM_SCR_S	669300
TTM_SCR_SS	690000
TTM_RAT_ACV	10098

