VERSION	0.00.00	1.04.00
FES_MODE	0
BPM_DEF	140.000	140.000	140.000	140.000
MET_DEF	4	4
RESOLUTION	384
CLK_DEF	384
COMPATIBLE_CODE	MA2

BPM	0	0	140.000
MET	0	0	4	4

NMSTR	1	0	1
NMSCR	1	0	1	96	288	5
EXTAP	2	192	6
NMSTR	3	0	6
NMSCL	3	0	6	96	288	2
EXTAP	4	192	1
NMSTR	5	0	1
NMSCR	5	0	1	96	192	4
NMSTR	6	0	6
NMSCL	6	0	6	96	192	3
NMSTR	7	0	1
NMSI_	7	0	1	96	96	4
NMTAP	7	192	5
EXTAP	8	0	3
EXTAP	8	0	6
NMHLD	8	288	6	1536
NMTAP	9	0	0
NMTAP	9	96	7
NMTAP	9	192	0
NMTAP	9	240	0
NMTAP	9	288	0
NMTAP	10	0	7
NMTAP	10	96	0
NMTAP	10	144	0
NMTAP	10	192	0
NMTAP	10	288	7
NMTAP	11	0	4
NMTAP	11	96	0
NMTAP	11	192	3
NMTAP	11	288	7
NMTAP	12	0	4
NMTAP	12	96	0
NMTAP	12	192	3
NMTAP	12	288	7
NMTAP	13	0	0
NMHLD	13	0	5	1344
NMTAP	13	96	7
NMTAP	13	144	7
NMTAP	13	192	0
NMTAP	13	288	7
NMTAP	14	0	3
NMTAP	14	96	4
NMTAP	14	192	0
NMTAP	14	240	0
NMTAP	14	288	7
NMTAP	15	0	3
NMTAP	15	96	0
NMTAP	15	192	4
NMTAP	15	288	7
NMTAP	16	0	3
NMTAP	16	96	0
NMTAP	16	144	0
NMTAP	16	192	0
NMTAP	16	288	6
NMTAP	16	288	7
NMTAP	17	0	5
NMHLD	17	48	5	1296
NMTAP	17	96	0
NMTAP	17	192	7
NMTAP	17	240	7
NMTAP	17	288	7
NMTAP	18	0	1
NMTAP	18	96	6
BRTAP	18	192	1
NMTAP	18	288	6
NMTAP	18	336	6
NMTAP	19	0	6
NMTAP	19	96	0
NMTAP	19	192	4
NMTAP	19	288	3
NMTAP	19	336	3
EXTAP	20	0	3
NMTAP	20	96	7
NMTAP	20	192	3
NMTAP	20	288	2
NMTAP	20	288	4
NMTAP	21	0	6
NMHLD	21	48	6	1104
NMTAP	21	96	7
NMTAP	21	192	5
NMTAP	21	288	7
NMTAP	22	0	4
NMTAP	22	96	0
NMTAP	22	192	3
NMTAP	22	288	5
NMTAP	23	0	2
NMTAP	23	96	5
NMTAP	23	192	2
NMTAP	23	288	4
NMSTR	24	0	0
NMSI_	24	0	0	96	96	4
NMTAP	24	288	2
NMTAP	24	288	5
NMSTR	25	0	3
NMSCL	25	0	3	96	96	0
NMTAP	25	0	6
NMTAP	25	192	4
NMTAP	26	0	1
NMSTR	26	0	4
NMSCR	26	0	4	96	96	7
NMTAP	26	192	3
NMSTR	27	0	4
NMSCL	27	0	4	96	96	0
NMTAP	27	0	7
NMTAP	27	192	5
NMTAP	28	0	0
NMSTR	28	0	3
NMSCR	28	0	3	96	96	7
NMTAP	28	192	2
NMSTR	29	0	0
NMSXL	29	0	0	96	192	4
NMHLD	29	0	1	288
NMSTR	30	0	3
NMSXL	30	0	3	96	192	0
NMHLD	30	0	5	288
NMHLD	31	0	1	96
NMHLD	31	0	3	96
NMHLD	31	192	4	96
NMHLD	31	192	6	96
NMSTR	32	0	3
NMSCL	32	0	3	96	96	0
NMSTR	32	0	4
NMSCR	32	0	4	96	96	7
NMTAP	32	288	1
NMTAP	32	288	6
NMTAP	33	0	4
NMTAP	33	0	5
NMTAP	33	48	6
NMTAP	33	96	1
NMTAP	33	96	7
NMTAP	33	192	2
NMTAP	33	192	3
NMTAP	33	240	1
NMSTR	33	288	0
NMSCR	33	288	0	96	96	4
NMSTR	33	288	6
NMSUR	33	288	6	96	96	5
EXTAP	34	192	4
EXTAP	34	192	5
EXTAP	34	288	4
EXTAP	34	288	5
NMTAP	35	0	2
NMTAP	35	0	3
NMTAP	35	48	1
NMTAP	35	96	0
NMTAP	35	96	6
NMTAP	35	192	4
NMTAP	35	192	5
NMTAP	35	240	6
NMSTR	35	288	1
NMSUL	35	288	1	96	96	2
NMSTR	35	288	7
NMSCL	35	288	7	96	96	3
EXTAP	36	192	2
EXTAP	36	192	3
EXTAP	36	288	2
EXTAP	36	288	3
NMTAP	37	0	1
NMTAP	37	0	7
NMTAP	37	96	1
NMTAP	37	96	7
NMTAP	37	192	0
NMTAP	37	192	6
NMTAP	37	288	0
NMTAP	37	288	6
BRTAP	38	0	4
BRTAP	38	0	5
BRTAP	38	96	6
BRTAP	38	96	7
BRTAP	38	192	0
BRTAP	38	192	1
BRTAP	38	288	2
BRTAP	38	288	3
NMTAP	39	0	4
NMTAP	39	0	6
NMTAP	39	96	1
NMTAP	39	96	3
NMTAP	39	192	4
NMTAP	39	192	6
NMTAP	39	288	0
NMTAP	39	288	7
NMTTP	40	0	0	B	0	M1
NMTTP	40	0	0	C	1	M1
NMTTP	40	0	3	B	0	M1
NMTTP	40	0	4	B	0	M1
NMTTP	40	0	7	B	0	M1
NMHLD	41	0	2	576
NMTAP	41	192	3
EXTAP	42	0	4
EXTAP	42	144	3
EXTAP	42	192	3
NMHLD	43	0	5	576
NMTAP	43	192	4
EXTAP	44	0	3
EXTAP	44	144	4
EXTAP	44	192	4
NMHLD	45	0	1	576
NMTAP	45	192	4
NMTAP	46	0	3
EXTAP	46	144	2
EXTAP	46	192	2
NMHLD	47	0	6	528
NMTAP	47	192	3
NMTAP	48	0	4
EXTAP	48	144	5
EXTAP	48	192	5
NMTAP	48	288	4
NMTAP	48	288	6
NMSTR	49	0	7
NMSCL	49	0	7	96	192	3
EXTAP	49	96	3
EXTAP	49	288	1
EXTAP	50	0	0
EXTAP	50	0	4
EXTAP	50	96	1
EXTAP	50	96	5
EXTAP	50	192	2
EXTAP	50	192	6
EXTAP	50	288	3
EXTAP	50	288	7
NMSTR	51	0	7
NMSI_	51	0	7	96	96	3
NMSTR	51	192	0
NMSI_	51	192	0	96	96	4
NMTAP	52	0	5
NMSTR	52	96	3
NMSV_	52	96	3	96	96	1
NMSTR	52	96	7
NMSV_	52	96	7	96	96	5
NMTAP	53	0	2
NMTAP	53	0	3
NMTAP	53	48	1
NMTAP	53	96	0
NMTAP	53	96	6
NMTAP	53	192	4
NMTAP	53	192	5
NMTAP	53	240	6
NMSTR	53	288	1
NMSUL	53	288	1	96	96	2
NMSTR	53	288	7
NMSCL	53	288	7	96	96	2
EXTAP	54	192	0
EXTAP	54	192	1
EXTAP	54	288	0
EXTAP	54	288	1
NMTAP	55	0	4
NMTAP	55	0	5
NMTAP	55	48	6
NMTAP	55	96	1
NMTAP	55	96	7
NMTAP	55	192	2
NMTAP	55	192	3
NMTAP	55	240	1
NMSTR	55	288	0
NMSCR	55	288	0	96	96	5
NMSTR	55	288	6
NMSUR	55	288	6	96	96	5
EXTAP	56	192	6
EXTAP	56	192	7
EXTAP	56	288	6
EXTAP	56	288	7
NMTAP	57	0	1
NMTAP	57	48	1
NMTAP	57	96	7
NMTAP	57	144	0
NMTAP	57	192	6
NMTAP	57	240	6
NMTAP	57	288	7
BRTAP	58	0	4
BRTAP	58	0	5
BRTAP	58	96	0
BRTAP	58	96	1
BRTAP	58	192	2
BRTAP	58	192	3
BRTAP	58	288	6
BRTAP	58	288	7
NMTAP	59	0	5
NMTAP	59	48	5
NMTAP	59	96	6
NMTAP	59	96	7
NMTAP	59	192	2
NMTAP	59	240	2
NMSTR	59	288	0
NMSUR	59	288	0	96	96	5
NMSTR	59	288	1
NMSCR	59	288	1	96	96	4
NMTAP	60	192	6
NMTAP	60	192	7
NMTAP	60	288	0
NMTAP	60	288	5
NMTAP	61	0	3
NMTAP	61	0	4
NMTAP	61	48	2
NMTAP	61	96	0
NMTAP	61	96	1
NMTAP	61	192	6
NMTAP	61	192	7
NMTAP	61	240	5
NMSTR	61	288	2
NMSUR	61	288	2	96	96	1
NMSTR	61	288	4
NMSCR	61	288	4	96	96	0
NMTAP	62	192	0
NMTAP	62	192	1
NMTAP	62	288	0
NMTAP	62	288	1
NMTAP	63	0	4
NMTAP	63	0	5
NMTAP	63	48	6
NMTAP	63	96	0
NMTAP	63	96	7
NMTAP	63	192	0
NMTAP	63	192	1
NMTAP	63	240	2
NMSTR	63	288	3
NMSCL	63	288	3	96	96	7
NMSTR	63	288	5
NMSUL	63	288	5	96	96	6
NMTAP	64	192	6
NMTAP	64	192	7
NMTAP	64	288	6
NMTAP	64	288	7
NMTAP	65	0	0
NMTAP	65	0	1
NMTAP	65	96	2
NMTAP	65	96	7
NMTAP	65	192	6
NMTAP	65	192	7
NMTAP	65	288	0
NMTAP	65	288	5
BRTAP	66	0	2
BRTAP	66	0	3
BRTAP	66	96	6
BRTAP	66	96	7
BRTAP	66	192	4
BRTAP	66	192	5
BRTAP	66	288	0
BRTAP	66	288	1
NMTAP	67	0	2
NMTAP	67	48	2
NMTAP	67	96	0
NMTAP	67	144	1
NMTAP	67	192	6
NMTAP	67	240	6
NMHLD	67	288	5	288
NMSTR	67	288	7
NMSCL	67	288	7	96	192	0
NMTAP	68	288	6
NMTAP	68	288	7
NMTAP	69	0	5
NMTAP	69	48	5
NMTAP	69	96	7
NMTAP	69	144	6
NMTAP	69	192	1
NMTAP	69	240	1
NMSTR	69	288	0
NMSCR	69	288	0	96	192	7
NMHLD	69	288	2	288
NMTAP	70	288	0
NMTAP	70	288	1
NMTAP	71	0	1
NMTAP	71	48	1
NMTAP	71	96	3
NMTAP	71	144	2
NMTAP	71	192	5
NMTAP	71	240	5
EXSTR	71	288	4
NMSSL	71	288	4	96	384	0
EXSTR	71	288	6
NMSCL	71	288	6	96	384	1
BXTAP	73	288	0
BXTAP	73	288	1
NMTAP	74	0	6
NMTAP	74	0	7
NMTAP	74	96	2
NMTAP	74	96	4
NMTAP	74	192	0
NMTAP	74	192	1
NMTAP	74	288	3
NMTAP	74	288	5
NMTAP	75	0	6
NMTAP	75	48	6
NMTAP	75	96	0
NMTAP	75	144	0
NMSTR	75	192	7
NMSI_	75	192	7	96	48	2
NMSI_	75	192	7	96	48	4
NMTAP	76	0	3
NMTAP	76	0	5
NMTAP	76	96	0
NMTAP	76	96	1
NMTAP	76	192	2
NMTAP	76	192	4
NMTAP	76	288	6
NMTAP	76	288	7
NMTAP	77	0	1
NMTAP	77	48	1
NMTAP	77	96	7
NMTAP	77	144	7
NMSTR	77	192	0
NMSI_	77	192	0	96	48	3
NMSI_	77	192	0	96	48	5
NMTAP	78	0	4
NMTAP	78	48	4
NMTAP	78	96	3
NMTAP	78	96	5
NMTAP	78	192	0
NMTAP	78	240	0
NMTAP	78	288	1
NMTAP	78	288	7
BRTAP	79	0	5
BRTAP	79	0	7
BRTAP	79	96	0
BRTAP	79	96	2
BRTAP	79	192	4
BRTAP	79	192	6
BRTAP	79	288	1
BRTAP	79	288	3
NMTAP	80	0	2
NMTAP	80	48	2
NMTAP	80	96	0
NMTAP	80	192	5
NMTAP	80	240	5
NMTAP	80	288	7
NMTAP	81	0	2
NMTAP	81	0	3
NMTAP	81	96	6
NMTAP	81	96	7
BXHLD	81	192	1	96
BXHLD	81	192	5	96
NMTAP	82	0	2
NMTAP	82	48	2
NMTAP	82	96	2
NMTAP	82	96	3
NMTAP	82	192	0
NMTAP	82	192	1
NMTAP	82	288	6
NMTAP	82	288	7
NMSTR	83	0	4
NMSI_	83	0	4	96	48	0
NMSTR	83	0	5
NMSI_	83	0	5	96	48	0
NMSTR	83	192	2
NMSI_	83	192	2	96	48	7
NMSTR	83	192	3
NMSI_	83	192	3	96	48	7
NMTAP	84	0	5
NMTAP	84	48	5
NMTAP	84	96	4
NMTAP	84	96	5
NMTAP	84	192	6
NMTAP	84	192	7
NMTAP	84	288	0
NMTAP	84	288	1
NMSTR	85	0	2
NMSI_	85	0	2	96	48	7
NMSTR	85	0	3
NMSI_	85	0	3	96	48	7
NMSTR	85	192	4
NMSI_	85	192	4	96	48	0
NMSTR	85	192	5
NMSI_	85	192	5	96	48	0
NMHLD	86	0	2	96
NMHLD	86	96	0	96
NMHLD	86	192	7	96
NMTAP	86	288	5
BRTAP	87	0	4
BRTAP	87	0	6
BRTAP	87	96	0
BRTAP	87	96	2
BRTAP	87	192	5
BRTAP	87	192	7
BRTAP	87	288	1
BRTAP	87	288	3
NMTAP	88	0	2
NMTAP	88	48	2
NMTAP	88	96	0
NMTAP	88	144	1
NMTAP	88	192	5
NMTAP	88	240	5
NMTAP	88	288	7
NMTAP	88	336	6
NMTAP	89	0	0
NMTAP	89	0	7
NMTAP	89	96	1
NMTAP	89	96	6
NMTHO	89	192	0	144	C	1	M1
NMTTP	89	192	1	B	0	M1
NMTTP	89	192	2	B	0	M1
NMTTP	89	192	5	B	0	M1
NMTTP	89	192	6	B	0	M1

T_REC_TAP	280
T_REC_BRK	41
T_REC_XTP	41
T_REC_BXX	2
T_REC_HLD	19
T_REC_XHO	0
T_REC_BHO	0
T_REC_BXH	2
T_REC_STR	45
T_REC_BST	0
T_REC_XST	2
T_REC_XBS	0
T_REC_TTP	9
T_REC_THO	1
T_REC_SLD	49
T_REC_BSL	0
T_REC_ALL	491
T_NUM_TAP	377
T_NUM_BRK	45
T_NUM_HLD	20
T_NUM_SLD	49
T_NUM_ALL	491
T_JUDGE_TAP	420
T_JUDGE_HLD	202
T_JUDGE_SLD	49
T_JUDGE_ALL	671
TTM_EACHPAIRS	124
TTM_SCR_TAP	188500
TTM_SCR_BRK	117000
TTM_SCR_HLD	20000
TTM_SCR_SLD	73500
TTM_SCR_ALL	399000
TTM_SCR_S	382700
TTM_SCR_SS	394500
TTM_RAT_ACV	10114

