VERSION	0.00.00	1.04.00
FES_MODE	0
BPM_DEF	210.000	210.000	210.000	210.000
MET_DEF	4	4
RESOLUTION	384
CLK_DEF	384
COMPATIBLE_CODE	MA2

BPM	0	0	210.000
MET	0	0	4	4

NMHLD	2	0	3	96
NMHLD	2	0	5	96
NMHLD	2	192	4	96
NMHLD	2	192	6	96
NMHLD	3	0	5	288
NMHLD	3	0	7	288
NMSTR	4	0	7
NMSCL	4	0	7	96	288	3
NMSCR	4	0	7	96	288	3
NMHLD	6	0	2	96
NMHLD	6	0	4	96
NMHLD	6	192	0	96
NMHLD	6	192	2	96
NMHLD	7	0	4	96
NMHLD	7	0	6	96
NMHLD	7	192	0	96
NMHLD	7	192	6	96
NMSTR	8	0	4
NMSXL	8	0	4	96	192	4
NMSXR	8	0	4	96	192	4
NMTAP	9	0	3
NMTAP	9	0	5
NMTAP	9	192	2
NMTAP	9	192	6
NMHLD	10	0	1	96
NMHLD	10	0	4	96
NMHLD	10	192	0	96
NMHLD	10	192	3	96
NMHLD	11	0	2	288
NMHLD	11	0	7	288
NMSTR	12	0	0
NMSCR	12	0	0	96	192	4
NMTAP	12	192	5
NMSTR	13	0	7
BRSCL	13	0	7	96	192	4
BRSCR	13	0	7	96	192	2
NMHLD	14	0	1	192
NMTAP	14	0	5
NMSTR	14	192	2
BRSCR	14	192	2	96	96	5
NMTTP	14	288	1	D	0	M1
NMTTP	14	304	0	A	0	M1
NMTTP	14	320	0	D	0	M1
NMTTP	14	336	7	A	0	M1
NMTTP	14	352	7	D	0	M1
NMTTP	14	368	6	A	0	M1
NMTTP	15	0	6	D	1	M1
EXTAP	16	0	2
EXTAP	16	32	4
EXTAP	16	64	3
EXSTR	16	96	5
NMSCL	16	96	5	96	384	7
BRTAP	16	192	0
NMHLD	18	0	0	288
NMTAP	18	288	4
NMTAP	18	336	5
NMHLD	19	0	6	144
NMHLD	19	144	4	144
NMTAP	19	288	3
NMHLD	20	0	2	288
NMTAP	20	288	0
NMHLD	21	0	0	288
NMTAP	21	288	6
NMTAP	22	0	6
NMTAP	22	192	4
BRTAP	23	0	1
BRTAP	23	0	5
NMTAP	23	96	2
NMTAP	23	120	4
NMTAP	23	144	2
NMTAP	23	168	4
NMTAP	23	192	2
NMTAP	23	216	4
NMTAP	23	240	2
NMTAP	23	264	4
NMTAP	23	288	2
NMTAP	23	312	4
NMTAP	23	336	2
NMTAP	23	360	4
NMTAP	24	0	3
NMTAP	24	96	3
NMTAP	24	192	3
NMTAP	24	288	3
NMHLD	24	336	4	240
NMTAP	25	0	2
NMTAP	25	96	2
NMTAP	25	192	2
NMTAP	25	288	2
NMHLD	25	336	3	240
NMTAP	26	0	1
NMTAP	26	96	1
NMTAP	26	192	1
NMTAP	26	288	1
NMHLD	26	336	2	240
NMTAP	27	0	0
NMTAP	27	96	0
NMTAP	27	192	0
NMTAP	27	288	1
NMTAP	27	288	3
NMTAP	28	0	4
NMTAP	28	96	4
NMTAP	28	192	4
NMTAP	28	288	4
NMHLD	28	336	3	336
NMTAP	29	0	5
NMTAP	29	96	5
NMTAP	29	192	5
NMTAP	29	288	5
NMTAP	29	336	4
EXTAP	30	0	3
EXTAP	30	0	5
EXTAP	30	48	3
EXTAP	30	48	5
NMTAP	30	192	2
NMTAP	30	216	4
NMTAP	30	240	2
NMTAP	30	264	4
NMTAP	30	288	1
NMTAP	30	312	3
NMTAP	30	336	1
NMTAP	30	360	3
BRSTR	31	0	0
NMSUR	31	0	0	96	96	4
BRTAP	31	96	6
NMTAP	31	288	3
NMTAP	31	288	5
NMTAP	32	0	0
NMTAP	32	0	6
NMTAP	32	48	0
NMTAP	32	48	6
NMTAP	32	96	5
NMTAP	32	144	4
NMTAP	32	192	1
NMTAP	32	192	3
NMTAP	32	240	1
NMTAP	32	240	3
NMTAP	32	288	2
NMTAP	33	0	4
NMTAP	33	0	6
NMTAP	33	48	4
NMTAP	33	48	6
NMTAP	33	96	3
NMTAP	33	144	2
NMTAP	33	192	1
NMTAP	33	192	7
NMTAP	33	240	1
NMTAP	33	240	7
NMTAP	33	288	0
NMTAP	34	0	1
NMTAP	34	0	3
NMTAP	34	48	1
NMTAP	34	48	3
NMTAP	34	96	4
NMTAP	34	144	5
NMTAP	34	192	4
NMTAP	34	192	6
NMTAP	34	240	4
NMTAP	34	240	6
NMTAP	34	288	7
NMTAP	35	0	0
NMTAP	35	0	6
NMTAP	35	48	0
NMTAP	35	48	6
NMTAP	35	96	1
NMTAP	35	144	2
NMTAP	35	192	3
NMTAP	35	192	5
NMTAP	35	240	3
NMTAP	35	240	5
NMTAP	35	288	4
NMTAP	36	0	1
NMTAP	36	0	3
NMTAP	36	48	1
NMTAP	36	48	3
NMTAP	36	96	4
NMTAP	36	144	4
NMSTR	36	192	3
NMSLL	36	192	3	96	96	4
NMSTR	36	192	5
NMSLR	36	192	5	96	96	4
NMTAP	36	240	3
NMTAP	36	240	5
EXTAP	37	96	3
EXTAP	37	96	5
EXSTR	37	192	4
BRSF_	37	192	4	96	96	0
NMSTR	38	96	2
NMSI_	38	96	2	96	48	6
NMTAP	38	144	2
NMTAP	38	192	4
NMSTR	38	288	5
NMSI_	38	288	5	96	48	1
NMTAP	38	336	5
NMTAP	39	0	7
NMSTR	39	96	0
NMSCL	39	96	0	96	96	5
NMSCR	39	96	0	96	96	3
NMTAP	39	144	0
BRTAP	40	0	2
BRTAP	40	0	6
NMTAP	40	288	3
NMTAP	40	288	5
NMHLD	41	0	3	768
NMSTR	41	0	5
NMSCL	41	0	5	96	96	1
CNSI_	41	192	1	0	96	7
CNSUL	41	288	7	0	192	0
CNSI_	42	96	0	0	96	6
NMTAP	43	0	5
NMTAP	43	192	2
NMTAP	43	192	6
NMTAP	44	0	2
NMTAP	44	0	6
NMTAP	44	288	1
NMTAP	44	288	7
NMSTR	45	0	1
NMSCL	45	0	1	96	96	5
NMHLD	45	0	7	768
CNSI_	45	192	5	0	96	3
CNSUL	45	288	3	0	192	4
CNSI_	46	96	4	0	96	2
NMTAP	47	0	1
NMTAP	47	192	2
NMTAP	47	192	6
NMSTR	48	0	5
NMSCL	48	0	5	96	288	2
NMSTR	49	0	1
NMSUR	49	0	1	96	288	5
NMSTR	50	0	6
NMSCR	50	0	6	96	288	1
NMHLD	51	0	2	192
NMTAP	51	192	4
NMSTR	51	288	3
NMSCR	51	288	3	96	288	2
NMTTP	52	0	0	C	1	M1
NMSTR	53	288	5
BRSUL	53	288	5	96	384	2
BRTAP	54	0	2
NMTAP	55	144	3
NMTAP	55	168	4
NMTAP	55	192	3
NMSTR	55	288	2
NMSXL	55	288	2	96	384	5
NMTTP	56	0	6	A	1	M1
NMTTP	56	96	7	A	1	M1
NMTTP	56	192	0	A	1	M1
NMTTP	56	288	1	A	1	M1
BRTAP	57	0	7
NMTTP	57	192	3	B	0	M1
NMTTP	57	192	4	B	0	M1
NMTTP	57	192	4	E	1	M1
EXSTR	58	0	0
NMSI_	58	0	0	96	48	2
EXSTR	58	0	6
NMSI_	58	0	6	96	48	4
BXTAP	58	96	0
BXTAP	58	96	6
EXSTR	58	192	3
NMSI_	58	192	3	96	48	0
NMSI_	58	192	3	96	48	6
BXTAP	58	288	3
EXSTR	59	0	7
NMSLL	59	0	7	96	96	3
NMSLR	59	0	7	96	96	3
BXTAP	59	96	7
NMSTR	59	288	1
NMSI_	59	288	1	96	48	5
NMTAP	60	0	1
NMTAP	60	0	7
NMSTR	60	96	1
NMSI_	60	96	1	96	48	7
NMTAP	60	96	4
NMTAP	60	192	1
NMTAP	60	192	6
NMSTR	60	288	1
NMSI_	60	288	1	96	48	3
NMTAP	60	288	5
NMTAP	61	0	0
NMTAP	61	0	1
NMTAP	61	96	1
NMTAP	61	96	7
NMTTP	61	192	2	B	0	M1
NMTTP	61	192	2	E	0	M1
NMTTP	61	192	2	A	0	M1
NMTTP	61	192	5	B	1	M1
NMTTP	61	192	5	A	0	M1
NMTTP	61	192	6	E	0	M1
EXSTR	62	0	3
NMSCR	62	0	3	96	96	7
NMSTR	62	96	7
NMSCR	62	96	7	96	96	3
NMSTR	62	192	3
NMSLR	62	192	3	96	96	7
NMSTR	62	288	7
NMSLR	62	288	7	96	96	3
NMSTR	63	0	3
NMSCR	63	0	3	96	96	7
NMSTR	63	96	7
NMSCR	63	96	7	96	96	3
NMTAP	63	192	3
NMSTR	64	0	3
NMSXL	64	0	3	96	96	3
NMSXR	64	0	3	96	96	3
NMSTR	64	288	0
NMSI_	64	288	0	96	48	4
BRTAP	65	0	0
NMSTR	65	0	6
NMSI_	65	0	6	96	48	3
NMSTR	65	96	1
NMSI_	65	96	1	96	48	4
BRTAP	65	96	6
BRTAP	65	192	1
BRTAP	65	192	5
NMSTR	66	0	6
NMSCL	66	0	6	96	96	2
NMSTR	66	96	2
NMSCR	66	96	2	96	96	6
NMTAP	66	192	0
NMSTR	66	288	0
NMSI_	66	288	0	96	48	6
NMSTR	67	0	5
NMSI_	67	0	5	96	96	1
CNSLL	67	48	6	0	144	2
NMTAP	67	288	0
BXTAP	68	0	2
BXTAP	68	0	4
NMTAP	68	96	7
BXTAP	68	192	3
BXTAP	68	192	5
NMSTR	68	288	0
NMSI_	68	288	0	96	48	4
NMSTR	69	0	6
NMSCR	69	0	6	96	48	1
NMSTR	69	96	2
NMSCR	69	96	2	96	48	5
NMSTR	69	192	7
NMSI_	69	192	7	96	48	3
NMHLD	69	288	0	480
BRTAP	70	0	4
NMTAP	71	0	6
NMTAP	71	24	0
NMTAP	71	48	6
NMTAP	71	72	0
NMTAP	71	96	6
BRTAP	71	192	1
BRTAP	71	192	5
NMTAP	72	0	2
NMTAP	72	48	2
NMTAP	72	96	3
NMTAP	72	144	1
NMTAP	72	192	7
NMTAP	72	240	0
NMTAP	72	288	5
NMTAP	72	336	5
NMTAP	73	0	4
NMTAP	73	48	6
NMTAP	73	96	1
NMTAP	73	144	7
NMSTR	73	192	0
NMSI_	73	192	0	96	48	2
NMSI_	73	192	0	96	48	6
NMTAP	74	0	5
NMTAP	74	48	5
NMTAP	74	96	4
NMTAP	74	144	6
NMTAP	74	192	0
NMTAP	74	240	7
NMTAP	74	288	2
NMTAP	74	336	2
NMTAP	75	0	3
NMTAP	75	48	1
NMTAP	75	96	6
NMTAP	75	144	0
NMSTR	75	192	4
NMSI_	75	192	4	96	48	2
NMSI_	75	192	4	96	48	6
NMTAP	76	0	1
NMTAP	76	48	1
NMTAP	76	96	0
NMTAP	76	144	2
NMTAP	76	192	4
NMTAP	76	240	3
NMTAP	76	288	6
NMTAP	76	336	6
NMTAP	77	0	7
NMTAP	77	48	5
NMTAP	77	96	2
NMTAP	77	144	4
NMSTR	77	192	3
NMSI_	77	192	3	96	48	1
NMSI_	77	192	3	96	48	5
NMTAP	78	0	6
NMTAP	78	48	6
NMTAP	78	96	7
NMTAP	78	144	5
NMTAP	78	192	3
NMTAP	78	240	4
NMTAP	78	288	1
NMTAP	78	336	1
NMTAP	79	0	7
NMTAP	79	48	2
NMTTP	79	96	6	B	0	M1
NMTTP	79	120	5	B	0	M1
NMTTP	79	144	4	B	0	M1
NMTTP	79	168	3	B	0	M1
NMTTP	79	192	2	B	0	M1
NMTTP	79	216	1	B	0	M1
NMTTP	79	240	0	B	0	M1
NMTTP	79	264	7	B	0	M1
NMTTP	79	288	7	E	0	M1
NMTTP	79	312	6	E	0	M1
NMTTP	79	336	5	E	0	M1
NMTTP	79	360	4	E	0	M1
NMTTP	80	0	0	C	1	M1
NMTTP	80	0	3	E	0	M1
NMHLD	82	0	6	576
NMTAP	83	192	4
NMTAP	83	288	3
NMHLD	84	0	2	576
NMTAP	85	192	3
NMTAP	85	288	4
NMHLD	86	0	5	384
NMTAP	87	0	3
NMTAP	87	96	2
NMTAP	87	96	6
NMTAP	87	192	2
NMTAP	87	192	6
BRTAP	88	0	7
NMHLD	88	288	4	48
NMSTR	88	288	6
NMSI_	88	288	6	96	48	3
NMSTR	89	288	1
NMSI_	89	288	1	96	48	4
NMHLD	89	288	3	48
NMHLD	90	288	4	48
NMSTR	90	288	6
NMSI_	90	288	6	96	48	3
NMSTR	91	288	1
NMSCL	91	288	1	96	192	6
NMHLD	91	288	3	768
CNSI_	92	192	6	0	96	2
CNSCR	92	288	2	0	192	5
NMSTR	93	288	4
BRSI_	93	288	4	96	48	7
BRTAP	94	0	4
NMTAP	95	144	0
NMHLD	95	168	6	216
NMTAP	95	192	4
BRTAP	96	0	4
BRTAP	96	96	0
BRTAP	96	96	2
BRTAP	96	192	3
BRTAP	96	288	5
BRTAP	96	288	7
BRTAP	97	0	4
BRSTR	97	96	0
BRSLR	97	96	0	96	96	4
BRTAP	97	96	2
BRTAP	97	192	4
EXSTR	98	0	1
NMSI_	98	0	1	96	48	4
EXSTR	98	0	7
NMSI_	98	0	7	96	48	4
BXTAP	98	96	1
BXTAP	98	96	7
EXSTR	98	192	3
NMSI_	98	192	3	96	48	0
EXSTR	98	192	5
NMSI_	98	192	5	96	48	0
BXTAP	98	288	3
BXTAP	98	288	5
EXSTR	99	0	1
NMSCR	99	0	1	96	48	4
EXSTR	99	0	7
NMSCL	99	0	7	96	72	4
BXTAP	99	96	1
BXTAP	99	96	7
CNSI_	99	144	4	0	48	0
CNSI_	99	168	4	0	24	0
NMSTR	99	288	6
NMSI_	99	288	6	96	48	2
NMTAP	100	0	0
NMTAP	100	0	6
NMTAP	100	96	3
NMSTR	100	96	6
NMSI_	100	96	6	96	48	4
NMTAP	100	192	6
NMTAP	100	192	7
NMTAP	100	288	2
NMSTR	100	288	6
NMSI_	100	288	6	96	48	0
NMTAP	101	0	1
NMTAP	101	0	6
NMTAP	101	96	3
NMSTR	101	96	6
NMSI_	101	96	6	96	48	1
BRSTR	101	192	2
NMSI_	101	192	2	96	48	5
BRTAP	101	192	6
BRTAP	101	288	2
BRTAP	101	288	7
EXSTR	102	0	4
NMSCL	102	0	4	96	96	0
EXTAP	102	0	6
NMSTR	102	96	0
NMSCL	102	96	0	96	96	4
NMSTR	102	192	4
NMSLL	102	192	4	96	96	0
NMSTR	102	288	0
NMSLL	102	288	0	96	96	4
NMSTR	103	0	4
NMSCL	103	0	4	96	96	0
NMTAP	103	96	0
NMTAP	103	192	4
NMSTR	103	288	3
BRSXR	103	288	3	96	192	4
NMSTR	103	288	5
BRSXL	103	288	5	96	192	4
NMSTR	104	288	7
NMSI_	104	288	7	96	48	2
NMSTR	105	0	0
NMSI_	105	0	0	96	48	5
BRTAP	105	0	7
BRTAP	105	96	0
NMSTR	105	96	4
NMSI_	105	96	4	96	48	7
BRTAP	105	192	2
BRTAP	105	192	4
NMSTR	106	0	1
NMSCR	106	0	1	96	96	5
NMSTR	106	96	5
NMSCL	106	96	5	96	96	1
NMTAP	106	192	7
NMSTR	106	288	7
NMSI_	106	288	7	96	96	3
NMSTR	107	0	3
NMSF_	107	0	3	96	96	7
NMHLD	107	288	7	192
NMTTP	108	0	5	A	0	M1
NMTTP	108	0	6	E	0	M1
NMTTP	108	0	6	D	1	M1
NMHLD	108	96	0	192
NMTTP	108	192	2	E	0	M1
NMTTP	108	192	2	A	0	M1
NMTTP	108	192	2	D	1	M1
NMSTR	108	288	7
NMSI_	108	288	7	96	48	3
NMSTR	109	0	1
NMSCL	109	0	1	96	48	6
NMSTR	109	96	5
NMSCL	109	96	5	96	48	2
NMSTR	109	192	0
NMSI_	109	192	0	96	48	4
NMTAP	109	288	6
BRHLD	110	0	7	576
NMTAP	111	0	3
NMSTR	111	96	3
NMSCL	111	96	3	96	192	4
NMTTP	112	0	4	B	0	M1
NMTTP	112	0	5	B	0	M1
NMTTP	112	0	5	E	1	M1
NMTAP	112	192	0
NMTAP	113	0	2
NMTAP	113	0	6
NMTAP	113	48	2
NMTAP	113	48	6
NMTAP	113	96	1
NMSTR	113	96	7
BRSCL	113	96	7	96	48	4
NMSTR	113	192	0
NMSCR	113	192	0	96	48	3
NMTAP	113	192	7
BRTAP	113	288	0
BRTAP	113	288	6
NMTAP	114	0	7
NMHLD	114	48	7	96
NMTAP	114	144	1
NMHLD	114	192	1	96
NMTAP	114	288	3
NMHLD	114	336	3	96
NMTAP	115	48	5
NMSTR	115	96	5
NMSI_	115	96	5	96	48	1
NMSTR	115	192	7
NMSI_	115	192	7	96	48	3
NMTAP	115	288	0
NMTAP	116	0	1
NMTAP	116	0	4
NMTAP	116	96	2
NMTAP	116	96	7
NMTAP	116	144	2
NMTAP	116	144	7
NMTAP	116	240	0
NMTAP	116	240	5
NMHLD	116	288	0	288
NMSTR	116	288	5
NMSI_	116	288	5	96	48	2
EXTAP	117	192	1
EXTAP	117	216	2
EXTAP	117	240	3
EXTAP	117	264	4
EXTAP	117	288	1
EXTAP	117	312	2
EXTAP	117	336	3
EXTAP	117	360	4
EXTAP	118	0	0
NMSTR	118	96	3
NMSI_	118	96	3	96	48	1
NMSTR	118	192	3
NMSI_	118	192	3	96	48	5
NMSTR	118	288	3
NMSI_	118	288	3	96	48	0
NMSTR	119	0	3
NMSI_	119	0	3	96	48	6
NMSTR	119	96	3
NMSXR	119	96	3	96	192	0
NMTAP	119	192	3
EXTAP	119	192	7
NMTAP	120	0	7
NMTAP	120	96	1
NMTAP	120	128	0
NMTAP	120	160	2
NMTAP	120	192	0
NMTAP	120	288	6
NMTAP	120	320	7
NMTAP	120	352	5
NMTAP	121	0	7
NMSTR	121	96	5
NMSI_	121	96	5	96	48	0
NMSTR	121	192	3
NMSI_	121	192	3	96	48	6
NMSTR	121	288	7
NMSI_	121	288	7	96	48	2
NMSTR	122	0	1
NMSI_	122	0	1	96	48	4
NMSTR	122	96	5
NMSI_	122	96	5	96	48	0
NMTAP	122	192	3
NMTAP	122	288	2
NMTAP	123	0	1
NMTAP	123	24	0
NMTAP	123	48	1
NMTAP	123	72	0
NMTAP	123	96	2
NMTAP	123	120	7
NMTAP	123	144	2
NMTAP	123	168	7
NMTAP	123	192	3
NMTAP	123	216	6
NMTAP	123	240	3
NMTAP	123	264	6
NMSTR	123	288	4
NMSCL	123	288	4	96	384	5
NMTAP	123	312	5
NMTAP	123	336	4
NMTAP	123	360	5
BRTAP	124	0	4
NMTTP	125	0	7	A	1	M1
NMTTP	125	80	0	B	1	M1
NMTTP	125	160	6	E	1	M1
NMTTP	125	240	2	B	1	M1
NMTTP	125	320	4	E	1	M1
NMHLD	127	0	1	384
NMTAP	127	192	4
NMSTR	128	0	3
NMSUR	128	0	3	96	480	4
CNSCR	129	192	4	0	576	2
EXSTR	131	192	0
NMSSL	131	192	0	96	96	4

T_REC_TAP	272
T_REC_BRK	36
T_REC_XTP	20
T_REC_BXX	14
T_REC_HLD	49
T_REC_XHO	0
T_REC_BHO	1
T_REC_BXH	0
T_REC_STR	85
T_REC_BST	3
T_REC_XST	15
T_REC_XBS	0
T_REC_TTP	49
T_REC_THO	0
T_REC_SLD	103
T_REC_BSL	10
T_REC_ALL	657
T_NUM_TAP	441
T_NUM_BRK	64
T_NUM_HLD	49
T_NUM_SLD	103
T_NUM_ALL	657
T_JUDGE_TAP	494
T_JUDGE_HLD	248
T_JUDGE_SLD	113
T_JUDGE_ALL	855
TTM_EACHPAIRS	100
TTM_SCR_TAP	220500
TTM_SCR_BRK	166400
TTM_SCR_HLD	49000
TTM_SCR_SLD	154500
TTM_SCR_ALL	590400
TTM_SCR_S	566500
TTM_SCR_SS	584000
TTM_RAT_ACV	10109

