VERSION	0.00.00	1.04.00
FES_MODE	0
BPM_DEF	210.000	210.000	210.000	210.000
MET_DEF	4	4
RESOLUTION	384
CLK_DEF	384
COMPATIBLE_CODE	MA2

BPM	0	0	210.000
MET	0	0	4	4

NMSTR	2	0	4
BRSI_	2	0	4	96	480	7
NMSTR	4	0	3
NMSI_	4	0	3	96	480	0
NMSTR	6	0	7
BRSCL	6	0	7	96	480	4
NMSTR	8	0	0
NMSCR	8	0	0	96	480	3
NMHLD	10	0	4	1536
NMTTP	11	0	4	E	0	M1
NMTTP	12	0	0	C	0	M1
NMTAP	13	0	0
NMTAP	13	192	0
NMTAP	14	0	1
NMSTR	14	192	1
BRSI_	14	192	1	96	288	6
NMSUR	14	192	1	96	288	5
BXTAP	16	192	2
BXSTR	16	192	5
NMSCR	16	192	5	96	480	3
NMHLD	19	0	3	192
NMHLD	19	0	4	192
EXTAP	20	0	2
EXSTR	20	0	5
BRSCR	20	0	5	96	576	3
EXTAP	22	0	4
NMTAP	22	192	4
NMHLD	23	0	3	96
NMHLD	23	0	4	96
NMTAP	23	192	3
NMTAP	23	192	4
NMTAP	24	0	4
NMTAP	24	96	4
NMTAP	24	192	5
NMTAP	24	288	5
NMTAP	25	0	3
NMTAP	25	96	3
NMTAP	25	192	2
NMTAP	25	288	2
NMTAP	26	0	4
NMTAP	26	96	5
NMTAP	26	192	3
NMTAP	26	288	2
NMTAP	26	288	4
NMTAP	27	0	1
NMTAP	27	96	7
NMTAP	27	192	6
NMTAP	27	288	5
NMTAP	28	0	3
NMTAP	28	96	3
NMTAP	28	192	2
NMTAP	28	192	4
NMTAP	28	288	3
NMTAP	29	0	5
NMTAP	29	96	5
NMTAP	29	192	4
NMTAP	29	192	6
NMTAP	29	288	5
NMHLD	30	0	1	96
NMTAP	30	96	3
NMHLD	30	192	6	96
NMTAP	30	288	4
NMTAP	31	0	0
NMTAP	31	0	7
NMTAP	31	96	0
NMTAP	31	96	7
BRTAP	31	192	1
BRTAP	31	192	6
NMTAP	32	0	2
NMTAP	32	96	2
NMTAP	32	96	3
NMTAP	32	192	5
NMTAP	32	240	5
NMTAP	32	288	4
NMTAP	33	0	2
NMTAP	33	96	1
NMTAP	33	96	3
NMTAP	33	192	6
NMTAP	33	240	6
NMTAP	33	288	7
NMTAP	34	0	1
NMTAP	34	96	1
NMTAP	34	96	3
NMTAP	34	192	5
NMTAP	34	240	5
NMTAP	34	288	4
NMTAP	35	0	2
NMTAP	35	48	2
NMTAP	35	96	3
NMTAP	35	192	1
NMTAP	35	192	4
NMTAP	35	288	1
NMTAP	35	288	4
NMTAP	36	0	2
NMTAP	36	96	2
NMTAP	36	96	3
NMTAP	36	192	5
NMTAP	36	240	5
NMTAP	36	288	4
NMTAP	37	0	3
NMTAP	37	0	5
NMTAP	37	96	3
NMTAP	37	96	5
NMTAP	37	192	2
NMTAP	37	192	4
NMTAP	37	288	1
NMTAP	37	288	5
NMHLD	38	0	6	96
NMTAP	38	96	4
NMHLD	38	192	2	96
NMTAP	38	288	4
NMTAP	39	0	3
NMTAP	39	96	5
BRTAP	39	192	1
BRTAP	39	192	7
NMHLD	40	0	3	192
NMHLD	40	0	5	1152
NMHLD	41	0	4	192
NMTTP	42	0	5	E	0	M1
NMTTP	42	192	0	C	0	M1
NMTTP	43	0	1	E	0	M1
EXHLD	44	0	2	1152
EXHLD	44	0	4	192
NMHLD	45	0	3	192
NMTTP	46	0	3	E	0	M1
NMTTP	46	192	0	C	0	M1
NMTTP	47	0	7	E	0	M1
BXSTR	48	0	3
NMSCL	48	0	3	96	288	0
BXTAP	48	0	4
CNSSL	49	0	0	0	384	4
CNSCR	50	0	4	0	288	7
NMTAP	51	192	1
NMTAP	51	192	6
BXHLD	52	0	7	672
NMHLD	53	0	0	288
EXHLD	54	0	1	384
EXHLD	54	0	6	384
NMTAP	55	192	3
NMTAP	55	240	3
NMTAP	55	288	4
NMTAP	56	0	3
NMTAP	56	0	5
NMTAP	56	96	3
NMTAP	56	96	5
NMHLD	56	192	2	96
NMHLD	56	192	6	96
NMTTP	57	0	0	C	1	M1
NMTTP	57	0	2	B	0	M1
NMTTP	57	0	6	B	0	M1
BXTAP	58	0	0
BXTAP	58	0	1
NMTAP	58	96	2
NMTAP	58	96	7
BXTAP	58	192	6
BXTAP	58	192	7
NMTAP	58	288	0
NMTAP	58	288	5
NMTAP	59	0	3
NMTAP	59	0	4
NMTAP	59	96	2
NMTAP	59	96	5
NMTAP	59	192	0
NMTAP	59	288	0
BRTAP	60	0	1
BRTAP	60	0	7
NMTAP	60	96	4
NMTAP	60	96	5
NMTAP	60	192	0
NMTAP	60	192	6
NMTAP	60	288	2
NMTAP	60	288	3
NMTAP	61	0	0
NMTAP	61	0	1
NMTAP	61	96	6
NMTAP	61	96	7
BXTAP	61	192	0
BXTAP	61	192	5
NMSTR	62	0	1
NMSI_	62	0	1	96	96	4
NMSTR	62	192	6
NMSI_	62	192	6	96	96	3
NMSTR	63	0	2
NMSI_	63	0	2	96	96	7
EXHLD	63	192	6	192
EXTAP	64	0	4
NMTAP	64	96	3
NMTAP	64	96	5
NMTAP	64	144	3
NMTAP	64	144	5
NMTAP	64	240	2
NMTAP	64	240	4
NMTAP	64	288	2
NMTAP	64	288	4
BRTAP	65	0	1
BRTAP	65	0	5
BRTAP	65	96	3
BRTAP	65	96	4
BRTAP	65	192	2
BRTAP	65	192	6
NMTAP	66	0	0
NMTAP	66	0	1
NMTAP	66	96	3
NMTAP	66	96	4
NMTAP	66	192	6
NMTAP	66	192	7
NMTAP	66	288	3
NMTAP	66	288	4
NMTAP	67	0	0
NMTAP	67	0	1
NMTAP	67	96	2
NMTAP	67	96	3
NMTAP	67	192	5
NMTAP	67	240	5
NMTAP	67	288	4
NMTAP	68	0	3
NMTAP	68	0	6
NMTAP	68	96	4
NMTAP	68	96	5
NMTAP	68	192	1
NMTAP	68	192	4
NMTAP	68	288	2
NMTAP	68	288	3
NMTAP	69	0	0
NMTAP	69	0	1
NMTAP	69	96	6
NMTAP	69	96	7
NMTAP	69	192	4
NMTAP	69	192	5
NMTAP	69	288	2
NMTAP	69	288	3
NMTAP	70	0	1
NMHLD	70	0	6	384
NMTAP	71	0	0
NMTAP	71	96	0
BRTAP	71	192	1
BRTAP	71	192	7
NMHLD	72	0	2	96
NMTAP	72	96	3
NMHLD	72	192	5	96
NMTAP	72	288	4
NMHLD	73	0	1	96
NMTAP	73	96	3
NMHLD	73	192	6	96
NMTAP	73	288	4
NMTAP	74	0	3
NMTAP	74	96	2
NMTAP	74	192	0
NMTAP	74	192	1
NMSTR	74	288	0
NMSCL	74	288	0	96	96	5
NMSTR	74	288	1
NMSCR	74	288	1	96	96	4
EXTAP	75	288	4
EXTAP	75	288	5
NMHLD	76	0	6	96
NMTAP	76	96	7
NMHLD	76	192	1	96
NMTAP	76	288	0
NMHLD	77	0	5	96
NMTAP	77	96	7
NMHLD	77	192	2	96
NMTAP	77	288	0
NMHLD	78	0	4	96
NMHLD	78	96	5	96
NMHLD	78	192	6	96
NMTAP	78	288	7
NMHLD	79	0	0	96
NMHLD	79	96	1	96
NMHLD	79	192	2	96
NMTAP	79	288	3
NMSTR	80	0	4
NMSXL	80	0	4	96	672	7
NMSTR	82	0	1
NMSXL	82	0	1	96	672	4
NMSTR	84	0	6
NMSXL	84	0	6	96	672	1
EXHLD	86	0	2	768
NMHLD	87	0	3	384
NMTAP	88	192	4
NMTAP	89	0	5
NMTAP	89	96	5
NMTAP	89	192	4
NMTAP	90	0	3
NMTAP	90	0	6
NMTAP	90	192	4
NMTAP	90	192	5
NMTAP	91	0	2
NMTAP	91	96	2
NMTAP	91	192	3
NMHLD	92	0	1	1152
NMTAP	92	0	4
NMHLD	94	0	6	384
EXTAP	95	192	3
EXTAP	95	192	4
NMTAP	96	0	2
NMTAP	96	0	3
NMTAP	96	96	2
NMTAP	96	96	3
NMTAP	96	192	3
NMTAP	96	192	4
NMTAP	96	288	3
NMTAP	96	288	4
NMTAP	97	0	4
NMTAP	97	0	5
NMTAP	97	96	4
NMTAP	97	96	5
EXTAP	97	192	3
EXTAP	97	192	6
NMHLD	98	0	0	96
NMHLD	98	0	1	96
NMHLD	98	192	6	96
NMHLD	98	192	7	96
NMHLD	99	0	0	96
NMHLD	99	0	7	96
NMTAP	99	192	0
NMTAP	99	192	7
NMTAP	99	288	0
NMTAP	99	288	7
BRTAP	100	0	0
BRTAP	100	0	1
NMTAP	100	96	4
NMTAP	100	96	5
NMTAP	100	192	6
NMTAP	100	192	7
NMTAP	100	288	2
NMTAP	100	288	3
NMTAP	101	0	0
NMSTR	101	0	1
NMSI_	101	0	1	96	48	5
BXTAP	101	192	7
NMTAP	102	0	0
NMTAP	102	0	6
NMTAP	102	96	0
NMTAP	102	96	6
NMTAP	102	192	2
NMTAP	102	192	3
NMTAP	102	288	4
NMTAP	102	288	5
NMTAP	103	0	0
NMTAP	103	0	1
NMTAP	103	96	6
NMTAP	103	96	7
BRTAP	103	192	0
BRHLD	103	192	5	192
NMTAP	104	0	4
NMTAP	104	96	3
NMTAP	104	96	5
NMTAP	104	144	3
NMTAP	104	144	5
NMTAP	104	240	2
NMTAP	104	240	4
NMTAP	104	288	2
NMTAP	104	288	4
NMTAP	105	0	1
NMTAP	105	0	5
NMTAP	105	96	2
NMTAP	105	96	6
BRTAP	105	192	0
BRTAP	105	192	4
NMTAP	106	0	6
NMTAP	106	0	7
NMTAP	106	96	3
NMTAP	106	96	4
NMTAP	106	192	0
NMTAP	106	192	1
NMTAP	106	288	3
NMTAP	106	288	4
NMTAP	107	0	6
NMTAP	107	0	7
NMTAP	107	96	0
NMTAP	107	96	1
NMTAP	107	192	2
NMTAP	107	240	2
NMTAP	107	288	3
BRTAP	108	0	4
BRTAP	108	0	5
NMTAP	108	96	0
NMTAP	108	96	7
NMTAP	108	192	2
NMTAP	108	192	3
NMTAP	108	288	0
NMTAP	108	288	7
NMSTR	109	0	5
BRSI_	109	0	5	96	48	0
NMSTR	109	192	2
NMSI_	109	192	2	96	48	7
NMSTR	110	0	6
NMSCL	110	0	6	96	384	1
BRSUL	110	0	6	96	384	1
BXHLD	112	0	0	96
EXHLD	112	0	1	96
EXHLD	112	192	6	96
BXHLD	112	192	7	96
EXHLD	113	0	2	96
BXHLD	113	0	3	96
BXHLD	113	192	4	96
EXHLD	113	192	5	96
NMTAP	114	0	2
NMTAP	114	96	1
NMTAP	114	96	3
NMTAP	114	192	0
NMTAP	114	240	0
NMTAP	114	288	7
NMTAP	115	0	5
NMTAP	115	96	4
NMTAP	115	96	6
NMTAP	115	192	7
NMTAP	115	240	7
NMTAP	115	288	0
NMHLD	116	0	1	96
NMHLD	116	96	3	96
NMHLD	116	192	4	96
NMTAP	116	288	6
NMHLD	117	0	6	96
NMHLD	117	96	4	96
NMHLD	117	192	3	96
NMTAP	117	288	1
NMTAP	118	0	1
NMTAP	118	48	1
NMTAP	118	96	0
NMTAP	118	192	2
NMTAP	118	192	7
NMTAP	118	288	4
NMTAP	118	288	5
NMTAP	119	0	6
NMTAP	119	48	6
NMTAP	119	96	7
NMTAP	119	192	0
NMTAP	119	192	5
NMTAP	119	288	2
NMTAP	119	288	3
NMTAP	120	0	0
NMSTR	120	0	1
NMSI_	120	0	1	96	48	4
NMSTR	120	192	6
BRSI_	120	192	6	96	48	3
NMTAP	120	192	7
NMTAP	121	0	0
NMSTR	121	0	1
NMSI_	121	0	1	96	48	4
NMSTR	121	192	6
BRSI_	121	192	6	96	48	3
NMTAP	121	192	7
BRTAP	122	0	0
BRTAP	122	0	1
NMTAP	122	96	0
NMTAP	122	96	1
NMTAP	122	192	6
NMTAP	122	192	7
NMTAP	122	288	6
NMTAP	122	288	7
NMTAP	123	0	1
NMTAP	123	0	3
NMTAP	123	96	4
NMTAP	123	96	6
NMTAP	123	192	2
NMTAP	123	192	3
NMTAP	123	288	4
NMTAP	123	288	5
BRSTR	124	0	3
BRSCL	124	0	3	96	1056	3
BRTAP	124	0	6
NMHLD	128	0	2	288
NMTAP	128	0	4
NMTAP	128	96	3
NMHLD	128	144	3	144
NMTAP	129	0	3
NMHLD	129	0	5	288
NMTAP	129	96	4
NMHLD	129	144	4	144
NMHLD	130	0	2	288
NMTAP	130	0	4
NMTAP	130	96	3
NMHLD	130	144	3	144
NMTAP	131	0	3
NMTAP	131	0	4
NMTAP	131	48	3
NMTAP	131	48	4
NMTAP	131	144	2
NMTAP	131	144	5
NMTAP	131	240	1
NMTAP	131	240	6
NMSTR	131	288	1
NMSI_	131	288	1	96	48	4
NMSTR	131	288	6
BRSI_	131	288	6	96	48	3

T_REC_TAP	308
T_REC_BRK	24
T_REC_XTP	9
T_REC_BXX	9
T_REC_HLD	52
T_REC_XHO	10
T_REC_BHO	1
T_REC_BXH	5
T_REC_STR	23
T_REC_BST	1
T_REC_XST	1
T_REC_XBS	2
T_REC_TTP	11
T_REC_THO	0
T_REC_SLD	19
T_REC_BSL	10
T_REC_ALL	485
T_NUM_TAP	352
T_NUM_BRK	52
T_NUM_HLD	62
T_NUM_SLD	19
T_NUM_ALL	485
T_JUDGE_TAP	388
T_JUDGE_HLD	323
T_JUDGE_SLD	29
T_JUDGE_ALL	740
TTM_EACHPAIRS	145
TTM_SCR_TAP	176000
TTM_SCR_BRK	135200
TTM_SCR_HLD	62000
TTM_SCR_SLD	28500
TTM_SCR_ALL	401700
TTM_SCR_S	384650
TTM_SCR_SS	396500
TTM_RAT_ACV	10131

