VERSION	0.00.00	1.04.00
FES_MODE	0
BPM_DEF	210.000	210.000	210.000	210.000
MET_DEF	4	4
RESOLUTION	384
CLK_DEF	384
COMPATIBLE_CODE	MA2

BPM	0	0	210.000
MET	0	0	4	4

NMTAP	2	0	3
NMTAP	2	192	3
NMTAP	3	0	2
NMTAP	3	192	2
NMTAP	4	0	1
NMTAP	4	192	1
NMTAP	5	0	0
NMTAP	5	0	7
NMTAP	5	192	0
NMTAP	5	192	7
NMTAP	6	0	7
NMTAP	6	192	7
NMTAP	7	0	6
NMTAP	7	192	6
NMTAP	8	0	5
NMTAP	8	192	5
NMTAP	9	0	3
NMTAP	9	0	4
NMTAP	10	0	2
NMTAP	10	96	2
NMTAP	10	192	2
NMTAP	11	0	3
NMTAP	11	96	3
NMTAP	11	192	3
NMTAP	12	0	4
NMTAP	12	96	4
NMTAP	12	192	4
NMTAP	13	0	4
NMTAP	13	0	5
NMTAP	13	192	4
NMTAP	13	192	5
NMHLD	14	0	3	384
NMHLD	14	0	4	384
NMTAP	16	0	4
NMTAP	16	96	4
NMTAP	16	192	4
NMTAP	17	0	5
NMTAP	17	96	5
NMTAP	17	192	5
NMTAP	18	0	6
NMTAP	18	96	6
NMTAP	18	192	6
NMTAP	19	0	7
NMTAP	19	96	7
NMTAP	19	192	7
NMTAP	20	0	0
NMTAP	20	96	0
NMTAP	20	192	0
NMTAP	21	0	1
NMTAP	21	96	1
NMTAP	21	192	1
NMTAP	22	0	2
NMTAP	22	96	2
NMTAP	22	192	2
BXTAP	23	0	3
BXTAP	23	0	4
NMHLD	24	0	2	384
NMHLD	25	0	3	384
NMHLD	26	0	4	384
NMTAP	27	0	5
NMHLD	28	0	5	384
NMHLD	29	0	4	384
NMHLD	30	0	3	384
NMTAP	31	0	2
NMTAP	32	0	1
NMTAP	32	96	1
NMTAP	32	192	0
NMTAP	32	192	1
NMTAP	33	0	2
NMTAP	33	96	2
NMTAP	33	192	2
NMTAP	33	192	3
NMTAP	34	0	4
NMTAP	34	96	4
NMTAP	34	192	4
NMTAP	34	192	5
NMTAP	35	0	6
NMTAP	35	0	7
NMTAP	35	192	6
NMTAP	35	192	7
NMTAP	36	0	6
NMTAP	36	96	6
NMTAP	36	192	6
NMTAP	36	192	7
NMTAP	37	0	5
NMTAP	37	96	5
NMTAP	37	192	4
NMTAP	37	192	5
NMTAP	38	0	3
NMTAP	38	96	3
NMTAP	38	192	2
NMTAP	38	192	3
NMTAP	39	0	0
NMTAP	39	0	1
NMTAP	39	192	0
NMTAP	39	192	1
NMSTR	40	0	7
NMSI_	40	0	7	96	288	3
NMTAP	41	192	2
NMSTR	42	0	1
NMSI_	42	0	1	96	288	5
NMTAP	43	192	6
NMSTR	44	0	6
NMSI_	44	0	6	96	288	3
NMTAP	45	192	2
NMSTR	46	0	2
NMSI_	46	0	2	96	288	7
NMTAP	47	192	6
NMSTR	48	0	6
NMSUL	48	0	6	96	672	3
NMTAP	51	0	2
NMTAP	51	0	3
NMHLD	52	0	3	384
NMHLD	52	0	4	384
NMTAP	54	0	5
NMTAP	54	96	5
NMTAP	54	192	5
NMTAP	55	0	4
NMTAP	55	0	5
NMTAP	56	0	3
NMTAP	56	96	3
NMTAP	56	192	3
NMTAP	57	0	3
NMTAP	57	0	4
NMTAP	58	0	2
NMTAP	58	96	2
NMTAP	58	192	1
NMTAP	58	288	1
NMTAP	59	0	0
NMTAP	59	96	0
NMTAP	59	192	6
NMTAP	59	192	7
BXTAP	60	0	5
NMTAP	60	96	5
NMTAP	60	192	6
NMTAP	60	288	6
NMTAP	61	0	7
NMTAP	61	96	7
NMTAP	61	192	0
NMTAP	61	192	1
NMTAP	62	0	1
NMTAP	62	96	1
NMTAP	62	192	2
NMTAP	62	288	2
NMTAP	63	0	3
NMTAP	63	96	3
NMTAP	63	192	4
NMTAP	63	192	5
NMTAP	64	0	6
NMTAP	64	96	6
NMTAP	64	192	5
NMTAP	64	288	5
NMTAP	65	0	4
NMTAP	65	96	4
NMTAP	65	192	2
NMTAP	65	192	3
NMTAP	66	0	2
NMTAP	66	96	2
NMTAP	66	192	1
NMTAP	66	288	1
NMTAP	67	0	0
NMTAP	67	96	0
NMTAP	67	192	6
NMTAP	67	192	7
NMTAP	68	0	5
NMTAP	68	96	5
NMTAP	68	192	6
NMTAP	68	288	6
NMTAP	69	0	7
NMTAP	69	96	7
NMTAP	69	192	0
NMTAP	69	192	1
NMHLD	70	0	0	384
NMHLD	70	0	7	384
NMTAP	72	0	6
NMTAP	72	96	6
NMTAP	72	192	6
NMTAP	73	0	7
NMTAP	73	96	7
NMTAP	73	192	7
NMTAP	74	0	0
NMTAP	74	96	0
NMTAP	74	192	0
NMTAP	75	0	0
NMTAP	75	0	1
NMTAP	76	0	1
NMTAP	76	96	1
NMTAP	76	192	1
NMTAP	77	0	0
NMTAP	77	96	0
NMTAP	77	192	0
NMTAP	78	0	7
NMTAP	78	96	7
NMTAP	78	192	7
NMTAP	79	0	6
NMTAP	79	0	7
NMSTR	80	0	6
NMSI_	80	0	6	96	288	3
NMSTR	80	0	7
NMSI_	80	0	7	96	288	2
NMSTR	82	0	0
NMSI_	82	0	0	96	288	5
NMSTR	82	0	1
NMSI_	82	0	1	96	288	4
NMSTR	84	0	6
NMSI_	84	0	6	96	288	3
NMSTR	84	0	7
NMSI_	84	0	7	96	288	2
NMSTR	86	0	0
NMSI_	86	0	0	96	288	5
NMSTR	86	0	1
NMSI_	86	0	1	96	288	4
NMTTP	88	0	4	B	0	L1
NMTTP	88	0	5	B	0	L1
NMTTP	89	0	6	B	0	L1
NMTTP	89	0	7	B	0	L1
NMTTP	90	0	0	B	0	L1
NMTTP	90	0	1	B	0	L1
NMTTP	91	0	2	B	0	L1
NMTTP	91	0	3	B	0	L1
NMTHO	92	0	0	384	C	0	L1
NMTTP	94	0	6	B	0	L1
NMTTP	94	96	5	B	0	L1
NMTTP	94	192	4	B	0	L1
NMTTP	94	288	3	B	0	L1
NMTTP	95	0	0	C	0	L1
NMTTP	96	0	1	B	0	L1
NMTTP	96	96	2	B	0	L1
NMTTP	96	192	3	B	0	L1
NMTTP	96	288	4	B	0	L1
NMTTP	97	0	0	C	0	L1
NMTAP	98	0	6
NMTAP	98	96	6
NMTAP	98	192	6
NMTAP	98	192	7
NMTAP	98	288	6
NMTAP	98	288	7
NMTAP	99	0	0
NMTAP	99	96	0
NMTAP	99	192	0
NMTAP	99	192	1
BRTAP	100	0	2
NMTAP	100	96	2
NMTAP	100	192	0
NMTAP	100	192	1
NMTAP	100	288	0
NMTAP	100	288	1
NMTAP	101	0	7
NMTAP	101	96	7
NMTAP	101	192	6
NMTAP	101	192	7
NMTAP	102	0	6
NMTAP	102	96	6
NMTAP	102	192	4
NMTAP	102	192	5
NMTAP	102	288	4
NMTAP	102	288	5
NMTAP	103	0	3
NMTAP	103	96	3
NMTAP	103	192	2
NMTAP	103	192	3
NMTAP	104	0	1
NMTAP	104	96	1
NMTAP	104	192	2
NMTAP	104	192	3
NMTAP	104	288	2
NMTAP	104	288	3
NMTAP	105	0	4
NMTAP	105	96	4
NMTAP	105	192	4
NMTAP	105	192	5
NMTAP	106	0	5
NMTAP	106	96	5
NMTAP	106	192	6
NMTAP	106	192	7
NMTAP	106	288	6
NMTAP	106	288	7
NMTAP	107	0	0
NMTAP	107	96	0
NMTAP	107	192	0
NMTAP	107	192	1
NMTAP	107	288	0
NMTAP	107	288	1
NMTAP	108	0	2
NMTAP	108	96	2
NMTAP	108	192	0
NMTAP	108	192	1
NMTAP	108	288	0
NMTAP	108	288	1
NMTAP	109	0	7
NMTAP	109	96	7
NMTAP	109	192	6
NMTAP	109	192	7
NMHLD	110	0	5	192
NMTAP	110	192	4
NMHLD	111	0	2	192
NMTAP	111	192	3
NMHLD	112	0	5	192
NMTAP	112	192	4
EXTAP	113	0	3
EXTAP	113	0	4
EXTAP	113	96	3
EXTAP	113	96	4
EXTAP	113	192	3
EXTAP	113	192	4
NMTAP	114	0	2
NMTAP	114	96	2
NMTAP	114	192	2
NMTAP	114	288	2
NMTAP	114	288	3
NMTAP	115	0	1
NMTAP	115	96	1
NMTAP	115	192	1
NMTAP	115	288	0
NMTAP	115	288	1
NMTAP	116	0	7
NMTAP	116	96	7
NMTAP	116	192	7
NMTAP	116	288	6
NMTAP	116	288	7
NMTAP	117	0	5
NMTAP	117	96	5
NMTAP	117	192	4
NMTAP	117	192	5
NMTAP	118	0	5
NMTAP	118	96	5
NMTAP	118	192	5
NMTAP	118	288	4
NMTAP	118	288	5
NMTAP	119	0	6
NMTAP	119	96	6
NMTAP	119	192	6
NMTAP	119	288	6
NMTAP	119	288	7
NMTAP	120	0	0
NMTAP	120	96	0
NMTAP	120	192	0
NMTAP	120	288	0
NMTAP	120	288	1
NMTAP	121	0	2
NMTAP	121	96	2
NMTAP	121	192	2
NMTAP	121	192	3
NMTAP	122	0	2
NMTAP	122	96	1
NMTAP	122	192	0
NMTAP	122	288	7
NMTAP	123	0	6
NMTAP	123	96	5
EXTAP	123	192	3
EXTAP	123	192	4
NMHLD	124	0	4	192
NMHLD	124	0	5	192
NMTAP	125	0	4
NMTAP	125	0	5
NMTAP	125	192	4
NMTAP	125	192	5
NMHLD	126	0	6	192
NMHLD	126	0	7	192
NMTAP	127	0	6
NMTAP	127	0	7
NMTAP	127	192	6
NMTAP	127	192	7
NMHLD	128	0	0	192
NMHLD	128	0	1	192
NMTAP	129	0	0
NMTAP	129	0	1
NMTAP	129	192	0
NMTAP	129	192	1
NMTAP	130	0	2
NMTAP	130	0	3
NMTAP	130	192	2
NMTAP	130	192	3
EXHLD	131	0	3	336
EXHLD	131	0	4	336

T_REC_TAP	295
T_REC_BRK	1
T_REC_XTP	8
T_REC_BXX	3
T_REC_HLD	21
T_REC_XHO	2
T_REC_BHO	0
T_REC_BXH	0
T_REC_STR	13
T_REC_BST	0
T_REC_XST	0
T_REC_XBS	0
T_REC_TTP	18
T_REC_THO	1
T_REC_SLD	13
T_REC_BSL	0
T_REC_ALL	375
T_NUM_TAP	334
T_NUM_BRK	4
T_NUM_HLD	24
T_NUM_SLD	13
T_NUM_ALL	375
T_JUDGE_TAP	338
T_JUDGE_HLD	154
T_JUDGE_SLD	13
T_JUDGE_ALL	505
TTM_EACHPAIRS	77
TTM_SCR_TAP	167000
TTM_SCR_BRK	10400
TTM_SCR_HLD	24000
TTM_SCR_SLD	19500
TTM_SCR_ALL	220900
TTM_SCR_S	213900
TTM_SCR_SS	220500
TTM_RAT_ACV	10018

