VERSION	0.00.00	1.04.00
FES_MODE	0
BPM_DEF	160.000	160.000	160.000	160.000
MET_DEF	4	4
RESOLUTION	384
CLK_DEF	384
COMPATIBLE_CODE	MA2

BPM	0	0	160.000
MET	0	0	4	4

NMSTR	1	0	2
NMSI_	1	0	2	96	48	7
NMSTR	1	0	6
NMSI_	1	0	6	96	48	3
NMTAP	1	192	0
NMTAP	1	240	0
BRTAP	1	288	2
BRTAP	1	288	6
NMHLD	2	0	5	96
NMTAP	2	96	4
NMTAP	2	144	4
NMTAP	2	240	6
NMTAP	2	240	7
NMTAP	2	336	4
NMTAP	2	336	5
NMTAP	3	48	2
NMTAP	3	48	3
NMTAP	3	144	1
NMTAP	3	144	7
NMTAP	3	192	1
NMSTR	3	192	7
NMSCL	3	192	7	96	48	4
NMTAP	3	288	0
NMHLD	4	0	2	96
NMTAP	4	96	3
NMTAP	4	144	3
NMTAP	4	240	0
NMTAP	4	240	1
NMTAP	4	336	2
NMTAP	4	336	3
NMTAP	5	48	4
NMTAP	5	48	5
NMTAP	5	144	0
NMTAP	5	144	6
NMSTR	5	192	0
NMSCR	5	192	0	96	48	3
NMTAP	5	192	6
NMTAP	5	288	7
NMSTR	6	0	5
NMSI_	6	0	5	96	48	2
NMTAP	6	96	0
NMSTR	6	192	1
NMSI_	6	192	1	96	48	6
NMTAP	6	288	4
NMTAP	7	0	5
NMTAP	7	48	5
NMTAP	7	96	4
NMTAP	7	144	6
NMTAP	7	192	2
NMTAP	7	240	2
NMTAP	7	288	3
NMTAP	7	336	1
NMTAP	8	0	7
NMTAP	8	48	0
NMTAP	8	96	1
NMTAP	8	144	2
NMTAP	8	192	3
NMTAP	8	240	4
NMTAP	8	288	5
NMTAP	8	336	6
NMTAP	9	0	1
NMSTR	9	0	7
NMSCL	9	0	7	96	192	1
BRTAP	9	96	0
NMTAP	10	0	3
NMTAP	10	0	4
NMTAP	10	48	2
NMSTR	10	96	1
NMSI_	10	96	1	96	48	3
NMSTR	10	96	7
NMSI_	10	96	7	96	48	5
EXSTR	10	192	1
NMSI_	10	192	1	96	48	4
EXSTR	10	192	7
NMSI_	10	192	7	96	48	4
EXTAP	10	288	1
EXTAP	10	288	7
NMTAP	11	0	3
NMTAP	11	0	5
NMTAP	11	48	6
NMTAP	11	96	1
NMSTR	11	96	7
NMSI_	11	96	7	96	48	1
EXTAP	11	192	2
CNSI_	11	240	1	0	48	5
EXTAP	11	240	2
EXTAP	11	288	2
CNSI_	11	288	5	0	48	3
NMHLD	12	0	1	72
NMHLD	12	72	2	72
NMTAP	12	144	3
NMTAP	12	192	1
NMTAP	12	192	5
NMTAP	12	240	1
NMTAP	12	240	5
NMSTR	12	288	0
NMSI_	12	288	0	96	48	2
NMSTR	12	288	6
NMSI_	12	288	6	96	48	4
EXSTR	13	0	0
NMSI_	13	0	0	96	48	3
EXSTR	13	0	6
NMSI_	13	0	6	96	48	3
EXTAP	13	96	0
EXTAP	13	96	6
NMTTP	13	192	7	A	1	M1
NMTTP	13	240	0	C	1	M1
NMTTP	13	288	3	A	1	M1
NMTAP	14	0	1
NMTAP	14	0	6
NMTAP	14	48	2
NMTAP	14	48	5
NMTAP	14	96	3
NMSTR	14	96	4
BRSF_	14	96	4	96	48	0
BXTAP	14	288	4
NMSTR	15	0	0
NMSV_	15	0	0	96	48	3
NMSV_	15	0	0	96	48	5
NMTAP	15	192	2
NMTAP	15	192	6
NMTAP	15	240	2
NMTAP	15	240	6
EXTAP	15	288	1
EXTAP	15	288	7
NMTAP	16	0	4
NMTAP	16	0	5
NMTAP	16	48	3
NMTAP	16	96	2
NMTAP	16	96	4
NMTAP	16	144	5
NMSTR	16	192	2
NMSCR	16	192	2	96	48	5
NMSTR	16	192	6
NMSCR	16	192	6	96	48	1
EXTAP	17	0	0
EXTAP	17	0	7
NMTAP	17	48	6
EXTAP	17	96	0
EXTAP	17	96	7
NMTAP	17	144	1
EXTAP	17	192	2
EXTAP	17	192	4
EXTAP	17	240	1
NMTAP	17	240	5
EXTAP	17	288	0
NMSTR	17	288	6
NMSUL	17	288	6	96	192	4
BRTAP	17	336	7
NMTAP	18	192	3
NMHLD	19	0	6	96
NMHLD	19	96	4	96
NMHLD	19	192	3	96
NMSTR	19	288	1
NMSUR	19	288	1	96	192	3
NMTAP	20	192	4
NMTAP	21	0	4
NMTAP	21	0	5
NMTAP	21	96	2
NMTAP	21	96	3
NMSTR	21	192	3
NMSV_	21	192	3	96	48	0
NMSTR	21	192	5
NMSV_	21	192	5	96	48	0
NMSTR	22	0	7
BRSUL	22	0	7	96	96	2
CNSLR	22	192	2	0	96	1
CNSI_	22	288	1	0	96	5
CNSCR	23	0	5	0	96	0
CNSUL	23	96	0	0	192	3
NMSTR	24	0	0
NMSI_	24	0	0	96	48	2
NMSI_	24	0	0	96	48	3
NMSTR	24	192	7
NMSI_	24	192	7	96	48	4
NMSI_	24	192	7	96	48	5
EXTAP	25	0	2
EXTAP	25	0	3
NMTAP	25	72	3
NMTAP	25	72	4
NMTAP	25	144	4
NMTAP	25	144	5
EXTAP	25	192	4
EXTAP	25	192	6
NMTAP	25	264	3
NMTAP	25	264	4
NMTAP	25	336	1
NMTAP	25	336	3
NMTAP	26	0	0
NMTAP	26	24	7
NMTAP	26	48	0
NMTAP	26	72	7
NMTAP	26	96	0
NMTAP	26	120	7
NMTAP	26	144	0
NMTAP	26	168	7
NMSTR	26	192	0
NMSF_	26	192	0	96	48	4
EXTAP	26	288	0
EXTAP	27	0	1
EXHLD	27	0	7	72
NMHLD	27	72	6	72
NMTAP	27	144	5
NMSTR	27	192	4
NMSI_	27	192	4	96	48	0
NMSTR	27	192	5
NMSI_	27	192	5	96	48	0
NMHLD	28	0	1	72
NMHLD	28	72	2	72
NMTAP	28	144	3
NMSTR	28	192	3
NMSI_	28	192	3	96	48	7
NMSTR	28	192	5
NMSCL	28	192	5	96	48	2
EXTAP	29	0	0
EXTAP	29	0	1
EXTAP	29	72	2
EXTAP	29	72	4
EXTAP	29	144	6
EXSTR	29	144	7
NMSCR	29	144	7	96	96	2
NMSTR	29	240	2
NMSCR	29	240	2	96	96	5
NMSTR	29	336	5
NMSCR	29	336	5	96	96	0
NMSTR	30	48	0
NMSCR	30	48	0	96	96	3
NMTAP	30	144	3
NMTAP	30	240	7
NMTAP	30	288	7
NMTAP	30	336	0
NMTAP	30	336	6
NMHLD	31	0	1	72
NMTAP	31	0	5
NMHLD	31	72	3	72
NMSTR	31	144	4
NMSI_	31	144	4	96	48	0
NMTAP	31	240	6
NMTAP	31	288	6
NMTAP	31	336	7
NMTAP	32	0	0
NMTAP	32	0	5
NMTAP	32	72	2
NMTAP	32	72	3
NMTAP	32	144	4
NMTAP	32	144	6
EXSTR	32	192	4
NMSI_	32	192	4	96	48	0
EXSTR	32	192	6
NMSI_	32	192	6	96	48	4
NMHLD	33	0	7	72
NMHLD	33	72	6	72
NMTAP	33	144	5
NMHLD	33	192	1	72
NMHLD	33	264	2	72
NMTAP	33	336	3
NMSTR	34	0	3
NMSI_	34	0	3	96	48	0
NMSI_	34	0	3	96	48	6
EXTAP	34	96	3
NMSTR	34	192	7
NMSI_	34	192	7	96	48	2
NMSI_	34	192	7	96	48	4
EXTAP	34	288	7
EXHLD	35	0	0	72
EXTAP	35	0	6
NMHLD	35	72	1	72
NMTAP	35	144	2
NMSTR	35	192	2
NMSI_	35	192	2	96	48	7
NMSTR	35	192	3
NMSI_	35	192	3	96	48	7
NMHLD	36	0	6	72
NMHLD	36	72	5	72
NMTAP	36	144	4
NMSTR	36	192	2
NMSCR	36	192	2	96	48	5
NMSTR	36	192	4
NMSI_	36	192	4	96	48	0
EXTAP	37	0	6
EXTAP	37	0	7
EXTAP	37	72	3
EXTAP	37	72	5
EXSTR	37	144	0
BRSCL	37	144	0	96	96	5
EXTAP	37	144	1
EXSTR	37	240	5
BRSCL	37	240	5	96	96	2
EXSTR	37	336	2
BRSCL	37	336	2	96	96	7
EXSTR	38	48	7
BRSCL	38	48	7	96	96	4
EXTAP	38	144	4
BRTAP	38	240	0
BRTAP	38	288	0
BRTAP	38	336	0
EXTAP	39	0	1
EXHLD	39	0	7	72
NMHLD	39	72	5	72
NMTAP	39	144	4
NMHLD	39	192	3	72
NMHLD	39	264	2	72
NMTAP	39	336	0
NMSTR	40	0	1
NMSI_	40	0	1	96	48	4
EXTAP	40	0	7
EXTAP	40	96	1
NMSTR	40	96	6
NMSI_	40	96	6	96	48	3
NMTAP	40	192	2
EXTAP	40	192	6
BRTAP	40	288	0
BRTAP	40	288	7
NMHLD	41	0	4	72
NMHLD	41	0	5	72
NMTAP	41	144	2
NMTAP	41	144	3
NMHLD	41	192	2	72
NMHLD	41	192	3	72
NMTAP	41	336	4
NMTAP	41	336	5
NMSTR	42	0	4
NMSI_	42	0	4	96	48	1
NMSTR	42	0	5
NMSI_	42	0	5	96	48	0
NMTAP	42	192	2
NMTAP	42	192	6
NMSTR	42	288	1
NMSXR	42	288	1	96	576	6
NMSTR	42	288	5
NMSXR	42	288	5	96	576	2
NMTAP	42	336	1
NMTAP	42	336	5
NMHLD	45	0	5	192
NMTAP	45	96	3
NMHLD	45	192	4	192
NMTAP	45	288	2
NMHLD	46	0	3	192
NMTAP	46	96	1
NMTAP	46	192	2
NMTAP	46	288	0
NMTAP	46	288	4
EXTAP	47	0	0
EXTAP	47	12	1
EXTAP	47	24	2
EXTAP	47	36	3
EXTAP	47	48	4
EXTAP	47	60	5
EXTAP	47	72	6
EXTAP	47	84	7
EXTAP	47	96	0
EXTAP	47	108	1
EXTAP	47	120	2
EXTAP	47	132	3
EXTAP	47	144	4
EXTAP	47	156	5
EXTAP	47	168	6
EXTAP	47	180	7
EXTAP	47	192	0
EXTAP	47	204	1
EXTAP	47	216	2
EXTAP	47	228	3
EXTAP	47	240	4
EXTAP	47	252	5
EXTAP	47	264	6
EXTAP	47	276	7
EXTAP	47	288	0
EXTAP	47	300	1
EXTAP	47	312	2
EXTAP	47	324	3
EXTAP	47	336	4
EXTAP	47	348	5
EXTAP	47	360	6
EXTAP	47	372	7
EXTAP	48	0	0
EXTAP	48	12	1
EXTAP	48	24	2
EXTAP	48	36	3
EXTAP	48	48	4
EXTAP	48	60	5
EXTAP	48	72	6
EXTAP	48	84	7
EXTAP	48	96	0
EXTAP	48	108	1
EXTAP	48	120	2
EXTAP	48	132	3
EXTAP	48	144	4
EXTAP	48	156	5
EXTAP	48	168	6
EXTAP	48	180	7
EXTAP	48	192	0
EXTAP	48	204	1
EXTAP	48	216	2
EXTAP	48	228	3
EXTAP	48	240	4
EXTAP	48	252	5
EXTAP	48	264	6
EXTAP	48	276	7
EXTAP	48	288	0
EXTAP	48	300	1
EXTAP	48	312	2
EXTAP	48	324	3
EXTAP	48	336	4
EXTAP	48	348	5
EXTAP	48	360	6
EXTAP	48	372	7
EXTAP	49	0	0
EXTAP	49	12	1
EXTAP	49	24	2
EXTAP	49	36	3
EXTAP	49	48	4
EXTAP	49	60	5
EXTAP	49	72	6
EXTAP	49	84	7
EXTAP	49	96	0
EXTAP	49	108	1
EXTAP	49	120	2
EXTAP	49	132	3
EXTAP	49	144	4
EXTAP	49	156	5
EXTAP	49	168	6
EXTAP	49	180	7
EXTAP	49	192	0
EXTAP	49	204	1
EXTAP	49	216	2
EXTAP	49	228	3
EXTAP	49	240	4
EXTAP	49	252	5
EXTAP	49	264	6
EXTAP	49	276	7
EXTAP	49	288	0
EXTAP	49	300	1
EXTAP	49	312	2
EXTAP	49	324	3
EXTAP	49	336	4
EXTAP	49	348	5
EXTAP	49	360	6
EXTAP	49	372	7
EXTAP	50	0	0
EXTAP	50	12	1
EXTAP	50	24	2
EXTAP	50	36	3
EXTAP	50	48	4
EXTAP	50	60	5
EXTAP	50	72	6
EXTAP	50	84	7
EXTAP	50	96	0
EXTAP	50	108	1
EXTAP	50	120	2
EXTAP	50	132	3
EXTAP	50	144	4
EXTAP	50	156	5
EXTAP	50	168	6
EXTAP	50	180	7
EXTAP	50	192	0
EXTAP	50	204	1
EXTAP	50	216	2
EXTAP	50	228	3
BXTAP	50	240	4
EXHLD	51	0	6	96
EXHLD	51	0	7	96
EXHLD	51	144	1	96
EXHLD	51	144	3	96
EXSTR	51	288	5
NMSCL	51	288	5	96	48	2
NMTAP	52	0	0
NMTAP	52	96	1
NMTAP	52	144	1
NMTAP	52	192	0
NMTAP	52	192	5
NMTAP	52	240	6
NMTAP	52	264	7
NMTAP	52	288	6
NMTAP	52	336	5
NMHLD	53	0	5	96
NMTAP	53	96	4
NMTAP	53	144	4
NMTAP	53	144	6
NMTAP	53	240	2
NMSTR	53	240	3
NMSI_	53	240	3	96	48	7
NMSTR	53	336	1
NMSI_	53	336	1	96	48	6
NMSTR	54	48	5
NMSI_	54	48	5	96	48	2
NMHLD	54	144	0	96
NMTAP	54	240	7
NMTAP	54	288	1
NMTAP	54	288	7
NMTAP	55	0	6
NMHLD	55	48	6	48
NMTAP	55	96	4
NMHLD	55	144	4	48
NMTAP	55	192	3
NMHLD	55	240	3	48
NMTAP	55	288	1
NMHLD	55	336	1	48
EXTAP	56	0	5
NMTAP	56	48	5
NMTAP	56	72	4
EXTAP	56	96	6
NMTAP	56	144	2
NMTAP	56	168	3
EXTAP	56	192	1
NMTAP	56	240	5
NMTAP	56	264	4
EXTAP	56	288	7
NMTAP	56	336	2
NMTAP	56	360	3
EXTAP	57	0	0
NMTAP	57	48	0
NMTAP	57	96	1
NMTAP	57	96	7
NMTAP	57	144	1
NMTAP	57	144	7
NMTAP	57	192	5
NMTAP	57	216	3
NMTAP	57	240	5
NMTAP	57	264	3
NMTAP	57	288	5
NMTAP	57	312	3
NMTAP	57	336	6
EXTAP	58	0	0
EXSTR	58	0	7
NMSI_	58	0	7	96	48	3
NMSTR	58	96	2
NMSI_	58	96	2	96	48	6
NMSTR	58	192	5
NMSI_	58	192	5	96	48	1
NMSTR	58	288	3
NMSCL	58	288	3	96	384	4
NMTTP	59	0	0	C	1	M1
EXHLD	60	0	7	192
NMTAP	60	192	0
NMTAP	60	288	1
EXHLD	61	0	2	96
EXHLD	61	0	3	96
NMHLD	61	192	4	96
NMHLD	61	192	5	96
NMSTR	62	0	3
NMSI_	62	0	3	96	48	1
NMSTR	62	192	4
NMSI_	62	192	4	96	48	6
NMHLD	63	0	1	72
NMHLD	63	72	2	72
NMTAP	63	144	3
NMTAP	63	192	3
NMTAP	63	288	1
NMTAP	63	288	5
NMHLD	64	0	6	72
NMHLD	64	72	5	72
NMTAP	64	144	4
NMTAP	64	192	4
NMTAP	64	288	2
NMTAP	64	288	6
NMTAP	65	0	1
NMTAP	65	48	1
NMTAP	65	96	0
NMTAP	65	144	0
NMTAP	65	192	7
NMTAP	65	240	7
NMTAP	65	288	6
NMTAP	65	336	6
NMTAP	66	0	3
NMTAP	66	24	5
NMTAP	66	48	3
NMTAP	66	72	5
NMTAP	66	96	2
NMTAP	66	120	6
NMTAP	66	144	2
NMTAP	66	168	6
NMTAP	66	192	1
NMTAP	66	216	7
NMTAP	66	240	1
NMTAP	66	264	7
BRTAP	66	288	0
NMTAP	67	0	6
NMTAP	67	0	7
NMTAP	67	72	1
NMSTR	67	72	4
NMSI_	67	72	4	96	48	7
NMTAP	67	144	2
NMTAP	67	192	2
EXTAP	67	240	1
EXTAP	67	264	0
EXTAP	67	288	1
NMTAP	68	0	2
NMHLD	68	0	7	72
NMHLD	68	72	5	72
NMTAP	68	144	3
NMTAP	68	192	3
BRTAP	68	240	1
BRTAP	68	240	5
BRTAP	68	288	1
BRTAP	68	288	5
NMTAP	69	0	6
NMTAP	69	0	7
NMTAP	69	72	3
NMTAP	69	72	5
NMTAP	69	144	0
NMSTR	69	144	1
NMSCL	69	144	1	96	48	6
NMSTR	69	240	5
NMSXR	69	240	5	96	192	2
EXTAP	69	336	0
NMSTR	70	192	0
NMSI_	70	192	0	96	48	4
NMSTR	70	192	7
NMSI_	70	192	7	96	48	3
BRTAP	70	288	0
BRTAP	70	288	7
EXTAP	71	0	1
EXTAP	71	0	6
NMTAP	71	96	3
NMTAP	71	96	5
NMSTR	71	144	3
NMSCL	71	144	3	96	48	0
NMTAP	71	144	5
NMSTR	71	240	4
NMSCR	71	240	4	96	48	7
NMTAP	71	336	2
NMTAP	72	48	1
NMTAP	72	48	5
NMSTR	72	96	1
BRSI_	72	96	1	96	48	4
NMSTR	72	96	5
BRSV_	72	96	5	96	48	0
NMTTP	72	192	0	C	1	M1
EXTAP	72	288	2
EXTAP	72	288	6
NMHLD	73	0	0	72
NMHLD	73	72	1	72
NMTAP	73	144	2
NMHLD	73	192	6	72
NMHLD	73	264	5	72
NMTAP	73	336	4
NMSTR	74	0	4
NMSI_	74	0	4	96	48	1
NMSI_	74	0	4	96	48	7
EXTAP	74	96	4
NMTAP	74	192	2
NMTAP	74	192	6
NMTAP	74	288	0
BXHLD	74	336	0	1104
NMSTR	76	0	6
NMSI_	76	0	6	96	48	3
NMSTR	76	192	3
NMSI_	76	192	3	96	48	7
NMSTR	77	0	7
NMSI_	77	0	7	96	48	2
NMSTR	77	192	2
NMSI_	77	192	2	96	48	6
NMSTR	78	0	1
NMSI_	78	0	1	96	48	4
NMTAP	78	0	5
NMTAP	78	96	5
NMSTR	78	192	4
NMSI_	78	192	4	96	48	0
NMTAP	78	192	5
NMTAP	78	288	5
NMSTR	79	0	0
NMSI_	79	0	0	96	48	5
NMTAP	79	0	6
NMTAP	79	96	6
NMSTR	79	192	5
NMSI_	79	192	5	96	48	1
NMTAP	79	192	6
NMTAP	79	288	6
NMTAP	80	0	2
NMSTR	80	0	7
NMSCL	80	0	7	96	48	4
NMTAP	80	96	2
NMTAP	80	192	1
NMSTR	80	192	3
NMSI_	80	192	3	96	48	7
NMTAP	80	288	1
NMSTR	81	0	0
NMSCR	81	0	0	96	48	3
NMTAP	81	0	6
NMTAP	81	96	6
NMSTR	81	192	4
NMSI_	81	192	4	96	48	0
NMTAP	81	192	5
NMTAP	81	288	5
NMSTR	82	0	6
NMSI_	82	0	6	96	48	3
NMSTR	82	0	7
NMSI_	82	0	7	96	48	2
NMSTR	82	192	0
NMSI_	82	192	0	96	48	5
NMSTR	82	192	1
NMSI_	82	192	1	96	48	4
NMSTR	83	0	0
NMSV_	83	0	0	96	96	7
NMSTR	83	0	7
NMSV_	83	0	7	96	96	0
BRTAP	83	96	0
BRTAP	83	96	7
CNSI_	83	192	0	0	192	2
CNSI_	83	192	7	0	192	5
NMTTP	84	96	0	E	1	M1
NMTHO	84	96	0	672	C	0	M1
NMTTP	84	96	3	B	0	M1
NMTTP	84	96	4	E	0	M1
NMTTP	84	96	7	B	0	M1

T_REC_TAP	245
T_REC_BRK	18
T_REC_XTP	172
T_REC_BXX	2
T_REC_HLD	47
T_REC_XHO	10
T_REC_BHO	0
T_REC_BXH	1
T_REC_STR	80
T_REC_BST	0
T_REC_XST	13
T_REC_XBS	0
T_REC_TTP	9
T_REC_THO	1
T_REC_SLD	91
T_REC_BSL	8
T_REC_ALL	697
T_NUM_TAP	519
T_NUM_BRK	29
T_NUM_HLD	58
T_NUM_SLD	91
T_NUM_ALL	697
T_JUDGE_TAP	539
T_JUDGE_HLD	155
T_JUDGE_SLD	99
T_JUDGE_ALL	793
TTM_EACHPAIRS	121
TTM_SCR_TAP	259500
TTM_SCR_BRK	75400
TTM_SCR_HLD	58000
TTM_SCR_SLD	136500
TTM_SCR_ALL	529400
TTM_SCR_S	510750
TTM_SCR_SS	526500
TTM_RAT_ACV	10055

