VERSION	0.00.00	1.04.00
FES_MODE	0
BPM_DEF	160.000	160.000	160.000	160.000
MET_DEF	4	4
RESOLUTION	384
CLK_DEF	384
COMPATIBLE_CODE	MA2

BPM	0	0	160.000
MET	0	0	4	4

NMTAP	2	0	2
NMTAP	2	96	0
NMTAP	2	96	1
NMTAP	2	192	7
NMTAP	2	288	0
NMTAP	2	288	6
NMTAP	3	0	5
NMTAP	3	96	4
NMTAP	3	96	5
NMTAP	3	192	5
NMTAP	3	240	5
NMTAP	3	288	4
NMTAP	4	0	5
NMTAP	4	96	6
NMTAP	4	96	7
NMTAP	4	192	0
NMTAP	4	288	1
NMTAP	4	288	7
NMTAP	5	0	2
NMTAP	5	96	2
NMTAP	5	96	3
NMTAP	5	192	2
NMTAP	5	240	2
NMTAP	5	288	3
NMTAP	6	0	2
NMTAP	6	0	3
NMTAP	6	96	1
NMTAP	6	96	2
NMTAP	6	192	0
NMTAP	6	192	1
NMTAP	6	288	0
NMTAP	6	288	7
NMTAP	7	0	6
NMTAP	7	0	7
NMTAP	7	96	5
NMTAP	7	96	6
NMTAP	7	192	4
NMTAP	7	192	5
NMTAP	7	288	3
NMTAP	7	288	4
NMTAP	8	0	2
NMTAP	8	48	2
NMTAP	8	96	3
NMTAP	8	192	5
NMTAP	8	240	5
NMTAP	8	288	4
NMTAP	9	0	3
NMTAP	9	0	4
NMTTP	9	96	0	B	0	M1
NMTTP	9	96	1	B	0	M1
NMTTP	9	96	1	E	0	M1
NMTTP	9	96	6	B	0	M1
NMTTP	9	96	7	B	1	M1
NMTTP	9	96	7	E	0	M1
NMTAP	10	0	2
NMTAP	10	0	4
NMSTR	10	96	2
BRSLL	10	96	2	96	96	3
NMSTR	10	96	4
BRSLR	10	96	4	96	96	3
NMTAP	11	0	5
NMHLD	11	96	3	192
NMTAP	11	96	5
EXTAP	11	192	6
NMTTP	11	288	0	C	0	M1
NMTTP	11	288	3	B	0	M1
NMTTP	11	288	4	B	0	M1
NMTAP	12	0	7
NMSTR	12	96	0
NMSCL	12	96	0	96	96	4
NMSCR	12	96	0	96	96	4
NMTAP	13	0	5
NMTAP	13	48	5
NMTAP	13	96	0
NMTAP	13	144	0
NMTAP	13	192	7
BRTAP	13	288	0
BRTAP	13	288	6
NMTAP	14	0	1
NMSTR	14	96	0
NMSXR	14	96	0	96	96	6
NMSTR	14	96	1
NMSCR	14	96	1	96	96	4
NMTAP	15	0	7
NMHLD	15	96	7	96
EXSTR	15	192	4
NMSI_	15	192	4	96	48	0
NMTAP	16	0	6
NMTAP	16	48	6
NMTAP	16	96	7
NMTAP	16	144	7
NMTAP	16	192	5
BRTAP	16	288	0
BRTAP	16	288	4
NMTAP	17	0	1
NMTAP	17	48	1
NMTAP	17	96	3
NMTAP	17	144	3
NMTAP	17	192	2
BRTAP	17	288	0
BRTAP	17	288	7
NMSTR	18	0	6
NMSCL	18	0	6	96	96	3
EXTAP	18	288	2
NMSTR	19	0	2
NMSCL	19	0	2	96	96	7
EXTAP	19	288	6
NMSTR	20	0	5
NMSCR	20	0	5	96	96	0
EXTAP	20	288	1
NMSTR	21	0	1
NMSCR	21	0	1	96	96	4
EXTAP	21	288	5
NMSTR	22	0	2
NMSXR	22	0	2	96	192	5
NMHLD	22	0	4	1344
NMSTR	23	0	6
NMSXL	23	0	6	96	192	3
NMSTR	24	0	2
NMSUR	24	0	2	96	264	4
CNSCR	24	360	4	0	216	1
NMTHO	26	0	0	192	C	0	M1
BXTAP	26	288	0
BXTAP	26	288	7
NMSTR	27	0	0
NMSI_	27	0	0	96	48	4
NMSTR	27	0	1
NMSI_	27	0	1	96	48	4
NMSTR	27	192	6
NMSI_	27	192	6	96	48	3
NMSTR	27	192	7
NMSI_	27	192	7	96	48	3
NMSTR	28	0	0
NMSI_	28	0	0	96	48	4
NMSTR	28	0	1
NMSI_	28	0	1	96	48	4
NMTAP	28	192	6
NMTAP	28	192	7
NMTAP	28	288	6
NMTAP	28	288	7
NMTAP	29	0	4
NMTAP	29	0	5
NMTAP	29	96	6
NMTAP	29	96	7
NMTAP	29	192	0
NMTAP	29	192	1
NMTAP	29	288	2
NMTAP	29	288	3
NMTAP	30	0	4
NMTAP	30	0	5
NMTAP	30	96	6
NMTAP	30	144	6
NMTAP	30	192	7
NMTAP	30	288	0
NMTAP	30	288	5
NMHLD	31	0	6	72
NMHLD	31	72	5	72
NMHLD	31	144	4	96
EXTAP	31	240	0
EXTAP	31	288	0
NMHLD	32	0	1	72
NMHLD	32	72	2	72
NMHLD	32	144	3	96
EXTAP	32	240	7
EXTAP	32	288	7
NMSTR	33	0	4
NMSI_	33	0	4	96	48	1
NMSTR	33	0	5
NMSI_	33	0	5	96	48	0
NMSTR	33	192	2
NMSI_	33	192	2	96	48	7
NMSTR	33	192	3
NMSI_	33	192	3	96	48	6
NMTAP	34	0	4
NMTAP	34	0	5
NMTAP	34	96	4
NMTAP	34	96	5
NMTAP	34	192	2
NMTAP	34	192	3
BRTAP	34	288	0
BRTAP	34	288	5
NMSTR	35	0	6
NMSI_	35	0	6	96	48	3
NMSTR	35	0	7
NMSI_	35	0	7	96	48	3
NMSTR	35	192	0
NMSI_	35	192	0	96	48	4
NMSTR	35	192	1
NMSI_	35	192	1	96	48	4
NMSTR	36	0	6
NMSI_	36	0	6	96	48	3
NMSTR	36	0	7
NMSI_	36	0	7	96	48	3
NMTAP	36	192	0
NMTAP	36	192	1
NMTAP	36	288	0
NMTAP	36	288	1
NMTAP	37	0	2
NMTAP	37	0	3
NMTAP	37	96	0
NMTAP	37	96	1
NMTAP	37	192	6
NMTAP	37	192	7
NMTAP	37	288	4
NMTAP	37	288	5
NMTAP	38	0	2
NMTAP	38	0	3
NMTAP	38	96	1
NMTAP	38	144	1
NMTAP	38	192	0
NMTAP	38	288	2
NMTAP	38	288	7
NMTAP	39	0	0
NMSTR	39	0	1
NMSCR	39	0	1	96	48	4
NMSTR	39	192	6
NMSCL	39	192	6	96	48	3
NMTAP	39	192	7
NMTAP	40	0	2
NMTAP	40	96	0
NMTAP	40	96	7
BRTAP	40	192	2
BRTAP	40	192	6
NMSTR	41	0	3
NMSI_	41	0	3	96	48	0
NMSTR	41	0	7
NMSI_	41	0	7	96	48	4
NMSTR	41	192	1
NMSI_	41	192	1	96	48	4
NMSTR	41	192	5
NMSI_	41	192	5	96	48	0
NMSTR	42	0	2
NMSI_	42	0	2	96	48	7
NMSTR	42	0	6
NMSI_	42	0	6	96	48	3
NMTAP	42	192	1
NMTAP	42	192	5
NMTAP	42	288	0
NMTAP	42	288	6
NMTAP	42	336	0
NMTAP	42	336	6
BRHLD	43	0	1	192
BRTAP	43	0	5
NMHLD	43	192	3	192
NMHLD	44	0	4	192
NMTAP	44	192	6
NMTAP	44	288	6
NMHLD	45	0	6	192
NMHLD	45	192	4	192
NMHLD	46	0	3	192
NMTAP	46	192	2
NMTAP	46	288	2
NMTAP	46	288	3
BRHLD	47	0	0	1344
BRSTR	47	0	6
BRSI_	47	0	6	96	192	0
CNSI_	47	288	0	0	240	4
CNSI_	48	144	4	0	192	2
CNSI_	48	336	2	0	192	4
CNSI_	49	144	4	0	240	0
CNSI_	50	0	0	0	192	6
NMTAP	50	288	7
BRTAP	51	0	0
BRTAP	51	0	6
NMTAP	51	96	1
NMTAP	51	144	1
NMTAP	51	144	3
NMTAP	51	240	6
NMTAP	51	288	4
NMTAP	51	288	6
NMTAP	52	0	2
NMTAP	52	48	0
NMTAP	52	48	2
NMTAP	52	144	5
NMTAP	52	192	5
NMTAP	52	192	7
NMTAP	52	288	3
NMTAP	52	288	4
NMTAP	53	0	0
NMTAP	53	0	7
NMTAP	53	96	6
NMHLD	53	144	6	96
NMHLD	53	240	4	96
NMHLD	53	336	3	96
NMHLD	54	48	1	96
NMTAP	54	144	0
NMTAP	54	240	2
NMTAP	54	240	7
NMTAP	54	288	2
NMTAP	54	288	7
NMTAP	55	0	6
NMTAP	55	48	6
NMTAP	55	96	5
NMTAP	55	96	7
NMTAP	55	192	2
NMTAP	55	240	2
NMTAP	55	288	1
NMTAP	55	288	3
NMTAP	56	0	5
NMTAP	56	48	5
NMTAP	56	96	4
NMTAP	56	96	6
NMTAP	56	192	1
NMTAP	56	240	1
NMTAP	56	288	0
NMTAP	56	288	2
NMTAP	57	0	7
NMTAP	57	48	7
NMTAP	57	96	1
NMTAP	57	144	1
NMTAP	57	192	6
NMTAP	57	240	6
NMTAP	57	288	0
NMTAP	58	0	0
NMTAP	58	0	7
NMTAP	58	96	2
NMTAP	58	96	3
NMTAP	58	192	4
NMTAP	58	192	5
NMTAP	58	288	0
NMTAP	58	288	7
BRHLD	59	0	1	768
BRTAP	59	0	6
NMTTP	60	0	1	E	0	M1
NMTTP	60	192	3	E	0	M1
NMHLD	61	0	5	768
NMTTP	62	0	7	E	0	M1
NMTTP	62	192	5	E	0	M1
NMHLD	63	0	2	384
NMTTP	63	192	0	B	0	M1
NMTTP	63	192	0	E	0	M1
NMTTP	63	192	7	B	0	M1
NMHLD	64	0	5	384
NMTTP	64	192	0	B	0	M1
NMTTP	64	192	0	E	0	M1
NMTTP	64	192	7	B	0	M1
NMSTR	65	0	3
NMSXL	65	0	3	96	288	3
NMSXR	65	0	3	96	288	3
BXTAP	66	192	1
BXTAP	66	192	5
NMSTR	67	0	6
NMSI_	67	0	6	96	48	2
NMSTR	67	0	7
NMSI_	67	0	7	96	48	3
NMSTR	67	192	0
NMSI_	67	192	0	96	48	4
NMSTR	67	192	1
NMSI_	67	192	1	96	48	5
NMSTR	68	0	6
NMSI_	68	0	6	96	48	2
NMSTR	68	0	7
NMSI_	68	0	7	96	48	3
NMTAP	68	192	0
NMTAP	68	192	1
NMTAP	68	288	0
NMTAP	68	288	1
NMTAP	69	0	1
NMTAP	69	0	3
NMTAP	69	96	3
NMTAP	69	96	4
NMTAP	69	192	4
NMTAP	69	192	6
NMTAP	69	288	0
NMTAP	69	288	7
NMTAP	70	0	1
NMTAP	70	0	3
NMTAP	70	96	2
NMTAP	70	96	3
BRTAP	70	192	0
BRTAP	70	192	4
BRTAP	70	288	0
BRTAP	70	288	4
NMHLD	71	0	5	96
NMTAP	71	96	7
NMHLD	71	144	7	96
NMHLD	71	240	1	96
NMHLD	71	336	3	96
NMTAP	72	48	4
NMTAP	72	96	4
BRTAP	72	192	1
BRTAP	72	192	7
NMSTR	73	0	2
NMSI_	73	0	2	96	48	5
NMSTR	73	0	6
NMSI_	73	0	6	96	48	1
NMSTR	73	192	0
NMSI_	73	192	0	96	48	5
NMSTR	73	192	4
NMSI_	73	192	4	96	48	1
NMSTR	74	0	2
NMSI_	74	0	2	96	48	7
NMSTR	74	0	6
NMSI_	74	0	6	96	48	3
NMTAP	74	192	4
NMSTR	74	288	4
BRSF_	74	288	4	96	288	0
BRTAP	76	0	2
BRTAP	76	0	6
NMTAP	76	96	1
NMTAP	76	144	1
NMTAP	76	240	0
NMTAP	76	240	1
NMTAP	76	336	6
NMTAP	77	48	6
NMTAP	77	48	7
NMTAP	77	144	0
NMTAP	77	144	5
NMTAP	77	240	2
NMTAP	77	240	3
NMTAP	77	288	2
NMTAP	77	288	3
NMTAP	78	0	1
NMTAP	78	0	4
NMTAP	78	96	6
NMTAP	78	144	6
NMTAP	78	240	6
NMTAP	78	240	7
NMTAP	78	336	1
NMTAP	79	48	0
NMTAP	79	48	1
NMTAP	79	144	2
NMTAP	79	144	7
NMTAP	79	240	4
NMTAP	79	240	5
NMTAP	79	288	4
NMTAP	79	288	5
NMTAP	80	0	3
NMTAP	80	0	6
NMTAP	80	96	2
NMTAP	80	144	2
NMTAP	80	240	2
NMTAP	80	240	3
NMTAP	80	336	5
NMTAP	81	48	4
NMTAP	81	48	5
NMTAP	81	144	2
NMTAP	81	144	6
NMTAP	81	240	0
NMTAP	81	240	4
NMTAP	81	288	0
NMTAP	81	288	4
NMHLD	82	0	1	72
NMHLD	82	72	2	72
NMTAP	82	144	3
NMHLD	82	192	6	72
NMHLD	82	264	5	72
NMTAP	82	336	4
NMSTR	83	0	4
BRSI_	83	0	4	96	144	1
BRSI_	83	0	4	96	144	7
CNSI_	83	240	1	0	144	3
CNSI_	83	240	7	0	144	5
BRTAP	84	96	2
BRTAP	84	96	6

T_REC_TAP	249
T_REC_BRK	24
T_REC_XTP	9
T_REC_BXX	4
T_REC_HLD	29
T_REC_XHO	0
T_REC_BHO	3
T_REC_BXH	0
T_REC_STR	51
T_REC_BST	1
T_REC_XST	1
T_REC_XBS	0
T_REC_TTP	19
T_REC_THO	1
T_REC_SLD	50
T_REC_BSL	6
T_REC_ALL	447
T_NUM_TAP	329
T_NUM_BRK	38
T_NUM_HLD	30
T_NUM_SLD	50
T_NUM_ALL	447
T_JUDGE_TAP	358
T_JUDGE_HLD	174
T_JUDGE_SLD	56
T_JUDGE_ALL	588
TTM_EACHPAIRS	120
TTM_SCR_TAP	164500
TTM_SCR_BRK	98800
TTM_SCR_HLD	30000
TTM_SCR_SLD	75000
TTM_SCR_ALL	368300
TTM_SCR_S	353600
TTM_SCR_SS	364500
TTM_RAT_ACV	10104

